  0
SECTION
  2
HEADER
  9
$ACADVER
  1
AC1014
  9
$ACADMAINTVER
 70
     9
  9
$DWGCODEPAGE
  3
ANSI_936
  9
$INSBASE
 10
0.0
 20
0.0
 30
0.0
  9
$EXTMIN
 10
3405.367688137898
 20
512.5401893136353
 30
0.0
  9
$EXTMAX
 10
4535.856462477055
 20
1645.338705088237
 30
0.0
  9
$LIMMIN
 10
0.0
 20
0.0
  9
$LIMMAX
 10
420.0
 20
297.0
  9
$ORTHOMODE
 70
     0
  9
$REGENMODE
 70
     1
  9
$FILLMODE
 70
     1
  9
$QTEXTMODE
 70
     0
  9
$MIRRTEXT
 70
     0
  9
$DRAGMODE
 70
     2
  9
$LTSCALE
 40
1.0
  9
$OSMODE
 70
    37
  9
$ATTMODE
 70
     1
  9
$TEXTSIZE
 40
2.5
  9
$TRACEWID
 40
1.0
  9
$TEXTSTYLE
  7
STANDARD
  9
$CLAYER
  8
0
  9
$CELTYPE
  6
BYLAYER
  9
$CECOLOR
 62
   256
  9
$CELTSCALE
 40
1.0
  9
$DELOBJ
 70
     1
  9
$DISPSILH
 70
     0
  9
$DIMSCALE
 40
1.0
  9
$DIMASZ
 40
2.5
  9
$DIMEXO
 40
0.625
  9
$DIMDLI
 40
3.75
  9
$DIMRND
 40
0.0
  9
$DIMDLE
 40
0.0
  9
$DIMEXE
 40
1.25
  9
$DIMTP
 40
0.0
  9
$DIMTM
 40
0.0
  9
$DIMTXT
 40
2.5
  9
$DIMCEN
 40
2.5
  9
$DIMTSZ
 40
0.0
  9
$DIMTOL
 70
     0
  9
$DIMLIM
 70
     0
  9
$DIMTIH
 70
     0
  9
$DIMTOH
 70
     0
  9
$DIMSE1
 70
     0
  9
$DIMSE2
 70
     0
  9
$DIMTAD
 70
     1
  9
$DIMZIN
 70
     8
  9
$DIMBLK
  1

  9
$DIMASO
 70
     1
  9
$DIMSHO
 70
     1
  9
$DIMPOST
  1

  9
$DIMAPOST
  1

  9
$DIMALT
 70
     0
  9
$DIMALTD
 70
     3
  9
$DIMALTF
 40
0.03937007874016
  9
$DIMLFAC
 40
1.0
  9
$DIMTOFL
 70
     1
  9
$DIMTVP
 40
0.0
  9
$DIMTIX
 70
     0
  9
$DIMSOXD
 70
     0
  9
$DIMSAH
 70
     0
  9
$DIMBLK1
  1

  9
$DIMBLK2
  1

  9
$DIMSTYLE
  2
ISO-25
  9
$DIMCLRD
 70
     0
  9
$DIMCLRE
 70
     0
  9
$DIMCLRT
 70
     0
  9
$DIMTFAC
 40
1.0
  9
$DIMGAP
 40
0.625
  9
$DIMJUST
 70
     0
  9
$DIMSD1
 70
     0
  9
$DIMSD2
 70
     0
  9
$DIMTOLJ
 70
     0
  9
$DIMTZIN
 70
     8
  9
$DIMALTZ
 70
     0
  9
$DIMALTTZ
 70
     0
  9
$DIMFIT
 70
     3
  9
$DIMUPT
 70
     0
  9
$DIMUNIT
 70
     2
  9
$DIMDEC
 70
     2
  9
$DIMTDEC
 70
     2
  9
$DIMALTU
 70
     2
  9
$DIMALTTD
 70
     3
  9
$DIMTXSTY
  7
STANDARD
  9
$DIMAUNIT
 70
     0
  9
$LUNITS
 70
     2
  9
$LUPREC
 70
     4
  9
$SKETCHINC
 40
1.0
  9
$FILLETRAD
 40
0.0
  9
$AUNITS
 70
     0
  9
$AUPREC
 70
     0
  9
$MENU
  1
.
  9
$ELEVATION
 40
0.0
  9
$PELEVATION
 40
0.0
  9
$THICKNESS
 40
0.0
  9
$LIMCHECK
 70
     0
  9
$CHAMFERA
 40
0.0
  9
$CHAMFERB
 40
0.0
  9
$CHAMFERC
 40
0.0
  9
$CHAMFERD
 40
0.0
  9
$SKPOLY
 70
     0
  9
$TDCREATE
 40
2460229.650486111
  9
$TDUPDATE
 40
2460669.462429201
  9
$TDINDWG
 40
0.0742592593
  9
$TDUSRTIMER
 40
0.0742592593
  9
$USRTIMER
 70
     1
  9
$ANGBASE
 50
0.0
  9
$ANGDIR
 70
     0
  9
$PDMODE
 70
     0
  9
$PDSIZE
 40
0.0
  9
$PLINEWID
 40
0.0
  9
$COORDS
 70
     1
  9
$SPLFRAME
 70
     0
  9
$SPLINETYPE
 70
     6
  9
$SPLINESEGS
 70
     8
  9
$ATTDIA
 70
     0
  9
$ATTREQ
 70
     1
  9
$HANDLING
 70
     1
  9
$HANDSEED
  5
AB2
  9
$SURFTAB1
 70
     6
  9
$SURFTAB2
 70
     6
  9
$SURFTYPE
 70
     6
  9
$SURFU
 70
     6
  9
$SURFV
 70
     6
  9
$UCSNAME
  2

  9
$UCSORG
 10
0.0
 20
0.0
 30
0.0
  9
$UCSXDIR
 10
1.0
 20
0.0
 30
0.0
  9
$UCSYDIR
 10
0.0
 20
1.0
 30
0.0
  9
$PUCSNAME
  2

  9
$PUCSORG
 10
0.0
 20
0.0
 30
0.0
  9
$PUCSXDIR
 10
1.0
 20
0.0
 30
0.0
  9
$PUCSYDIR
 10
0.0
 20
1.0
 30
0.0
  9
$USERI1
 70
     0
  9
$USERI2
 70
     0
  9
$USERI3
 70
     0
  9
$USERI4
 70
     0
  9
$USERI5
 70
     0
  9
$USERR1
 40
0.0
  9
$USERR2
 40
0.0
  9
$USERR3
 40
0.0
  9
$USERR4
 40
0.0
  9
$USERR5
 40
0.0
  9
$WORLDVIEW
 70
     1
  9
$SHADEDGE
 70
     3
  9
$SHADEDIF
 70
    70
  9
$TILEMODE
 70
     1
  9
$MAXACTVP
 70
    64
  9
$PINSBASE
 10
0.0
 20
0.0
 30
0.0
  9
$PLIMCHECK
 70
     0
  9
$PEXTMIN
 10
0.0
 20
0.0
 30
0.0
  9
$PEXTMAX
 10
0.0
 20
0.0
 30
0.0
  9
$PLIMMIN
 10
0.0
 20
0.0
  9
$PLIMMAX
 10
12.0
 20
9.0
  9
$UNITMODE
 70
     0
  9
$VISRETAIN
 70
     1
  9
$PLINEGEN
 70
     0
  9
$PSLTSCALE
 70
     1
  9
$TREEDEPTH
 70
  3020
  9
$PICKSTYLE
 70
     1
  9
$CMLSTYLE
  2
STANDARD
  9
$CMLJUST
 70
     0
  9
$CMLSCALE
 40
20.0
  9
$PROXYGRAPHICS
 70
     1
  9
$MEASUREMENT
 70
     1
  0
ENDSEC
  0
SECTION
  2
CLASSES
  0
CLASS
  1
ACDBDICTIONARYWDFLT
  2
AcDbDictionaryWithDefault
  3
ObjectDBX Classes
 90
        0
280
     0
281
     0
  0
CLASS
  1
ACDBPLACEHOLDER
  2
AcDbPlaceHolder
  3
ObjectDBX Classes
 90
        0
280
     0
281
     0
  0
CLASS
  1
LAYOUT
  2
AcDbLayout
  3
ObjectDBX Classes
 90
        0
280
     0
281
     0
  0
CLASS
  1
DICTIONARYVAR
  2
AcDbDictionaryVar
  3
ObjectDBX Classes
 90
        0
280
     0
281
     0
  0
CLASS
  1
TABLESTYLE
  2
AcDbTableStyle
  3
ObjectDBX Classes
 90
     4095
280
     0
281
     0
  0
CLASS
  1
MATERIAL
  2
AcDbMaterial
  3
ObjectDBX Classes
 90
     1153
280
     0
281
     0
  0
CLASS
  1
VISUALSTYLE
  2
AcDbVisualStyle
  3
ObjectDBX Classes
 90
     4095
280
     0
281
     0
  0
CLASS
  1
SCALE
  2
AcDbScale
  3
ObjectDBX Classes
 90
     1153
280
     0
281
     0
  0
CLASS
  1
MLEADERSTYLE
  2
AcDbMLeaderStyle
  3
ACDB_MLEADERSTYLE_CLASS
 90
     4095
280
     0
281
     0
  0
CLASS
  1
CELLSTYLEMAP
  2
AcDbCellStyleMap
  3
ObjectDBX Classes
 90
     1152
280
     0
281
     0
  0
CLASS
  1
EXACXREFPANELOBJECT
  2
ExAcXREFPanelObject
  3
EXAC_ESW
 90
     1025
280
     1
281
     0
  0
CLASS
  1
NPOCOLLECTION
  2
AcDbImpNonPersistentObjectsCollection
  3
ObjectDBX Classes
 90
     1153
280
     1
281
     0
  0
CLASS
  1
LAYER_INDEX
  2
AcDbLayerIndex
  3
ObjectDBX Classes
 90
        0
280
     0
281
     0
  0
CLASS
  1
SPATIAL_INDEX
  2
AcDbSpatialIndex
  3
AutoCAD 2000
 90
        0
280
     0
281
     0
  0
CLASS
  1
IDBUFFER
  2
AcDbIdBuffer
  3
ObjectDBX Classes
 90
        0
280
     0
281
     0
  0
CLASS
  1
ACDBSECTIONVIEWSTYLE
  2
AcDbSectionViewStyle
  3
ObjectDBX Classes
 90
     1025
280
     0
281
     0
  0
CLASS
  1
ACDBDETAILVIEWSTYLE
  2
AcDbDetailViewStyle
  3
ObjectDBX Classes
 90
     1025
280
     0
281
     0
  0
CLASS
  1
ACDBASSOC2DCONSTRAINTGROUP
  2
AcDbAssoc2dConstraintGroup
  3
ObjectDBX Classes
 90
     1025
280
     1
281
     0
  0
CLASS
  1
ACDBASSOCGEOMDEPENDENCY
  2
AcDbAssocGeomDependency
  3
ObjectDBX Classes
 90
     1025
280
     1
281
     0
  0
CLASS
  1
ACDBASSOCVALUEDEPENDENCY
  2
AcDbAssocValueDependency
  3
ObjectDBX Classes
 90
     1025
280
     1
281
     0
  0
CLASS
  1
ACDBASSOCDEPENDENCY
  2
AcDbAssocDependency
  3
ObjectDBX Classes
 90
     1025
280
     1
281
     0
  0
CLASS
  1
ASSOCDIMDEPENDENCYBODY
  2
AcDbAssocDimDependencyBody
  3
ObjectDBX Classes
 90
     1025
280
     1
281
     0
  0
CLASS
  1
ACDBASSOCVARIABLE
  2
AcDbAssocVariable
  3
ObjectDBX Classes
 90
     1025
280
     1
281
     0
  0
CLASS
  1
ACDBASSOCNETWORK
  2
AcDbAssocNetwork
  3
ObjectDBX Classes
 90
     1025
280
     1
281
     0
  0
CLASS
  1
RAPIDRTRENDERSETTINGS
  2
AcDbRapidRTRenderSettings
  3
ObjectDBX Classes
 90
     1024
280
     0
281
     0
  0
CLASS
  1
ACAD_TABLE
  2
AcDbTable
  3
ObjectDBX Classes
 90
     1025
280
     0
281
     1
  0
CLASS
  1
TABLECONTENT
  2
AcDbTableContent
  3
ObjectDBX Classes
 90
     1152
280
     0
281
     0
  0
CLASS
  1
TABLEGEOMETRY
  2
AcDbTableGeometry
  3
ObjectDBX Classes
 90
     1152
280
     0
281
     0
  0
CLASS
  1
ACAD_PROXY_OBJECT_WRAPPER
  2
AcDbProxyObjectWrapper
  3
AutoCAD 2000
 90
        0
280
     0
281
     0
  0
CLASS
  1
XRECORD
  2
AcDbXrecord
  3
ObjectDBX Classes
 90
        0
280
     0
281
     0
  0
CLASS
  1
LWPOLYLINE
  2
AcDbPolyline
  3
ObjectDBX Classes
 90
        0
280
     0
281
     1
  0
CLASS
  1
HATCH
  2
AcDbHatch
  3
ObjectDBX Classes
 90
        0
280
     0
281
     1
  0
ENDSEC
  0
SECTION
  2
TABLES
  0
TABLE
  2
VPORT
  5
8
102
{ACAD_XDICTIONARY
360
AAB
102
}
330
0
100
AcDbSymbolTable
 70
     1
  0
VPORT
  5
EA
330
8
100
AcDbSymbolTableRecord
100
AcDbViewportTableRecord
  2
*ACTIVE
 70
     0
 10
0.0
 20
0.0
 11
1.0
 21
1.0
 12
3954.115489794009
 22
1518.923099682242
 13
0.0
 23
0.0
 14
10.0
 24
10.0
 15
10.0
 25
10.0
 16
0.0
 26
0.0
 36
1.0
 17
0.0
 27
0.0
 37
0.0
 40
687.5472695881639
 41
2.100765306122449
 42
50.0
 43
0.0
 44
0.0
 50
0.0
 51
0.0
 71
     0
 72
  1000
 73
     1
 74
     3
 75
     0
 76
     1
 77
     0
 78
     0
1001
ACAD_NAV_VCDISPLAY
1070
     3
  0
ENDTAB
  0
TABLE
  2
LTYPE
  5
5
330
0
100
AcDbSymbolTable
 70
     2
  0
LTYPE
  5
14
330
5
100
AcDbSymbolTableRecord
100
AcDbLinetypeTableRecord
  2
BYBLOCK
 70
     0
  3

 72
    65
 73
     0
 40
0.0
  0
LTYPE
  5
15
330
5
100
AcDbSymbolTableRecord
100
AcDbLinetypeTableRecord
  2
BYLAYER
 70
     0
  3

 72
    65
 73
     0
 40
0.0
  0
LTYPE
  5
16
330
5
100
AcDbSymbolTableRecord
100
AcDbLinetypeTableRecord
  2
CONTINUOUS
 70
     0
  3
Solid line
 72
    65
 73
     0
 40
0.0
  0
LTYPE
  5
2DF
330
5
100
AcDbSymbolTableRecord
100
AcDbLinetypeTableRecord
  2
CENTER
 70
     0
  3
Center ____ _ ____ _ ____ _ ____ _ ____ _ ____
 72
    65
 73
     4
 40
10.16
 49
6.35
 74
     0
 49
-1.27
 74
     0
 49
1.27
 74
     0
 49
-1.27
 74
     0
  0
ENDTAB
  0
TABLE
  2
LAYER
  5
2
102
{ACAD_XDICTIONARY
360
1FF
102
}
330
0
100
AcDbSymbolTable
 70
    10
  0
LAYER
  5
10
330
2
100
AcDbSymbolTableRecord
100
AcDbLayerTableRecord
  2
0
 70
     0
 62
     7
  6
CONTINUOUS
  0
LAYER
  5
2E0
330
2
100
AcDbSymbolTableRecord
100
AcDbLayerTableRecord
  2
粗实线层
 70
     0
 62
     7
  6
CONTINUOUS
  0
LAYER
  5
2E2
330
2
100
AcDbSymbolTableRecord
100
AcDbLayerTableRecord
  2
细实线层
 70
     0
 62
     7
  6
CONTINUOUS
  0
LAYER
  5
2E4
330
2
100
AcDbSymbolTableRecord
100
AcDbLayerTableRecord
  2
DEFPOINTS
 70
     0
 62
     7
  6
CONTINUOUS
  0
LAYER
  5
2E5
330
2
100
AcDbSymbolTableRecord
100
AcDbLayerTableRecord
  2
1轮廓实线层
 70
     0
 62
     7
  6
CONTINUOUS
  0
LAYER
  5
2E7
330
2
100
AcDbSymbolTableRecord
100
AcDbLayerTableRecord
  2
3中心线层
 70
     0
 62
     1
  6
CENTER
  0
LAYER
  5
2E9
330
2
100
AcDbSymbolTableRecord
100
AcDbLayerTableRecord
  2
6文字层
 70
     0
 62
     3
  6
CONTINUOUS
  0
LAYER
  5
2EB
330
2
100
AcDbSymbolTableRecord
100
AcDbLayerTableRecord
  2
7标注层
 70
     0
 62
     4
  6
CONTINUOUS
  0
LAYER
  5
2ED
330
2
100
AcDbSymbolTableRecord
100
AcDbLayerTableRecord
  2
2细线层
 70
     0
 62
     4
  6
CONTINUOUS
  0
LAYER
  5
2EF
330
2
100
AcDbSymbolTableRecord
100
AcDbLayerTableRecord
  2
ADSK_CONSTRAINTS
 70
     0
 62
     7
  6
CONTINUOUS
  0
ENDTAB
  0
TABLE
  2
STYLE
  5
3
330
0
100
AcDbSymbolTable
 70
     5
  0
STYLE
  5
11
330
3
100
AcDbSymbolTableRecord
100
AcDbTextStyleTableRecord
  2
STANDARD
 70
     0
 40
0.0
 41
1.0
 50
0.0
 71
     0
 42
2.5
  3
arial.ttf
  4

1001
ACAD
1000
Arial
1071
       34
  0
STYLE
  5
132
330
3
100
AcDbSymbolTableRecord
100
AcDbTextStyleTableRecord
  2
ANNOTATIVE
 70
     0
 40
0.0
 41
1.0
 50
0.0
 71
     0
 42
2.5
  3
arial.ttf
  4

1001
ACADANNOTATIVE
1000
AnnotativeData
1002
{
1070
     1
1070
     1
1002
}
1001
ACAD
1000
Arial
1071
       34
  0
STYLE
  5
2F0
330
3
100
AcDbSymbolTableRecord
100
AcDbTextStyleTableRecord
  2
标准
 70
     0
 40
9.59
 41
1.0
 50
0.0
 71
     0
 42
2.5
  3

  4

1001
ACAD
1000
SimSun
1071
       34
  0
STYLE
  5
2F1
330
3
100
AcDbSymbolTableRecord
100
AcDbTextStyleTableRecord
  2
TH-GBD2M
 70
     0
 40
2.5
 41
0.8
 50
0.0
 71
     0
 42
2.5
  3
calibri.ttf
  4

1001
ACADANNOTATIVE
1000
AnnotativeData
1002
{
1070
     1
1070
     1
1002
}
1001
ACAD
1000
Calibri
1071
       34
  0
STYLE
  5
2F2
330
3
100
AcDbSymbolTableRecord
100
AcDbTextStyleTableRecord
  2
TH_GBDIM
 70
     0
 40
1.5
 41
0.8
 50
0.0
 71
     0
 42
5.0
  3
calibri.ttf
  4

1001
ACAD
1000
Calibri
1071
       34
  0
ENDTAB
  0
TABLE
  2
VIEW
  5
6
330
0
100
AcDbSymbolTable
 70
     0
  0
ENDTAB
  0
TABLE
  2
UCS
  5
7
330
0
100
AcDbSymbolTable
 70
     0
  0
ENDTAB
  0
TABLE
  2
APPID
  5
9
330
0
100
AcDbSymbolTable
 70
    20
  0
APPID
  5
12
330
9
100
AcDbSymbolTableRecord
100
AcDbRegAppTableRecord
  2
ACAD
 70
     0
  0
APPID
  5
9E
330
9
100
AcDbSymbolTableRecord
100
AcDbRegAppTableRecord
  2
ACAD_PSEXT
 70
     0
  0
APPID
  5
133
330
9
100
AcDbSymbolTableRecord
100
AcDbRegAppTableRecord
  2
ACADANNOPO
 70
     0
  0
APPID
  5
134
330
9
100
AcDbSymbolTableRecord
100
AcDbRegAppTableRecord
  2
ACADANNOTATIVE
 70
     0
  0
APPID
  5
135
330
9
100
AcDbSymbolTableRecord
100
AcDbRegAppTableRecord
  2
ACAD_DSTYLE_DIMJAG
 70
     0
  0
APPID
  5
136
330
9
100
AcDbSymbolTableRecord
100
AcDbRegAppTableRecord
  2
ACAD_DSTYLE_DIMTALN
 70
     0
  0
APPID
  5
165
330
9
100
AcDbSymbolTableRecord
100
AcDbRegAppTableRecord
  2
ACAD_MLEADERVER
 70
     0
  0
APPID
  5
217
330
9
100
AcDbSymbolTableRecord
100
AcDbRegAppTableRecord
  2
ACAD_NAV_VCDISPLAY
 70
     0
  0
APPID
  5
2F5
330
9
100
AcDbSymbolTableRecord
100
AcDbRegAppTableRecord
  2
ACAD_DSTYLE_DIMBREAK
 70
     0
  0
APPID
  5
2F6
330
9
100
AcDbSymbolTableRecord
100
AcDbRegAppTableRecord
  2
ACAD_DSTYLE_DIMRADIAL_EXTE
 70
     0
  0
APPID
  5
2F7
330
9
100
AcDbSymbolTableRecord
100
AcDbRegAppTableRecord
  2
ACAD_DSTYLE_DIMINSPECT
 70
     0
  0
APPID
  5
2F8
330
9
100
AcDbSymbolTableRecord
100
AcDbRegAppTableRecord
  2
GENIUS_GENDTOL_13
 70
     0
  0
APPID
  5
2F9
330
9
100
AcDbSymbolTableRecord
100
AcDbRegAppTableRecord
  2
ACDBBLOCKREPETAG
 70
     0
  0
APPID
  5
2FA
330
9
100
AcDbSymbolTableRecord
100
AcDbRegAppTableRecord
  2
CAXA_DRAFT_PAPERFRAME
 70
     0
  0
APPID
  5
2FB
330
9
100
AcDbSymbolTableRecord
100
AcDbRegAppTableRecord
  2
CAXA_DRAFT_BLKHIDE
 70
     0
  0
APPID
  5
4F7
330
9
100
AcDbSymbolTableRecord
100
AcDbRegAppTableRecord
  2
ACAD_DSTYLE_DIMJAG_POSITIO
 70
     0
  0
APPID
  5
4FB
330
9
100
AcDbSymbolTableRecord
100
AcDbRegAppTableRecord
  2
ACAD_EXEMPT_FROM_CAD_STAND
 70
     0
  0
APPID
  5
625
330
9
100
AcDbSymbolTableRecord
100
AcDbRegAppTableRecord
  2
GRADIENTCOLOR1ACI
 70
     0
  0
APPID
  5
626
330
9
100
AcDbSymbolTableRecord
100
AcDbRegAppTableRecord
  2
GRADIENTCOLOR2ACI
 70
     0
  0
APPID
  5
7AB
330
9
100
AcDbSymbolTableRecord
100
AcDbRegAppTableRecord
  2
ACAD_OBJECT_NAME
 70
     0
  0
ENDTAB
  0
TABLE
  2
DIMSTYLE
  5
A
330
0
100
AcDbSymbolTable
 70
     5
  0
DIMSTYLE
105
1B0
330
A
100
AcDbSymbolTableRecord
100
AcDbDimStyleTableRecord
  2
STANDARD
 70
     0
  3

  4

  5

  6

  7

 40
1.0
 41
0.18
 42
0.0625
 43
0.38
 44
0.18
 45
0.0
 46
0.0
 47
0.0
 48
0.0
140
0.18
141
0.09
142
0.0
143
25.4
144
1.0
145
0.0
146
1.0
147
0.09
 71
     0
 72
     0
 73
     1
 74
     1
 75
     0
 76
     0
 77
     0
 78
     0
170
     0
171
     2
172
     0
173
     0
174
     0
175
     0
176
     0
177
     0
178
     0
270
     2
271
     4
272
     4
273
     2
274
     2
340
11
275
     0
280
     0
281
     0
282
     0
283
     1
284
     0
285
     0
286
     0
287
     3
288
     0
  0
DIMSTYLE
105
137
330
A
100
AcDbSymbolTableRecord
100
AcDbDimStyleTableRecord
  2
ANNOTATIVE
 70
     0
  3

  4

  5

  6

  7

 40
0.0
 41
2.5
 42
0.625
 43
3.75
 44
1.25
 45
0.0
 46
0.0
 47
0.0
 48
0.0
140
2.5
141
2.5
142
0.0
143
0.03937007874016
144
1.0
145
0.0
146
1.0
147
0.625
 71
     0
 72
     0
 73
     0
 74
     0
 75
     0
 76
     0
 77
     1
 78
     8
170
     0
171
     3
172
     1
173
     0
174
     0
175
     0
176
     0
177
     0
178
     0
270
     2
271
     2
272
     2
273
     2
274
     3
340
11
275
     0
280
     0
281
     0
282
     0
283
     0
284
     8
285
     0
286
     0
287
     3
288
     0
1001
ACADANNOTATIVE
1000
AnnotativeData
1002
{
1070
     1
1070
     1
1002
}
1001
ACAD_DSTYLE_DIMJAG
1070
   388
1040
1.5
1001
ACAD_DSTYLE_DIMTALN
1070
   392
1070
     0
  0
DIMSTYLE
105
27
102
{ACAD_REACTORS
330
92F
330
930
330
931
330
932
330
933
330
934
102
}
330
A
100
AcDbSymbolTableRecord
100
AcDbDimStyleTableRecord
  2
ISO-25
 70
     0
  3

  4

  5

  6

  7

 40
1.0
 41
2.5
 42
0.625
 43
3.75
 44
1.25
 45
0.0
 46
0.0
 47
0.0
 48
0.0
140
2.5
141
2.5
142
0.0
143
0.03937007874016
144
1.0
145
0.0
146
1.0
147
0.625
 71
     0
 72
     0
 73
     0
 74
     0
 75
     0
 76
     0
 77
     1
 78
     8
170
     0
171
     3
172
     1
173
     0
174
     0
175
     0
176
     0
177
     0
178
     0
270
     2
271
     2
272
     2
273
     2
274
     3
340
11
275
     0
280
     0
281
     0
282
     0
283
     0
284
     8
285
     0
286
     0
287
     3
288
     0
  0
DIMSTYLE
105
2F3
102
{ACAD_REACTORS
330
919
330
91E
330
921
330
92B
330
92C
330
935
330
936
330
937
102
}
330
A
100
AcDbSymbolTableRecord
100
AcDbDimStyleTableRecord
  2
TH-GBD2M
 70
     0
  3

  4

  5

  6

  7

 40
1.0
 41
4.0
 42
0.0
 43
0.38
 44
2.0
 45
0.0
 46
0.0
 47
0.0
 48
0.0
140
2.5
141
0.0
142
0.0
143
25.4
144
1.0
145
0.0
146
1.0
147
1.5
 71
     0
 72
     0
 73
     0
 74
     0
 75
     0
 76
     0
 77
     1
 78
     1
170
     0
171
     2
172
     0
173
     0
174
     0
175
     0
176
     0
177
     0
178
     3
270
     2
271
     2
272
     2
273
     2
274
     2
340
2F1
275
     0
280
     0
281
     0
282
     0
283
     1
284
     0
285
     0
286
     0
287
     3
288
     0
1001
ACAD_DSTYLE_DIMBREAK
1070
   391
1040
3.75
1001
ACAD_DSTYLE_DIMJAG
1070
   388
1040
1.5
1001
ACAD_DSTYLE_DIMTALN
1070
   392
1070
     0
  0
DIMSTYLE
105
2F4
102
{ACAD_REACTORS
330
916
330
917
102
}
330
A
100
AcDbSymbolTableRecord
100
AcDbDimStyleTableRecord
  2
透镜标注
 70
     0
  3

  4

  5

  6

  7

 40
1.0
 41
4.0
 42
0.625
 43
3.75
 44
1.25
 45
0.0
 46
0.0
 47
0.0
 48
0.000000001
140
2.5
141
2.5
142
0.0
143
0.03937007874016
144
1.0
145
0.0
146
1.0
147
0.625
 71
     0
 72
     0
 73
     0
 74
     1
 75
     0
 76
     0
 77
     1
 78
     1
170
     0
171
     3
172
     1
173
     0
174
     0
175
     0
176
     0
177
     0
178
   256
270
     2
271
     2
272
     2
273
     2
274
     3
340
2F1
275
     0
280
     0
281
     0
282
     0
283
     0
284
     0
285
     0
286
     0
287
     3
288
     0
1001
ACAD_DSTYLE_DIMBREAK
1070
   391
1040
3.75
1001
ACAD_DSTYLE_DIMJAG
1070
   388
1040
1.5
1001
ACAD_DSTYLE_DIMTALN
1070
   392
1070
     0
  0
ENDTAB
  0
TABLE
  2
BLOCK_RECORD
  5
1
330
0
100
AcDbSymbolTable
 70
    10
  0
BLOCK_RECORD
  5
1F
102
{ACAD_XDICTIONARY
360
1CE
102
}
330
1
100
AcDbSymbolTableRecord
100
AcDbBlockTableRecord
  2
*MODEL_SPACE
  0
BLOCK_RECORD
  5
D2
330
1
100
AcDbSymbolTableRecord
100
AcDbBlockTableRecord
  2
*PAPER_SPACE
  0
BLOCK_RECORD
  5
39F
330
1
100
AcDbSymbolTableRecord
100
AcDbBlockTableRecord
  2
_CLOSEDBLANK
  0
BLOCK_RECORD
  5
5A0
330
1
100
AcDbSymbolTableRecord
100
AcDbBlockTableRecord
  2
*X10
  0
BLOCK_RECORD
  5
735
330
1
100
AcDbSymbolTableRecord
100
AcDbBlockTableRecord
  2
*T22
  0
BLOCK_RECORD
  5
96F
330
1
100
AcDbSymbolTableRecord
100
AcDbBlockTableRecord
  2
*D41
  0
BLOCK_RECORD
  5
97C
330
1
100
AcDbSymbolTableRecord
100
AcDbBlockTableRecord
  2
*D42
  0
BLOCK_RECORD
  5
988
330
1
100
AcDbSymbolTableRecord
100
AcDbBlockTableRecord
  2
*D43
  0
BLOCK_RECORD
  5
995
330
1
100
AcDbSymbolTableRecord
100
AcDbBlockTableRecord
  2
*D44
  0
BLOCK_RECORD
  5
9A2
330
1
100
AcDbSymbolTableRecord
100
AcDbBlockTableRecord
  2
*D45
  0
BLOCK_RECORD
  5
9AF
330
1
100
AcDbSymbolTableRecord
100
AcDbBlockTableRecord
  2
*D46
  0
BLOCK_RECORD
  5
9BC
330
1
100
AcDbSymbolTableRecord
100
AcDbBlockTableRecord
  2
*D47
  0
ENDTAB
  0
ENDSEC
  0
SECTION
  2
BLOCKS
  0
BLOCK
  5
20
330
1F
100
AcDbEntity
  8
0
100
AcDbBlockBegin
  2
*MODEL_SPACE
 70
     0
 10
0.0
 20
0.0
 30
0.0
  3
*MODEL_SPACE
  1

  0
ENDBLK
  5
21
330
1F
100
AcDbEntity
  8
0
100
AcDbBlockEnd
  0
BLOCK
  5
D4
330
D2
100
AcDbEntity
 67
     1
  8
0
100
AcDbBlockBegin
  2
*PAPER_SPACE
 70
     0
 10
0.0
 20
0.0
 30
0.0
  3
*PAPER_SPACE
  1

  0
ENDBLK
  5
D5
330
D2
100
AcDbEntity
 67
     1
  8
0
100
AcDbBlockEnd
  0
BLOCK
  5
3A3
330
39F
100
AcDbEntity
  8
0
100
AcDbBlockBegin
  2
_CLOSEDBLANK
 70
     0
 10
0.0
 20
0.0
 30
0.0
  3
_CLOSEDBLANK
  1

  0
LINE
  5
3A0
330
39F
100
AcDbEntity
  8
0
  6
BYBLOCK
 62
     0
100
AcDbLine
 10
-1.0
 20
0.1666666666666667
 30
0.0
 11
0.0
 21
0.0
 31
0.0
  0
LINE
  5
3A1
330
39F
100
AcDbEntity
  8
0
  6
BYBLOCK
 62
     0
100
AcDbLine
 10
0.0
 20
0.0
 30
0.0
 11
-1.0
 21
-0.1666666666666667
 31
0.0
  0
LINE
  5
3A2
330
39F
100
AcDbEntity
  8
0
  6
BYBLOCK
 62
     0
100
AcDbLine
 10
-1.0
 20
0.1666666666666667
 30
0.0
 11
-1.0
 21
-0.1666666666666667
 31
0.0
  0
ENDBLK
  5
3A4
330
39F
100
AcDbEntity
  8
0
100
AcDbBlockEnd
  0
BLOCK
  5
5A1
330
5A0
100
AcDbEntity
  8
0
100
AcDbBlockBegin
  2
*X10
 70
     1
 10
0.0
 20
0.0
 30
0.0
  3
*X10
  1

  0
LINE
  5
5A2
330
5A0
100
AcDbEntity
  8
细实线层
100
AcDbLine
 10
-148.5
 20
-105.0
 30
0.0
 11
148.5
 21
-105.0
 31
0.0
  0
LINE
  5
5A3
330
5A0
100
AcDbEntity
  8
细实线层
100
AcDbLine
 10
148.5
 20
-105.0
 30
0.0
 11
148.5
 21
105.0
 31
0.0
  0
LINE
  5
5A4
330
5A0
100
AcDbEntity
  8
细实线层
100
AcDbLine
 10
148.5
 20
105.0
 30
0.0
 11
-148.5
 21
105.0
 31
0.0
  0
LINE
  5
5A5
330
5A0
100
AcDbEntity
  8
细实线层
100
AcDbLine
 10
-148.5
 20
105.0
 30
0.0
 11
-148.5
 21
-105.0
 31
0.0
  0
LINE
  5
5A6
330
5A0
100
AcDbEntity
  8
粗实线层
100
AcDbLine
 10
-138.5
 20
95.0
 30
0.0
 11
-138.5
 21
-95.0
 31
0.0
  0
LINE
  5
5A7
330
5A0
100
AcDbEntity
  8
粗实线层
100
AcDbLine
 10
-138.5
 20
-95.0
 30
0.0
 11
138.5
 21
-95.0
 31
0.0
  0
LINE
  5
5A8
330
5A0
100
AcDbEntity
  8
粗实线层
100
AcDbLine
 10
138.5
 20
-95.0
 30
0.0
 11
138.5
 21
95.0
 31
0.0
  0
LINE
  5
5A9
330
5A0
100
AcDbEntity
  8
粗实线层
100
AcDbLine
 10
138.5
 20
95.0
 30
0.0
 11
-138.5
 21
95.0
 31
0.0
  0
LINE
  5
5AA
330
5A0
100
AcDbEntity
  8
粗实线层
100
AcDbLine
 10
-148.5
 20
0.0
 30
0.0
 11
-133.5
 21
0.0
 31
0.0
  0
LINE
  5
5AB
330
5A0
100
AcDbEntity
  8
粗实线层
100
AcDbLine
 10
148.5
 20
0.0
 30
0.0
 11
133.5
 21
0.0
 31
0.0
  0
LINE
  5
5AC
330
5A0
100
AcDbEntity
  8
粗实线层
100
AcDbLine
 10
0.0
 20
105.0
 30
0.0
 11
0.0
 21
90.0
 31
0.0
  0
LINE
  5
5AD
330
5A0
100
AcDbEntity
  8
粗实线层
100
AcDbLine
 10
0.0
 20
-105.0
 30
0.0
 11
0.0
 21
-95.0
 31
0.0
  0
ENDBLK
  5
5AE
330
5A0
100
AcDbEntity
  8
0
100
AcDbBlockEnd
  0
BLOCK
  5
74F
330
735
100
AcDbEntity
  8
0
100
AcDbBlockBegin
  2
*T22
 70
     1
 10
0.0
 20
0.0
 30
0.0
  3
*T22
  1

  0
MTEXT
  5
736
330
735
100
AcDbEntity
  8
2细线层
 62
     3
100
AcDbMText
 10
60.65000000000009
 20
-3.166666666666742
 30
0.0
 40
2.5
 41
33.0
 71
     5
 72
     5
  1
{\fSimSun|b1|i0|c134|p34;S1}
  0
MTEXT
  5
737
330
735
100
AcDbEntity
  8
2细线层
 62
     3
100
AcDbMText
 10
96.65000000000009
 20
-3.166666666666742
 30
0.0
 40
2.5
 41
33.0
 71
     5
 72
     5
  1
{\fSimSun|b1|i0|c134|p34;S2}
  0
MTEXT
  5
738
330
735
100
AcDbEntity
  8
2细线层
 62
     3
100
AcDbMText
 10
21.32500000000027
 20
-9.499999999999773
 30
0.0
 40
2.5
 41
39.65
 71
     5
 72
     5
  1
{\fSimSun|b1|i0|c134|p34;形状}
  0
MTEXT
  5
739
330
735
100
AcDbEntity
  8
2细线层
 62
     3
100
AcDbMText
 10
60.65000000000009
 20
-9.499999999999773
 30
0.0
 40
2.5
 41
33.0
 71
     5
 72
     5
  1
{\fSimSun|b1|i0|c134|p34;平面}
  0
MTEXT
  5
73A
330
735
100
AcDbEntity
  8
2细线层
 62
     3
100
AcDbMText
 10
96.65000000000009
 20
-9.499999999999773
 30
0.0
 40
2.5
 41
33.0
 71
     5
 72
     5
  1
{\fSimSun|b1|i0|c134|p34;凹面}
  0
MTEXT
  5
73B
330
735
100
AcDbEntity
  8
2细线层
 62
     3
100
AcDbMText
 10
21.32500000000027
 20
-15.83333333333303
 30
0.0
 40
2.5
 41
39.65
 71
     5
 72
     5
  1
{\fSimSun|b1|i0|c134|p34;曲率半径}
  0
MTEXT
  5
73C
330
735
100
AcDbEntity
  8
2细线层
 62
     3
100
AcDbMText
 10
60.65000000000009
 20
-15.83333333333303
 30
0.0
 40
2.5
 41
33.0
 71
     5
 72
     5
  1
{\fSimSun|b1|i0|c134|p34;无穷}
  0
MTEXT
  5
73D
330
735
100
AcDbEntity
  8
2细线层
 62
     3
100
AcDbMText
 10
96.65000000000009
 20
-15.83333333333303
 30
0.0
 40
2.5
 41
33.0
 71
     5
 72
     5
  1
{\fSimSun|b1|i0|c134|p34;1000.00}
  0
MTEXT
  5
73E
330
735
100
AcDbEntity
  8
2细线层
 62
     3
100
AcDbMText
 10
21.32500000000027
 20
-22.16666666666652
 30
0.0
 40
2.5
 41
39.65
 71
     5
 72
     5
  1
{\fSimSun|b1|i0|c134|p34;通光孔径}
  0
MTEXT
  5
73F
330
735
100
AcDbEntity
  8
2细线层
 62
     3
100
AcDbMText
 10
60.65000000000009
 20
-22.16666666666652
 30
0.0
 40
2.5
 41
33.0
 71
     5
 72
     5
  1
{\fSimSun|b1|i0|c134|p34;/}
  0
MTEXT
  5
740
330
735
100
AcDbEntity
  8
2细线层
 62
     3
100
AcDbMText
 10
96.65000000000009
 20
-22.16666666666652
 30
0.0
 40
2.5
 41
33.0
 71
     5
 72
     5
  1
{\fSimSun|b1|i0|c134|p34;>90%}
  0
MTEXT
  5
741
330
735
100
AcDbEntity
  8
2细线层
 62
     3
100
AcDbMText
 10
21.32500000000027
 20
-28.49999999999955
 30
0.0
 40
2.5
 41
39.65
 71
     5
 72
     5
  1
{\fSimSun|b1|i0|c134|p34;光洁度}
  0
MTEXT
  5
742
330
735
100
AcDbEntity
  8
2细线层
 62
     3
100
AcDbMText
 10
60.65000000000009
 20
-28.49999999999955
 30
0.0
 40
2.5
 41
33.0
 71
     5
 72
     5
  1
{\fSimSun|b1|i0|c134|p34;细磨或检验性抛光}
  0
MTEXT
  5
743
330
735
100
AcDbEntity
  8
2细线层
 62
     3
100
AcDbMText
 10
96.65000000000009
 20
-28.49999999999955
 30
0.0
 40
2.5
 41
33.0
 71
     5
 72
     5
  1
{\fSimSun|b1|i0|c134|p34;40-20}
  0
LINE
  5
744
330
735
100
AcDbEntity
  8
2细线层
  6
BYBLOCK
 62
     0
100
AcDbLine
 10
0.0
 20
0.0
 30
0.0
 11
114.6500000000001
 21
0.0
 31
0.0
  0
LINE
  5
745
330
735
100
AcDbEntity
  8
2细线层
  6
BYBLOCK
 62
     0
100
AcDbLine
 10
0.0
 20
-6.333333333333258
 30
0.0
 11
114.6500000000001
 21
-6.333333333333258
 31
0.0
  0
LINE
  5
746
330
735
100
AcDbEntity
  8
2细线层
  6
BYBLOCK
 62
     0
100
AcDbLine
 10
0.0
 20
-12.66666666666652
 30
0.0
 11
114.6500000000001
 21
-12.66666666666652
 31
0.0
  0
LINE
  5
747
330
735
100
AcDbEntity
  8
2细线层
  6
BYBLOCK
 62
     0
100
AcDbLine
 10
0.0
 20
-18.99999999999977
 30
0.0
 11
114.6500000000001
 21
-18.99999999999977
 31
0.0
  0
LINE
  5
748
330
735
100
AcDbEntity
  8
2细线层
  6
BYBLOCK
 62
     0
100
AcDbLine
 10
0.0
 20
-25.33333333333303
 30
0.0
 11
114.6500000000001
 21
-25.33333333333303
 31
0.0
  0
LINE
  5
749
330
735
100
AcDbEntity
  8
2细线层
  6
BYBLOCK
 62
     0
100
AcDbLine
 10
0.0
 20
-31.66666666666629
 30
0.0
 11
114.6500000000001
 21
-31.66666666666629
 31
0.0
  0
LINE
  5
74A
330
735
100
AcDbEntity
  8
2细线层
  6
BYBLOCK
 62
     0
100
AcDbLine
 10
0.0
 20
0.0
 30
0.0
 11
0.0
 21
-31.66666666666629
 31
0.0
  0
LINE
  5
74B
330
735
100
AcDbEntity
  8
2细线层
  6
BYBLOCK
 62
     0
100
AcDbLine
 10
42.65000000000009
 20
0.0
 30
0.0
 11
42.65000000000009
 21
-31.66666666666629
 31
0.0
  0
LINE
  5
74C
330
735
100
AcDbEntity
  8
2细线层
  6
BYBLOCK
 62
     0
100
AcDbLine
 10
78.65000000000009
 20
0.0
 30
0.0
 11
78.65000000000009
 21
-31.66666666666629
 31
0.0
  0
LINE
  5
74D
330
735
100
AcDbEntity
  8
2细线层
  6
BYBLOCK
 62
     0
100
AcDbLine
 10
114.6500000000001
 20
0.0
 30
0.0
 11
114.6500000000001
 21
-31.66666666666629
 31
0.0
  0
LINE
  5
74E
330
735
100
AcDbEntity
  8
DEFPOINTS
 62
     8
 60
     1
100
AcDbLine
 10
0.0
 20
0.0
 30
0.0
 11
0.0
 21
0.0
 31
0.0
  0
ENDBLK
  5
750
330
735
100
AcDbEntity
  8
0
100
AcDbBlockEnd
  0
BLOCK
  5
970
330
96F
100
AcDbEntity
  8
0
100
AcDbBlockBegin
  2
*D41
 70
     1
 10
0.0
 20
0.0
 30
0.0
  3
*D41
  1

  0
LINE
  5
9CD
330
96F
100
AcDbEntity
  8
7标注层
 62
     0
100
AcDbLine
 10
3864.877232826046
 20
1585.802365570292
 30
0.0
 11
3864.877232826046
 21
1594.030135325656
 31
0.0
  0
LINE
  5
9CE
330
96F
100
AcDbEntity
  8
7标注层
 62
     0
100
AcDbLine
 10
3884.877232826046
 20
1585.802365570292
 30
0.0
 11
3884.877232826046
 21
1594.030135325656
 31
0.0
  0
LINE
  5
9CF
330
96F
100
AcDbEntity
  8
7标注层
 62
     0
100
AcDbLine
 10
3868.877232826046
 20
1592.780135325656
 30
0.0
 11
3880.877232826046
 21
1592.780135325656
 31
0.0
  0
LINE
  5
9D0
330
96F
100
AcDbEntity
  8
7标注层
 62
     0
100
AcDbLine
 10
3884.877232826046
 20
1592.780135325656
 30
0.0
 11
3901.633048210661
 21
1592.780135325656
 31
0.0
  0
SOLID
  5
9D1
330
96F
100
AcDbEntity
  8
7标注层
 62
     0
100
AcDbTrace
 10
3868.877232826046
 20
1593.446801992323
 30
0.0
 11
3868.877232826046
 21
1592.113468658989
 31
0.0
 12
3864.877232826046
 22
1592.780135325656
 32
0.0
 13
3864.877232826046
 23
1592.780135325656
 33
0.0
  0
SOLID
  5
9D2
330
96F
100
AcDbEntity
  8
7标注层
 62
     0
100
AcDbTrace
 10
3880.877232826046
 20
1593.446801992323
 30
0.0
 11
3880.877232826046
 21
1592.113468658989
 31
0.0
 12
3884.877232826046
 22
1592.780135325656
 32
0.0
 13
3884.877232826046
 23
1592.780135325656
 33
0.0
  0
MTEXT
  5
9D3
330
96F
100
AcDbEntity
  8
7标注层
100
AcDbMText
 10
3895.255140518354
 20
1595.537930197451
 30
0.0
 40
2.5
 41
0.0
 71
     5
 72
     1
  1
20.00{}{\H0.71x;\C3;\S 0.00^ -0.10;}
  7
TH-GBD2M
  0
POINT
  5
9D4
330
96F
100
AcDbEntity
  8
DEFPOINTS
 62
     0
100
AcDbPoint
 10
3864.877232826046
 20
1585.177365570292
 30
0.0
  0
POINT
  5
9D5
330
96F
100
AcDbEntity
  8
DEFPOINTS
 62
     0
100
AcDbPoint
 10
3884.877232826046
 20
1585.177365570292
 30
0.0
  0
POINT
  5
9D6
330
96F
100
AcDbEntity
  8
DEFPOINTS
 62
     0
100
AcDbPoint
 10
3884.877232826046
 20
1592.780135325656
 30
0.0
  0
ENDBLK
  5
971
330
96F
100
AcDbEntity
  8
0
100
AcDbBlockEnd
  0
BLOCK
  5
97D
330
97C
100
AcDbEntity
  8
0
100
AcDbBlockBegin
  2
*D42
 70
     1
 10
0.0
 20
0.0
 30
0.0
  3
*D42
  1

  0
LINE
  5
9D7
330
97C
100
AcDbEntity
  8
7标注层
 62
     0
100
AcDbLine
 10
3864.252232826047
 20
1560.177365570293
 30
0.0
 11
3858.99074447429
 21
1560.177365570293
 31
0.0
  0
LINE
  5
9D8
330
97C
100
AcDbEntity
  8
7标注层
 62
     0
100
AcDbLine
 10
3864.252232826047
 20
1585.177365570293
 30
0.0
 11
3858.99074447429
 21
1585.177365570293
 31
0.0
  0
LINE
  5
9D9
330
97C
100
AcDbEntity
  8
7标注层
 62
     0
100
AcDbLine
 10
3860.24074447429
 20
1564.177365570293
 30
0.0
 11
3860.24074447429
 21
1581.177365570293
 31
0.0
  0
SOLID
  5
9DA
330
97C
100
AcDbEntity
  8
7标注层
 62
     0
100
AcDbTrace
 10
3859.574077807624
 20
1564.177365570293
 30
0.0
 11
3860.907411140957
 21
1564.177365570293
 31
0.0
 12
3860.24074447429
 22
1560.177365570293
 32
0.0
 13
3860.24074447429
 23
1560.177365570293
 33
0.0
  0
SOLID
  5
9DB
330
97C
100
AcDbEntity
  8
7标注层
 62
     0
100
AcDbTrace
 10
3859.574077807624
 20
1581.177365570293
 30
0.0
 11
3860.907411140957
 21
1581.177365570293
 31
0.0
 12
3860.24074447429
 22
1585.177365570293
 32
0.0
 13
3860.24074447429
 23
1585.177365570293
 33
0.0
  0
MTEXT
  5
9DC
330
97C
100
AcDbEntity
  8
7标注层
100
AcDbMText
 10
3857.482949602495
 20
1572.677365570292
 30
0.0
 40
2.5
 41
0.0
 71
     5
 72
     1
  1
25.00{}{\H0.71x;\C3;\S 0.00^ -0.10;}
  7
TH-GBD2M
 11
6.123233995736766E-17
 21
1.0
 31
0.0
  0
POINT
  5
9DD
330
97C
100
AcDbEntity
  8
DEFPOINTS
 62
     0
100
AcDbPoint
 10
3864.877232826047
 20
1560.177365570293
 30
0.0
  0
POINT
  5
9DE
330
97C
100
AcDbEntity
  8
DEFPOINTS
 62
     0
100
AcDbPoint
 10
3864.877232826047
 20
1585.177365570293
 30
0.0
  0
POINT
  5
9DF
330
97C
100
AcDbEntity
  8
DEFPOINTS
 62
     0
100
AcDbPoint
 10
3860.24074447429
 20
1585.177365570293
 30
0.0
  0
ENDBLK
  5
97E
330
97C
100
AcDbEntity
  8
0
100
AcDbBlockEnd
  0
BLOCK
  5
989
330
988
100
AcDbEntity
  8
0
100
AcDbBlockBegin
  2
*D43
 70
     1
 10
0.0
 20
0.0
 30
0.0
  3
*D43
  1

  0
LINE
  5
9E0
330
988
100
AcDbEntity
  8
7标注层
 62
     0
100
AcDbLine
 10
3865.247027758031
 20
1529.269131282397
 30
0.0
 11
3847.983443669883
 21
1529.269131282397
 31
0.0
  0
LINE
  5
9E1
330
988
100
AcDbEntity
  8
7标注层
 62
     0
100
AcDbLine
 10
3865.230550703771
 20
1519.959131282397
 30
0.0
 11
3847.983443669883
 21
1519.959131282397
 31
0.0
  0
LINE
  5
9E2
330
988
100
AcDbEntity
  8
7标注层
 62
     0
100
AcDbLine
 10
3849.983443669883
 20
1533.269131282397
 30
0.0
 11
3849.983443669883
 21
1537.269131282397
 31
0.0
  0
LINE
  5
9E3
330
988
100
AcDbEntity
  8
7标注层
 62
     0
100
AcDbLine
 10
3849.983443669883
 20
1515.959131282397
 30
0.0
 11
3849.983443669883
 21
1502.902208205475
 31
0.0
  0
SOLID
  5
9E4
330
988
100
AcDbEntity
  8
7标注层
 62
     0
100
AcDbTrace
 10
3849.316777003217
 20
1533.269131282397
 30
0.0
 11
3850.65011033655
 21
1533.269131282397
 31
0.0
 12
3849.983443669883
 22
1529.269131282397
 32
0.0
 13
3849.983443669883
 23
1529.269131282397
 33
0.0
  0
SOLID
  5
9E5
330
988
100
AcDbEntity
  8
7标注层
 62
     0
100
AcDbTrace
 10
3849.316777003217
 20
1515.959131282397
 30
0.0
 11
3850.65011033655
 21
1515.959131282397
 31
0.0
 12
3849.983443669883
 22
1519.959131282397
 32
0.0
 13
3849.983443669883
 23
1519.959131282397
 33
0.0
  0
MTEXT
  5
9E6
330
988
100
AcDbEntity
  8
7标注层
 62
     3
100
AcDbMText
 10
3847.202674439114
 20
1507.046823590088
 30
0.0
 40
2.5
 41
0.0
 71
     5
 72
     1
  1
\A1;9.31
  7
TH-GBD2M
 11
6.123233995736766E-17
 21
1.0
 31
0.0
  0
POINT
  5
9E7
330
988
100
AcDbEntity
  8
DEFPOINTS
 62
     0
100
AcDbPoint
 10
3865.247027758031
 20
1529.269131282397
 30
0.0
  0
POINT
  5
9E8
330
988
100
AcDbEntity
  8
DEFPOINTS
 62
     0
100
AcDbPoint
 10
3865.230550703771
 20
1519.959131282397
 30
0.0
  0
POINT
  5
9E9
330
988
100
AcDbEntity
  8
DEFPOINTS
 62
     0
100
AcDbPoint
 10
3849.983443669883
 20
1519.959131282397
 30
0.0
  0
ENDBLK
  5
98A
330
988
100
AcDbEntity
  8
0
100
AcDbBlockEnd
  0
BLOCK
  5
996
330
995
100
AcDbEntity
  8
0
100
AcDbBlockBegin
  2
*D44
 70
     1
 10
0.0
 20
0.0
 30
0.0
  3
*D44
  1

  0
LINE
  5
9EA
330
995
100
AcDbEntity
  8
7标注层
 62
     0
100
AcDbLine
 10
3885.248418400917
 20
1529.269131282397
 30
0.0
 11
3881.682537016777
 21
1529.269131282397
 31
0.0
  0
LINE
  5
9EB
330
995
100
AcDbEntity
  8
7标注层
 62
     0
100
AcDbLine
 10
3885.251000704718
 20
1520.259192956006
 30
0.0
 11
3881.682537016777
 21
1520.259192956006
 31
0.0
  0
LINE
  5
9EC
330
995
100
AcDbEntity
  8
7标注层
 62
     0
100
AcDbLine
 10
3883.682537016777
 20
1533.269131282397
 30
0.0
 11
3883.682537016777
 21
1537.269131282397
 31
0.0
  0
LINE
  5
9ED
330
995
100
AcDbEntity
  8
7标注层
 62
     0
100
AcDbLine
 10
3883.682537016777
 20
1516.259192956006
 30
0.0
 11
3883.682537016777
 21
1503.969962186776
 31
0.0
  0
SOLID
  5
9EE
330
995
100
AcDbEntity
  8
7标注层
 62
     0
100
AcDbTrace
 10
3883.015870350111
 20
1533.269131282397
 30
0.0
 11
3884.349203683444
 21
1533.269131282397
 31
0.0
 12
3883.682537016777
 22
1529.269131282397
 32
0.0
 13
3883.682537016777
 23
1529.269131282397
 33
0.0
  0
SOLID
  5
9EF
330
995
100
AcDbEntity
  8
7标注层
 62
     0
100
AcDbTrace
 10
3883.015870350111
 20
1516.259192956006
 30
0.0
 11
3884.349203683444
 21
1516.259192956006
 31
0.0
 12
3883.682537016777
 22
1520.259192956006
 32
0.0
 13
3883.682537016777
 23
1520.259192956006
 33
0.0
  0
MTEXT
  5
9F0
330
995
100
AcDbEntity
  8
7标注层
 62
     3
100
AcDbMText
 10
3880.901767786007
 20
1508.11457757139
 30
0.0
 40
2.5
 41
0.0
 71
     5
 72
     1
  1
\A1;9.01
  7
TH-GBD2M
 11
6.123233995736766E-17
 21
1.0
 31
0.0
  0
POINT
  5
9F1
330
995
100
AcDbEntity
  8
DEFPOINTS
 62
     0
100
AcDbPoint
 10
3885.248418400917
 20
1529.269131282397
 30
0.0
  0
POINT
  5
9F2
330
995
100
AcDbEntity
  8
DEFPOINTS
 62
     0
100
AcDbPoint
 10
3885.251000704718
 20
1520.259192956006
 30
0.0
  0
POINT
  5
9F3
330
995
100
AcDbEntity
  8
DEFPOINTS
 62
     0
100
AcDbPoint
 10
3883.682537016777
 20
1520.259192956006
 30
0.0
  0
ENDBLK
  5
997
330
995
100
AcDbEntity
  8
0
100
AcDbBlockEnd
  0
BLOCK
  5
9A3
330
9A2
100
AcDbEntity
  8
0
100
AcDbBlockBegin
  2
*D45
 70
     1
 10
0.0
 20
0.0
 30
0.0
  3
*D45
  1

  0
LINE
  5
9F4
330
9A2
100
AcDbEntity
  8
7标注层
 62
     0
100
AcDbLine
 10
3885.230550703769
 20
1531.059131282397
 30
0.0
 11
3885.230550703769
 21
1544.75963766788
 31
0.0
  0
LINE
  5
9F5
330
9A2
100
AcDbEntity
  8
7标注层
 62
     0
100
AcDbLine
 10
3890.230550703769
 20
1531.110374270347
 30
0.0
 11
3890.230550703769
 21
1544.75963766788
 31
0.0
  0
LINE
  5
9F6
330
9A2
100
AcDbEntity
  8
7标注层
 62
     0
100
AcDbLine
 10
3881.230550703769
 20
1542.75963766788
 30
0.0
 11
3877.230550703769
 21
1542.75963766788
 31
0.0
  0
LINE
  5
9F7
330
9A2
100
AcDbEntity
  8
7标注层
 62
     0
100
AcDbLine
 10
3894.230550703769
 20
1542.75963766788
 30
0.0
 11
3907.5001518514
 21
1542.75963766788
 31
0.0
  0
SOLID
  5
9F8
330
9A2
100
AcDbEntity
  8
7标注层
 62
     0
100
AcDbTrace
 10
3881.230550703769
 20
1543.426304334547
 30
0.0
 11
3881.230550703769
 21
1542.092971001213
 31
0.0
 12
3885.230550703769
 22
1542.75963766788
 32
0.0
 13
3885.230550703769
 23
1542.75963766788
 33
0.0
  0
SOLID
  5
9F9
330
9A2
100
AcDbEntity
  8
7标注层
 62
     0
100
AcDbTrace
 10
3894.230550703769
 20
1543.426304334547
 30
0.0
 11
3894.230550703769
 21
1542.092971001213
 31
0.0
 12
3890.230550703769
 22
1542.75963766788
 32
0.0
 13
3890.230550703769
 23
1542.75963766788
 33
0.0
  0
MTEXT
  5
9FA
330
9A2
100
AcDbEntity
  8
7标注层
 62
     3
100
AcDbMText
 10
3903.339382620631
 20
1545.540406898649
 30
0.0
 40
2.5
 41
0.0
 71
     5
 72
     1
  1
\A1;5.00
  7
TH-GBD2M
  0
POINT
  5
9FB
330
9A2
100
AcDbEntity
  8
DEFPOINTS
 62
     0
100
AcDbPoint
 10
3885.230550703769
 20
1531.059131282397
 30
0.0
  0
POINT
  5
9FC
330
9A2
100
AcDbEntity
  8
DEFPOINTS
 62
     0
100
AcDbPoint
 10
3890.230550703769
 20
1531.110374270347
 30
0.0
  0
POINT
  5
9FD
330
9A2
100
AcDbEntity
  8
DEFPOINTS
 62
     0
100
AcDbPoint
 10
3890.230550703769
 20
1542.75963766788
 30
0.0
  0
ENDBLK
  5
9A4
330
9A2
100
AcDbEntity
  8
0
100
AcDbBlockEnd
  0
BLOCK
  5
9B0
330
9AF
100
AcDbEntity
  8
0
100
AcDbBlockBegin
  2
*D46
 70
     1
 10
0.0
 20
0.0
 30
0.0
  3
*D46
  1

  0
LINE
  5
9FE
330
9AF
100
AcDbEntity
  8
7标注层
 62
     0
100
AcDbLine
 10
3926.856462478309
 20
1572.677365570291
 30
0.0
 11
3926.856462478309
 21
1594.470983622693
 31
0.0
  0
LINE
  5
9FF
330
9AF
100
AcDbEntity
  8
7标注层
 62
     0
100
AcDbLine
 10
3935.856531801565
 20
1572.677365570291
 30
0.0
 11
3935.856531801565
 21
1594.470983622693
 31
0.0
  0
LINE
  5
A00
330
9AF
100
AcDbEntity
  8
7标注层
 62
     0
100
AcDbLine
 10
3922.856462478309
 20
1592.470983622693
 30
0.0
 11
3918.856462478309
 21
1592.470983622693
 31
0.0
  0
LINE
  5
A01
330
9AF
100
AcDbEntity
  8
7标注层
 62
     0
100
AcDbLine
 10
3939.856531801565
 20
1592.470983622693
 30
0.0
 11
3959.362685647719
 21
1592.470983622693
 31
0.0
  0
SOLID
  5
A02
330
9AF
100
AcDbEntity
  8
7标注层
 62
     0
100
AcDbTrace
 10
3922.856462478309
 20
1593.137650289359
 30
0.0
 11
3922.856462478309
 21
1591.804316956026
 31
0.0
 12
3926.856462478309
 22
1592.470983622693
 32
0.0
 13
3926.856462478309
 23
1592.470983622693
 33
0.0
  0
SOLID
  5
A03
330
9AF
100
AcDbEntity
  8
7标注层
 62
     0
100
AcDbTrace
 10
3939.856531801565
 20
1593.137650289359
 30
0.0
 11
3939.856531801565
 21
1591.804316956026
 31
0.0
 12
3935.856531801565
 22
1592.470983622693
 32
0.0
 13
3935.856531801565
 23
1592.470983622693
 33
0.0
  0
MTEXT
  5
A04
330
9AF
100
AcDbEntity
  8
7标注层
 62
     3
100
AcDbMText
 10
3951.609608724642
 20
1595.251752853462
 30
0.0
 40
2.5
 41
0.0
 71
     5
 72
     1
  1
\A1;9.00%%p0.20
  7
TH-GBD2M
  0
POINT
  5
A05
330
9AF
100
AcDbEntity
  8
DEFPOINTS
 62
     0
100
AcDbPoint
 10
3926.856462478309
 20
1572.677365570291
 30
0.0
  0
POINT
  5
A06
330
9AF
100
AcDbEntity
  8
DEFPOINTS
 62
     0
100
AcDbPoint
 10
3935.856531801565
 20
1572.677365570291
 30
0.0
  0
POINT
  5
A07
330
9AF
100
AcDbEntity
  8
DEFPOINTS
 62
     0
100
AcDbPoint
 10
3935.856531801565
 20
1592.470983622693
 30
0.0
  0
ENDBLK
  5
9B1
330
9AF
100
AcDbEntity
  8
0
100
AcDbBlockEnd
  0
BLOCK
  5
9BD
330
9BC
100
AcDbEntity
  8
0
100
AcDbBlockBegin
  2
*D47
 70
     1
 10
0.0
 20
0.0
 30
0.0
  3
*D47
  1

  0
LINE
  5
A08
330
9BC
100
AcDbEntity
  8
7标注层
 62
     0
100
AcDbLine
 10
3926.856462478309
 20
1560.177365570291
 30
0.0
 11
3926.856462478309
 21
1553.072846795478
 31
0.0
  0
LINE
  5
A09
330
9BC
100
AcDbEntity
  8
7标注层
 62
     0
100
AcDbLine
 10
3935.986684943218
 20
1560.177365570291
 30
0.0
 11
3935.986684943218
 21
1553.072846795478
 31
0.0
  0
LINE
  5
A0A
330
9BC
100
AcDbEntity
  8
7标注层
 62
     0
100
AcDbLine
 10
3922.856462478309
 20
1555.072846795478
 30
0.0
 11
3918.856462478309
 21
1555.072846795478
 31
0.0
  0
LINE
  5
A0B
330
9BC
100
AcDbEntity
  8
7标注层
 62
     0
100
AcDbLine
 10
3939.986684943218
 20
1555.072846795478
 30
0.0
 11
3943.986684943218
 21
1555.072846795478
 31
0.0
  0
SOLID
  5
A0C
330
9BC
100
AcDbEntity
  8
7标注层
 62
     0
100
AcDbTrace
 10
3922.856462478309
 20
1555.739513462144
 30
0.0
 11
3922.856462478309
 21
1554.406180128811
 31
0.0
 12
3926.856462478309
 22
1555.072846795478
 32
0.0
 13
3926.856462478309
 23
1555.072846795478
 33
0.0
  0
SOLID
  5
A0D
330
9BC
100
AcDbEntity
  8
7标注层
 62
     0
100
AcDbTrace
 10
3939.986684943218
 20
1555.739513462144
 30
0.0
 11
3939.986684943218
 21
1554.406180128811
 31
0.0
 12
3935.986684943218
 22
1555.072846795478
 32
0.0
 13
3935.986684943218
 23
1555.072846795478
 33
0.0
  0
MTEXT
  5
A0E
330
9BC
100
AcDbEntity
  8
7标注层
 62
     3
100
AcDbMText
 10
3931.421573710764
 20
1557.853616026247
 30
0.0
 40
2.5
 41
0.0
 71
     5
 72
     1
  1
\A1;9.13
  7
TH-GBD2M
  0
POINT
  5
A0F
330
9BC
100
AcDbEntity
  8
DEFPOINTS
 62
     0
100
AcDbPoint
 10
3926.856462478309
 20
1560.177365570291
 30
0.0
  0
POINT
  5
A10
330
9BC
100
AcDbEntity
  8
DEFPOINTS
 62
     0
100
AcDbPoint
 10
3935.986684943218
 20
1560.177365570291
 30
0.0
  0
POINT
  5
A11
330
9BC
100
AcDbEntity
  8
DEFPOINTS
 62
     0
100
AcDbPoint
 10
3935.986684943218
 20
1555.072846795478
 30
0.0
  0
ENDBLK
  5
9BE
330
9BC
100
AcDbEntity
  8
0
100
AcDbBlockEnd
  0
ENDSEC
  0
SECTION
  2
ENTITIES
  0
LINE
  5
6B4
330
1F
100
AcDbEntity
  8
6文字层
 62
     0
100
AcDbLine
 10
3856.527243825911
 20
1445.338705088236
 30
0.0
 11
3736.52724382586
 21
1445.338705088236
 31
0.0
  0
INSERT
  5
6B5
330
1F
100
AcDbEntity
  8
6文字层
100
AcDbBlockReference
  2
*X10
 10
3858.027243825911
 20
1540.338705088237
 30
0.0
1001
CAXA_DRAFT_PAPERFRAME
1071
        2
1041
138.5
1041
-95.0
1041
0.0
1000
A4A-D-Sighted(CHS)
1070
     1
1001
CAXA_DRAFT_BLKHIDE
1070
     0
  0
LINE
  5
6B6
330
1F
100
AcDbEntity
  8
1轮廓实线层
100
AcDbLine
 10
3856.527243825911
 20
1445.338705088236
 30
0.0
 11
3996.527243825911
 21
1445.338705088236
 31
0.0
  0
LINE
  5
6B7
330
1F
100
AcDbEntity
  8
粗实线层
100
AcDbLine
 10
3891.52759079731
 20
1451.179712721986
 30
0.0
 11
3996.527243825911
 21
1451.179712721992
 31
0.0
  0
LINE
  5
6B8
330
1F
100
AcDbEntity
  8
细实线层
100
AcDbLine
 10
3986.283389179919
 20
1451.179712721992
 30
0.0
 11
3986.283389179919
 21
1445.338705088236
 31
0.0
  0
LINE
  5
6B9
330
1F
100
AcDbEntity
  8
细实线层
100
AcDbLine
 10
3983.39588917992
 20
1448.259208905114
 30
0.0
 11
3989.95838917992
 21
1448.259208905114
 31
0.0
  0
CIRCLE
  5
6BA
330
1F
100
AcDbEntity
  8
细实线层
100
AcDbCircle
 10
3986.283389179919
 20
1448.259208905114
 30
0.0
 40
2.187499999999943
  0
CIRCLE
  5
6BB
330
1F
100
AcDbEntity
  8
细实线层
100
AcDbCircle
 10
3986.283389179919
 20
1448.259208905114
 30
0.0
 40
0.6562499999999829
  0
LINE
  5
6BC
330
1F
100
AcDbEntity
  8
3中心线层
 62
     7
 48
0.1
100
AcDbLine
 10
3974.67180796854
 20
1448.259208905114
 30
0.0
 11
3983.39588917992
 21
1448.259208905114
 31
0.0
  0
LINE
  5
6BD
330
1F
100
AcDbEntity
  8
3中心线层
 62
     7
100
AcDbLine
 10
3975.822339817929
 20
1447.931083905114
 30
0.0
 11
3975.822339817929
 21
1448.587333905111
 31
0.0
  0
LINE
  5
6BE
330
1F
100
AcDbEntity
  8
3中心线层
 62
     7
100
AcDbLine
 10
3981.947339817929
 20
1446.071708905114
 30
0.0
 11
3981.947339817929
 21
1450.446708905112
 31
0.0
  0
LINE
  5
6BF
330
1F
100
AcDbEntity
  8
细实线层
100
AcDbLine
 10
3975.822339817929
 20
1448.587333905111
 30
0.0
 11
3981.947339817929
 21
1450.446708905112
 31
0.0
  0
LINE
  5
6C0
330
1F
100
AcDbEntity
  8
细实线层
100
AcDbLine
 10
3975.822339817929
 20
1447.931083905114
 30
0.0
 11
3981.947339817929
 21
1446.071708905114
 31
0.0
  0
LINE
  5
6C1
330
1F
100
AcDbEntity
  8
粗实线层
100
AcDbLine
 10
3891.52759079731
 20
1461.672038421567
 30
0.0
 11
3996.527243825911
 21
1461.672038421571
 31
0.0
  0
LINE
  5
6C2
330
1F
100
AcDbEntity
  8
粗实线层
100
AcDbLine
 10
3891.52759079731
 20
1475.338705088237
 30
0.0
 11
3996.527243825911
 21
1475.338705088237
 31
0.0
  0
MTEXT
  5
6C3
330
1F
100
AcDbEntity
  8
6文字层
100
AcDbMText
 10
3903.706679204769
 20
1456.474142387294
 30
0.0
 40
2.5
 41
17.84855769230755
 71
     5
 72
     5
  1
{\fSimHei|b1|i0|c134|p49;名称 }
1001
ACDBBLOCKREPETAG
1000

1001
ACAD
1000
ACAD_MTEXT_DEFINED_HEIGHT_BEGIN
1070
    46
1040
4.283653846153733
1000
ACAD_MTEXT_DEFINED_HEIGHT_END
  0
MTEXT
  5
6C4
330
1F
100
AcDbEntity
  8
6文字层
100
AcDbMText
 10
3967.95201842804
 20
1468.677539035799
 30
0.0
 40
3.0
 41
63.12269194006068
 71
     5
 72
     5
  1
{\fSimHei|b1|i0|c134|p49;联合光科技（北京）有限公司}
1001
ACDBBLOCKREPETAG
1000

1001
ACAD
1000
ACAD_MTEXT_DEFINED_HEIGHT_BEGIN
1070
    46
1040
3.808394365490182
1000
ACAD_MTEXT_DEFINED_HEIGHT_END
  0
MTEXT
  5
6C5
330
1F
100
AcDbEntity
  8
6文字层
100
AcDbMText
 10
3903.90052542879
 20
1448.328045800841
 30
0.0
 40
2.5
 41
17.84855769230755
 71
     5
 72
     5
  1
{\fSimHei|b1|i0|c134|p49;产品编号} 
1001
ACDBBLOCKREPETAG
1000

1001
ACAD
1000
ACAD_MTEXT_DEFINED_HEIGHT_BEGIN
1070
    46
1040
4.283653846153733
1000
ACAD_MTEXT_DEFINED_HEIGHT_END
  0
MTEXT
  5
6C6
330
1F
100
AcDbEntity
  8
6文字层
100
AcDbMText
 10
3962.95888129539
 20
1448.4821390939
 30
0.0
 40
2.5
 41
17.84855769230755
 71
     5
 72
     5
  1
{\fSimHei|b1|i0|c134|p49;mm }
1001
ACDBBLOCKREPETAG
1000

1001
ACAD
1000
ACAD_MTEXT_DEFINED_HEIGHT_BEGIN
1070
    46
1040
4.283653846153733
1000
ACAD_MTEXT_DEFINED_HEIGHT_END
  0
LINE
  5
6C7
330
1F
100
AcDbEntity
  8
粗实线层
100
AcDbLine
 10
3891.52759079731
 20
1445.279801831505
 30
0.0
 11
3891.52759079731
 21
1475.279801831494
 31
0.0
  0
LINE
  5
6C8
330
1F
100
AcDbEntity
  8
粗实线层
100
AcDbLine
 10
3916.28757669044
 20
1445.338705088236
 30
0.0
 11
3916.28757669044
 21
1461.672038421561
 31
0.0
  0
LINE
  5
6C9
330
1F
100
AcDbEntity
  8
粗实线层
100
AcDbLine
 10
3939.163139594661
 20
1461.767227435309
 30
0.0
 11
3939.163139594661
 21
1475.338705088237
 31
0.0
  0
LINE
  5
6CA
330
1F
100
AcDbEntity
  8
粗实线层
100
AcDbLine
 10
3939.163139594661
 20
1445.338705088229
 30
0.0
 11
3939.16313959465
 21
1451.179712721982
 31
0.0
  0
MTEXT
  5
6CB
330
1F
100
AcDbEntity
  8
6文字层
100
AcDbMText
 10
3947.724503165452
 20
1448.167562894278
 30
0.0
 40
2.5
 41
17.84855769230755
 71
     5
 72
     5
  1
{\fSimHei|b1|i0|c134|p49;单位}
1001
ACAD
1000
ACAD_MTEXT_DEFINED_HEIGHT_BEGIN
1070
    46
1040
3.291666666666666
1000
ACAD_MTEXT_DEFINED_HEIGHT_END
  0
LINE
  5
6CC
330
1F
100
AcDbEntity
  8
粗实线层
100
AcDbLine
 10
3956.26739700085
 20
1445.338705088236
 30
0.0
 11
3956.26739700085
 21
1451.17971272199
 31
0.0
  0
LINE
  5
6CD
330
1F
100
AcDbEntity
  8
粗实线层
100
AcDbLine
 10
3968.832409721459
 20
1445.338705088236
 30
0.0
 11
3968.832409721459
 21
1451.17971272199
 31
0.0
  0
LINE
  5
6CE
330
1F
100
AcDbEntity
  8
0
100
AcDbLine
 10
3996.527243825911
 20
1445.338705088236
 30
0.0
 11
3896.527243825911
 21
1445.338705088236
 31
0.0
  0
HATCH
  5
6CF
330
1F
100
AcDbEntity
  8
3中心线层
 62
     0
100
AcDbHatch
 10
0.0
 20
0.0
 30
0.0
210
0.0
220
0.0
230
1.0
  2
SOLID
 70
     1
 71
     0
 91
       14
 92
        5
 93
        5
 72
     4
 94
        3
 73
     0
 74
     0
 95
        8
 96
        4
 40
7.0
 40
7.0
 40
7.0
 40
7.0
 40
8.0
 40
8.0
 40
8.0
 40
8.0
 10
3902.189102623401
 20
1471.589407067286
 10
3902.189102623401
 20
1472.403278590718
 10
3901.52932885386
 20
1473.063055905172
 10
3900.71545378551
 20
1473.063055905172
 72
     4
 94
        3
 73
     0
 74
     0
 95
        8
 96
        4
 40
0.0
 40
0.0
 40
0.0
 40
0.0
 40
1.0
 40
1.0
 40
1.0
 40
1.0
 10
3900.71545378551
 20
1473.063055905172
 10
3900.71545378551
 20
1473.063055905172
 10
3895.06646834605
 20
1473.063055905172
 10
3895.06646834605
 20
1473.063055905172
 72
     4
 94
        3
 73
     0
 74
     0
 95
       11
 96
        7
 40
1.0
 40
1.0
 40
1.0
 40
1.0
 40
2.0
 40
2.0
 40
2.0
 40
3.0
 40
3.0
 40
3.0
 40
3.0
 10
3895.06646834605
 20
1473.063055905172
 10
3894.25259682261
 20
1473.063055905172
 10
3893.592823053069
 20
1472.403278590718
 10
3893.592823053069
 20
1471.589407067286
 10
3893.592823053069
 20
1471.589407067286
 10
3893.592823053069
 20
1465.940421627831
 10
3893.592823053069
 20
1465.940421627831
 72
     4
 94
        3
 73
     0
 74
     0
 95
       11
 96
        7
 40
3.0
 40
3.0
 40
3.0
 40
3.0
 40
4.0
 40
4.0
 40
4.0
 40
5.0
 40
5.0
 40
5.0
 40
5.0
 10
3893.592823053069
 20
1465.940421627831
 10
3893.592823053069
 20
1465.126546559471
 10
3894.25259682261
 20
1464.46677278994
 10
3895.06646834605
 20
1464.46677278994
 10
3895.06646834605
 20
1464.46677278994
 10
3900.71545378551
 20
1464.46677278994
 10
3900.71545378551
 20
1464.46677278994
 72
     4
 94
        3
 73
     0
 74
     0
 95
       11
 96
        7
 40
5.0
 40
5.0
 40
5.0
 40
5.0
 40
6.0
 40
6.0
 40
6.0
 40
7.0
 40
7.0
 40
7.0
 40
7.0
 10
3900.71545378551
 20
1464.46677278994
 10
3901.52932885386
 20
1464.46677278994
 10
3902.189102623401
 20
1465.126546559471
 10
3902.189102623401
 20
1465.940421627831
 10
3902.189102623401
 20
1465.940421627831
 10
3902.189102623401
 20
1471.589407067286
 10
3902.189102623401
 20
1471.589407067286
 97
        0
 92
       20
 93
       12
 72
     4
 94
        3
 73
     0
 74
     0
 95
        8
 96
        4
 40
10.0
 40
10.0
 40
10.0
 40
10.0
 40
11.0
 40
11.0
 40
11.0
 40
11.0
 10
3894.45244888316
 20
1468.764912575096
 10
3894.45244888316
 20
1470.663948493063
 10
3895.9919481898
 20
1472.203426530173
 10
3897.890980562852
 20
1472.203426530173
 72
     4
 94
        3
 73
     0
 74
     0
 95
        8
 96
        4
 40
11.0
 40
11.0
 40
11.0
 40
11.0
 40
12.0
 40
12.0
 40
12.0
 40
12.0
 10
3897.890980562852
 20
1472.203426530173
 10
3899.790009390969
 20
1472.203426530173
 10
3901.329473248401
 20
1470.663948493063
 10
3901.329473248401
 20
1468.764912575096
 72
     4
 94
        3
 73
     0
 74
     0
 95
        8
 96
        4
 40
12.0
 40
12.0
 40
12.0
 40
12.0
 40
13.0
 40
13.0
 40
13.0
 40
13.0
 10
3901.329473248401
 20
1468.764912575096
 10
3901.329473248401
 20
1466.865873112208
 10
3899.790009390969
 20
1465.326398620014
 10
3897.890980562852
 20
1465.326398620014
 72
     4
 94
        3
 73
     0
 74
     0
 95
        8
 96
        4
 40
0.0
 40
0.0
 40
0.0
 40
0.0
 40
1.0
 40
1.0
 40
1.0
 40
1.0
 10
3897.890980562852
 20
1465.326398620014
 10
3897.62188908824
 20
1465.326398620014
 10
3897.360472369479
 20
1465.358434079
 10
3897.109275660511
 20
1465.41713089541
 72
     4
 94
        3
 73
     0
 74
     0
 95
        8
 96
        4
 40
1.0
 40
1.0
 40
1.0
 40
1.0
 40
2.0
 40
2.0
 40
2.0
 40
2.0
 10
3897.109275660511
 20
1465.41713089541
 10
3897.432880943711
 20
1465.638280846582
 10
3897.645352926131
 20
1466.010097067285
 10
3897.645352926131
 20
1466.431637907125
 72
     4
 94
        3
 73
     0
 74
     0
 95
        8
 96
        4
 40
2.0
 40
2.0
 40
2.0
 40
2.0
 40
3.0
 40
3.0
 40
3.0
 40
3.0
 10
3897.645352926131
 20
1466.431637907125
 10
3897.645352926131
 20
1466.522398541892
 10
3897.635214449571
 20
1466.610748629781
 10
3897.61653271128
 20
1466.695901198143
 72
     4
 94
        3
 73
     0
 74
     0
 95
        8
 96
        4
 40
3.0
 40
3.0
 40
3.0
 40
3.0
 40
4.0
 40
4.0
 40
4.0
 40
4.0
 10
3897.61653271128
 20
1466.695901198143
 10
3897.70638584605
 20
1466.683997350488
 10
3897.79786609996
 20
1466.677244274314
 10
3897.89097347301
 20
1466.677244274314
 72
     4
 94
        3
 73
     0
 74
     0
 95
        8
 96
        4
 40
4.0
 40
4.0
 40
4.0
 40
4.0
 40
5.0
 40
5.0
 40
5.0
 40
5.0
 10
3897.89097347301
 20
1466.677244274314
 10
3899.043955767921
 20
1466.677244274314
 10
3899.978631139018
 20
1467.611923190328
 10
3899.978631139018
 20
1468.764912575096
 72
     4
 94
        3
 73
     0
 74
     0
 95
       11
 96
        7
 40
5.0
 40
5.0
 40
5.0
 40
5.0
 40
6.0
 40
6.0
 40
6.0
 40
7.0
 40
7.0
 40
7.0
 40
7.0
 10
3899.978631139018
 20
1468.764912575096
 10
3899.978631139018
 20
1469.917898414938
 10
3899.043955767921
 20
1470.852580875874
 10
3897.89097347301
 20
1470.852580875874
 10
3896.737991178081
 20
1470.852580875874
 10
3895.803294537451
 20
1469.917898414938
 10
3895.803294537451
 20
1468.764912575096
 72
     4
 94
        3
 73
     0
 74
     0
 95
        8
 96
        4
 40
7.0
 40
7.0
 40
7.0
 40
7.0
 40
8.0
 40
8.0
 40
8.0
 40
8.0
 10
3895.803294537451
 20
1468.764912575096
 10
3895.803294537451
 20
1468.345434879784
 10
3895.92735971324
 20
1467.955096442284
 10
3896.140310260109
 20
1467.627917877828
 72
     4
 94
        3
 73
     0
 74
     0
 95
        8
 96
        4
 40
8.0
 40
8.0
 40
8.0
 40
8.0
 40
9.0
 40
9.0
 40
9.0
 40
9.0
 10
3896.140310260109
 20
1467.627917877828
 10
3895.655804517919
 20
1467.516150036036
 10
3895.280858131212
 20
1467.118051764549
 10
3895.20387306284
 20
1466.621167155173
 72
     4
 94
        3
 73
     0
 74
     0
 95
        8
 96
        4
 40
9.0
 40
9.0
 40
9.0
 40
9.0
 40
10.0
 40
10.0
 40
10.0
 40
10.0
 10
3895.20387306284
 20
1466.621167155173
 10
3894.73408583629
 20
1467.209071178614
 10
3894.45244888316
 20
1467.95384153994
 10
3894.45244888316
 20
1468.764912575096
 97
        0
 92
       20
 93
        1
 72
     4
 94
        3
 73
     0
 74
     0
 95
       17
 96
       13
 40
0.0
 40
0.0
 40
0.0
 40
0.0
 40
1.0
 40
1.0
 40
1.0
 40
2.0
 40
2.0
 40
2.0
 40
3.0
 40
3.0
 40
3.0
 40
4.0
 40
4.0
 40
4.0
 40
4.0
 10
3896.29451081675
 20
1468.764912575096
 10
3896.29451081675
 20
1469.646609088769
 10
3897.009276959338
 20
1470.361368141503
 10
3897.890969928089
 20
1470.361368141503
 10
3898.772662896831
 20
1470.361368141503
 10
3899.48741485972
 20
1469.646609088769
 10
3899.48741485972
 20
1468.764912575096
 10
3899.48741485972
 20
1467.883216061423
 10
3898.772662896831
 20
1467.168460553614
 10
3897.890969928089
 20
1467.168460553614
 10
3897.009276959338
 20
1467.168460553614
 10
3896.29451081675
 20
1467.883216061423
 10
3896.29451081675
 20
1468.764912575096
 97
        0
 92
       20
 93
        3
 72
     4
 94
        3
 73
     0
 74
     0
 95
       11
 96
        7
 40
1.0
 40
1.0
 40
1.0
 40
1.0
 40
2.0
 40
2.0
 40
2.0
 40
3.0
 40
3.0
 40
3.0
 40
3.0
 10
3895.557684625352
 20
1466.431637907125
 10
3895.557684625352
 20
1466.906395114159
 10
3895.942560338239
 20
1467.291263737208
 10
3896.417317545269
 20
1467.291263737208
 10
3896.89207475231
 20
1467.291263737208
 10
3897.276939830419
 20
1466.906395114159
 10
3897.276939830419
 20
1466.431637907125
 72
     4
 94
        3
 73
     0
 74
     0
 95
        8
 96
        4
 40
3.0
 40
3.0
 40
3.0
 40
3.0
 40
4.0
 40
4.0
 40
4.0
 40
4.0
 10
3897.276939830419
 20
1466.431637907125
 10
3897.276939830419
 20
1465.956877155176
 10
3896.89207475231
 20
1465.572008532129
 10
3896.417317545269
 20
1465.572008532129
 72
     4
 94
        3
 73
     0
 74
     0
 95
        8
 96
        4
 40
0.0
 40
0.0
 40
0.0
 40
0.0
 40
1.0
 40
1.0
 40
1.0
 40
1.0
 10
3896.417317545269
 20
1465.572008532129
 10
3895.942560338239
 20
1465.572008532129
 10
3895.557684625352
 20
1465.956877155176
 10
3895.557684625352
 20
1466.431637907125
 97
        0
 92
        5
 93
       33
 72
     4
 94
        3
 73
     0
 74
     0
 95
       11
 96
        7
 40
5.0
 40
5.0
 40
5.0
 40
5.0
 40
6.0
 40
6.0
 40
6.0
 40
7.0
 40
7.0
 40
7.0
 40
7.0
 10
3906.9599945021
 20
1469.663732018319
 10
3906.9599945021
 20
1469.663732018319
 10
3907.783388262239
 20
1469.663732018319
 10
3907.783388262239
 20
1469.663732018319
 10
3907.65513741225
 20
1470.773887908003
 10
3906.770988869201
 20
1471.346205750718
 10
3905.71814177135
 20
1471.346205750718
 72
     4
 94
        3
 73
     0
 74
     0
 95
        8
 96
        4
 40
4.0
 40
4.0
 40
4.0
 40
4.0
 40
5.0
 40
5.0
 40
5.0
 40
5.0
 10
3905.71814177135
 20
1471.346205750718
 10
3904.273842452267
 20
1471.346205750718
 10
3903.40995937448
 20
1470.17397772566
 10
3903.40995937448
 20
1468.767321101654
 72
     4
 94
        3
 73
     0
 74
     0
 95
        8
 96
        4
 40
3.0
 40
3.0
 40
3.0
 40
3.0
 40
4.0
 40
4.0
 40
4.0
 40
4.0
 10
3903.40995937448
 20
1468.767321101654
 10
3903.40995937448
 20
1467.360643220061
 10
3904.273842452267
 20
1466.188436452585
 10
3905.71814177135
 20
1466.188436452585
 72
     4
 94
        3
 73
     0
 74
     0
 95
        8
 96
        4
 40
2.0
 40
2.0
 40
2.0
 40
2.0
 40
3.0
 40
3.0
 40
3.0
 40
3.0
 10
3905.71814177135
 20
1466.188436452585
 10
3906.305299296761
 20
1466.188436452585
 10
3906.717016983268
 20
1466.360814173736
 10
3907.169182374561
 20
1466.884877308473
 72
     4
 94
        3
 73
     0
 74
     0
 95
       11
 96
        7
 40
0.5
 40
0.5
 40
0.5
 40
0.5
 40
1.5
 40
1.5
 40
1.5
 40
2.0
 40
2.0
 40
2.0
 40
2.0
 10
3907.169182374561
 20
1466.884877308473
 10
3907.169182374561
 20
1466.884877308473
 10
3907.297433224551
 20
1466.305650752061
 10
3907.297433224551
 20
1466.305650752061
 10
3907.297433224551
 20
1466.305650752061
 10
3907.432414955458
 20
1466.305650752061
 10
3907.567396686369
 20
1466.305650752061
 72
     4
 94
        3
 73
     0
 74
     0
 95
       11
 96
        7
 40
14.749965
 40
14.749965
 40
14.749965
 40
14.749965
 40
15.249965
 40
15.249965
 40
15.249965
 40
15.5
 40
15.5
 40
15.5
 40
15.5
 10
3907.567396686369
 20
1466.305650752061
 10
3907.70237841726
 20
1466.305650752061
 10
3907.837360148158
 20
1466.305650752061
 10
3907.837360148158
 20
1466.305650752061
 10
3907.837360148158
 20
1466.305650752061
 10
3907.837360148158
 20
1466.467738678331
 10
3907.837360148158
 20
1466.710859221577
 72
     4
 94
        3
 73
     0
 74
     0
 95
        8
 96
        4
 40
14.49997
 40
14.49997
 40
14.49997
 40
14.49997
 40
14.749965
 40
14.749965
 40
14.749965
 40
14.749965
 10
3907.837360148158
 20
1466.710859221577
 10
3907.837360148158
 20
1466.953940870991
 10
3907.837360148158
 20
1467.278029212644
 10
3907.837360148158
 20
1467.602107832134
 72
     4
 94
        3
 73
     0
 74
     0
 95
        8
 96
        4
 40
14.3749725
 40
14.3749725
 40
14.3749725
 40
14.3749725
 40
14.49997
 40
14.49997
 40
14.49997
 40
14.49997
 10
3907.837360148158
 20
1467.602107832134
 10
3907.837360148158
 20
1467.76414714188
 10
3907.837360148158
 20
1467.92618402109
 10
3907.837360148158
 20
1468.07809141795
 72
     4
 94
        3
 73
     0
 74
     0
 95
        8
 96
        4
 40
14.18747625
 40
14.18747625
 40
14.18747625
 40
14.18747625
 40
14.3749725
 40
14.3749725
 40
14.3749725
 40
14.3749725
 10
3907.837360148158
 20
1468.07809141795
 10
3907.837360148158
 20
1468.305952513242
 10
3907.837360148158
 20
1468.511022273265
 10
3907.837360148158
 20
1468.659121898187
 72
     4
 94
        3
 73
     0
 74
     0
 95
        8
 96
        4
 40
14.1249775
 40
14.1249775
 40
14.1249775
 40
14.1249775
 40
14.18747625
 40
14.18747625
 40
14.18747625
 40
14.18747625
 10
3907.837360148158
 20
1468.659121898187
 10
3907.837360148158
 20
1468.708488439831
 10
3907.837360148158
 20
1468.751524966463
 10
3907.837360148158
 20
1468.786965596603
 72
     4
 94
        3
 73
     0
 74
     0
 95
        8
 96
        4
 40
14.093728125
 40
14.093728125
 40
14.093728125
 40
14.093728125
 40
14.1249775
 40
14.1249775
 40
14.1249775
 40
14.1249775
 10
3907.837360148158
 20
1468.786965596603
 10
3907.837360148158
 20
1468.804685911678
 10
3907.837360148158
 20
1468.820507252623
 10
3907.837360148158
 20
1468.834271384273
 72
     4
 94
        3
 73
     0
 74
     0
 95
        8
 96
        4
 40
14.06247875
 40
14.06247875
 40
14.06247875
 40
14.06247875
 40
14.093728125
 40
14.093728125
 40
14.093728125
 40
14.093728125
 10
3907.837360148158
 20
1468.834271384273
 10
3907.837360148158
 20
1468.848035515914
 10
3907.837360148158
 20
1468.859742438253
 10
3907.837360148158
 20
1468.869233916102
 72
     4
 94
        3
 73
     0
 74
     0
 95
       11
 96
        7
 40
13.99997958222998
 40
13.99997958222998
 40
13.99997958222998
 40
13.99997958222998
 40
14.0
 40
14.0
 40
14.0
 40
14.00071240722656
 40
14.00071240722656
 40
14.00071240722656
 40
14.00071240722656
 10
3907.837360145601
 20
1468.898331570939
 10
3907.837360147309
 20
1468.898331570939
 10
3907.837360148158
 20
1468.898331570939
 10
3907.837360148158
 20
1468.898331570939
 10
3907.837360148158
 20
1468.898331570939
 10
3907.837360148158
 20
1468.898330255096
 10
3907.837360148158
 20
1468.898327625275
 72
     4
 94
        3
 73
     0
 74
     0
 95
        8
 96
        4
 40
13.49999
 40
13.49999
 40
13.49999
 40
13.49999
 40
13.99997958222998
 40
13.99997958222998
 40
13.99997958222998
 40
13.99997958222998
 10
3907.837360145601
 20
1468.898331570939
 10
3907.83731825573
 20
1468.898331570939
 10
3907.3243881075
 20
1468.898331570939
 10
3906.811468217451
 20
1468.898331570939
 72
     4
 94
        3
 73
     0
 74
     0
 95
       11
 96
        7
 40
12.99902343580856
 40
12.99902343580856
 40
12.99902343580856
 40
12.99902343580856
 40
13.49901343580856
 40
13.49901343580856
 40
13.49901343580856
 40
13.49999
 40
13.49999
 40
13.49999
 40
13.49999
 10
3906.811468217451
 20
1468.898331570939
 10
3906.298547898831
 20
1468.898331570939
 10
3905.78563783841
 20
1468.898331570939
 10
3905.78563783841
 20
1468.898331570939
 10
3905.78563783841
 20
1468.898331570939
 10
3905.78563783841
 20
1468.898330946211
 10
3905.78563783841
 20
1468.898329697971
 72
     4
 94
        3
 73
     0
 74
     0
 95
        8
 96
        4
 40
12.906251875
 40
12.906251875
 40
12.906251875
 40
12.906251875
 40
12.93750125
 40
12.93750125
 40
12.93750125
 40
12.93750125
 10
3905.78563783841
 20
1468.890975075173
 10
3905.78563783841
 20
1468.888576216744
 10
3905.78563783841
 20
1468.885617623832
 10
3905.78563783841
 20
1468.882139276547
 72
     4
 94
        3
 73
     0
 74
     0
 95
        8
 96
        4
 40
12.81250375
 40
12.81250375
 40
12.81250375
 40
12.81250375
 40
12.8750024998249
 40
12.8750024998249
 40
12.8750024998249
 40
12.8750024998249
 10
3905.78563783841
 20
1468.870184951666
 10
3905.78563783841
 20
1468.861229199901
 10
3905.78563783841
 20
1468.850354351167
 10
3905.78563783841
 20
1468.83788024644
 72
     4
 94
        3
 73
     0
 74
     0
 95
        8
 96
        4
 40
12.75000499991749
 40
12.75000499991749
 40
12.75000499991749
 40
12.75000499991749
 40
12.81250375
 40
12.81250375
 40
12.81250375
 40
12.81250375
 10
3905.78563783841
 20
1468.83788024644
 10
3905.78563783841
 20
1468.825406141655
 10
3905.78563783841
 20
1468.811332780859
 10
3905.78563783841
 20
1468.795980005017
 72
     4
 94
        3
 73
     0
 74
     0
 95
        8
 96
        4
 40
12.6250075
 40
12.6250075
 40
12.6250075
 40
12.6250075
 40
12.75000499991749
 40
12.75000499991749
 40
12.75000499991749
 40
12.75000499991749
 10
3905.78563783841
 20
1468.795980005017
 10
3905.78563783841
 20
1468.76527445339
 10
3905.78563783841
 20
1468.729451241597
 10
3905.78563783841
 20
1468.691069097368
 72
     4
 94
        3
 73
     0
 74
     0
 95
        8
 96
        4
 40
12.50000999999212
 40
12.50000999999212
 40
12.50000999999212
 40
12.50000999999212
 40
12.6250075
 40
12.6250075
 40
12.6250075
 40
12.6250075
 10
3905.78563783841
 20
1468.691069097368
 10
3905.78563783841
 20
1468.652686953114
 10
3905.78563783841
 20
1468.611745876428
 10
3905.78563783841
 20
1468.570804595023
 72
     4
 94
        3
 73
     0
 74
     0
 95
        8
 96
        4
 40
12.250015
 40
12.250015
 40
12.250015
 40
12.250015
 40
12.50000999999212
 40
12.50000999999212
 40
12.50000999999212
 40
12.50000999999212
 10
3905.78563783841
 20
1468.570804595023
 10
3905.78563783841
 20
1468.488922032241
 10
3905.78563783841
 20
1468.407038650648
 10
3905.78563783841
 20
1468.345624272134
 72
     4
 94
        3
 73
     0
 74
     0
 95
       11
 96
        7
 40
11.99928759277344
 40
11.99928759277344
 40
11.99928759277344
 40
11.99928759277344
 40
12.24930259277344
 40
12.24930259277344
 40
12.24930259277344
 40
12.250015
 40
12.250015
 40
12.250015
 40
12.250015
 10
3905.78563783841
 20
1468.345624272134
 10
3905.78563783841
 20
1468.284204980371
 10
3905.78563783841
 20
1468.243257966919
 10
3905.78563783841
 20
1468.243257966919
 10
3905.78563783841
 20
1468.243257966919
 10
3905.785638489219
 20
1468.243257966919
 10
3905.785639789938
 20
1468.243257966919
 72
     4
 94
        3
 73
     0
 74
     0
 95
        8
 96
        4
 40
11.906271875
 40
11.906271875
 40
11.906271875
 40
11.906271875
 40
11.93752124974706
 40
11.93752124974706
 40
11.93752124974706
 40
11.93752124974706
 10
3905.800029562352
 20
1468.243257966919
 10
3905.80472405501
 20
1468.243257966919
 10
3905.810514308311
 20
1468.243257966919
 10
3905.817322059009
 20
1468.243257966919
 72
     4
 94
        3
 73
     0
 74
     0
 95
        8
 96
        4
 40
11.8750225
 40
11.8750225
 40
11.8750225
 40
11.8750225
 40
11.906271875
 40
11.906271875
 40
11.906271875
 40
11.906271875
 10
3905.817322059009
 20
1468.243257966919
 10
3905.824129809739
 20
1468.243257966919
 10
3905.831955057891
 20
1468.243257966919
 10
3905.84071954018
 20
1468.243257966919
 72
     4
 94
        3
 73
     0
 74
     0
 95
        8
 96
        4
 40
11.81252375
 40
11.81252375
 40
11.81252375
 40
11.81252375
 40
11.8750225
 40
11.8750225
 40
11.8750225
 40
11.8750225
 10
3905.84071954018
 20
1468.243257966919
 10
3905.858248504761
 20
1468.243257966919
 10
3905.87953440594
 20
1468.243257966919
 10
3905.90395113772
 20
1468.243257966919
 72
     4
 94
        3
 73
     0
 74
     0
 95
        8
 96
        4
 40
11.75002499995332
 40
11.75002499995332
 40
11.75002499995332
 40
11.75002499995332
 40
11.81252375
 40
11.81252375
 40
11.81252375
 40
11.81252375
 10
3905.90395113772
 20
1468.243257966919
 10
3905.92836786952
 20
1468.243257966919
 10
3905.955915431909
 20
1468.243257966919
 10
3905.98596771888
 20
1468.243257966919
 72
     4
 94
        3
 73
     0
 74
     0
 95
        8
 96
        4
 40
11.6250275
 40
11.6250275
 40
11.6250275
 40
11.6250275
 40
11.75002499995332
 40
11.75002499995332
 40
11.75002499995332
 40
11.75002499995332
 10
3905.98596771888
 20
1468.243257966919
 10
3906.046072292751
 20
1468.243257966919
 10
3906.116195764919
 20
1468.243257966919
 10
3906.191329287329
 20
1468.243257966919
 72
     4
 94
        3
 73
     0
 74
     0
 95
        8
 96
        4
 40
11.50003
 40
11.50003
 40
11.50003
 40
11.50003
 40
11.6250275
 40
11.6250275
 40
11.6250275
 40
11.6250275
 10
3906.191329287329
 20
1468.243257966919
 10
3906.266462809761
 20
1468.243257966919
 10
3906.34660638242
 20
1468.243257966919
 10
3906.426751157238
 20
1468.243257966919
 72
     4
 94
        3
 73
     0
 74
     0
 95
        8
 96
        4
 40
11.250035
 40
11.250035
 40
11.250035
 40
11.250035
 40
11.50003
 40
11.50003
 40
11.50003
 40
11.50003
 10
3906.426751157238
 20
1468.243257966919
 10
3906.587040706851
 20
1468.243257966919
 10
3906.74733506506
 20
1468.243257966919
 10
3906.86756344719
 20
1468.243257966919
 72
     4
 94
        3
 73
     0
 74
     0
 95
       11
 96
        7
 40
10.0
 40
10.0
 40
10.0
 40
10.0
 40
10.250035
 40
10.250035
 40
10.250035
 40
11.250035
 40
11.250035
 40
11.250035
 40
11.250035
 10
3906.86756344719
 20
1468.243257966919
 10
3906.987811066251
 20
1468.243257966919
 10
3907.067979886832
 20
1468.243257966919
 10
3907.067979886832
 20
1468.243257966919
 10
3907.054455705701
 20
1467.408919185624
 10
3906.58202484915
 20
1466.877968594775
 10
3905.71814177135
 20
1466.891764764588
 72
     4
 94
        3
 73
     0
 74
     0
 95
        8
 96
        4
 40
9.0
 40
9.0
 40
9.0
 40
9.0
 40
10.0
 40
10.0
 40
10.0
 40
10.0
 10
3905.71814177135
 20
1466.891764764588
 10
3904.68556013876
 20
1466.891764764588
 10
3904.25361859988
 20
1467.822634219426
 10
3904.25361859988
 20
1468.767321101654
 72
     4
 94
        3
 73
     0
 74
     0
 95
        8
 96
        4
 40
8.0
 40
8.0
 40
8.0
 40
8.0
 40
9.0
 40
9.0
 40
9.0
 40
9.0
 10
3904.25361859988
 20
1468.767321101654
 10
3904.25361859988
 20
1469.711986726305
 10
3904.68556013876
 20
1470.642877438714
 10
3905.71814177135
 20
1470.642877438714
 72
     4
 94
        3
 73
     0
 74
     0
 95
        8
 96
        4
 40
7.0
 40
7.0
 40
7.0
 40
7.0
 40
8.0
 40
8.0
 40
8.0
 40
8.0
 10
3905.71814177135
 20
1470.642877438714
 10
3906.325564762039
 20
1470.642877438714
 10
3906.878974253918
 20
1470.311896908646
 10
3906.9599945021
 20
1469.663732018319
 97
        0
 92
        5
 93
        8
 72
     4
 94
        3
 73
     0
 74
     0
 95
       11
 96
        7
 40
0.5
 40
0.5
 40
0.5
 40
0.5
 40
1.5
 40
1.5
 40
1.5
 40
2.0
 40
2.0
 40
2.0
 40
2.0
 10
3909.072000867629
 20
1468.35808481785
 10
3909.072000867629
 20
1468.35808481785
 10
3909.072000867629
 20
1471.223401719813
 10
3909.072000867629
 20
1471.223401719813
 10
3909.072000867629
 20
1471.223401719813
 10
3908.855578204108
 20
1471.223401719813
 10
3908.639155540588
 20
1471.223401719813
 72
     4
 94
        3
 73
     0
 74
     0
 95
       11
 96
        7
 40
9.5
 40
9.5
 40
9.5
 40
9.5
 40
10.0
 40
10.0
 40
10.0
 40
10.5
 40
10.5
 40
10.5
 40
10.5
 10
3908.639155540588
 20
1471.223401719813
 10
3908.42273287706
 20
1471.223401719813
 10
3908.206310213549
 20
1471.223401719813
 10
3908.206310213549
 20
1471.223401719813
 10
3908.206310213549
 20
1471.223401719813
 10
3908.206310213549
 20
1470.436469421107
 10
3908.206310213549
 20
1469.649537122407
 72
     4
 94
        3
 73
     0
 74
     0
 95
       11
 96
        7
 40
8.0
 40
8.0
 40
8.0
 40
8.0
 40
8.5
 40
8.5
 40
8.5
 40
9.5
 40
9.5
 40
9.5
 40
9.5
 10
3908.206310213549
 20
1469.649537122407
 10
3908.206310213549
 20
1468.862604823707
 10
3908.206310213549
 20
1468.075672525004
 10
3908.206310213549
 20
1468.075672525004
 10
3908.206310213549
 20
1466.815221870641
 10
3909.016616820949
 20
1466.188436452585
 10
3910.235535566119
 20
1466.188436452585
 72
     4
 94
        3
 73
     0
 74
     0
 95
        8
 96
        4
 40
7.0
 40
7.0
 40
7.0
 40
7.0
 40
8.0
 40
8.0
 40
8.0
 40
8.0
 10
3910.235535566119
 20
1466.188436452585
 10
3911.454454311279
 20
1466.188436452585
 10
3912.264760918679
 20
1466.815221870641
 10
3912.264760918679
 20
1468.075672525004
 72
     4
 94
        3
 73
     0
 74
     0
 95
       11
 96
        7
 40
5.5
 40
5.5
 40
5.5
 40
5.5
 40
6.5
 40
6.5
 40
6.5
 40
7.0
 40
7.0
 40
7.0
 40
7.0
 10
3912.264760918679
 20
1468.075672525004
 10
3912.264760918679
 20
1468.075672525004
 10
3912.264760918679
 20
1471.223401719813
 10
3912.264760918679
 20
1471.223401719813
 10
3912.264760918679
 20
1471.223401719813
 10
3912.048327579738
 20
1471.223401719813
 10
3911.83189424081
 20
1471.223401719813
 72
     4
 94
        3
 73
     0
 74
     0
 95
       11
 96
        7
 40
4.5
 40
4.5
 40
4.5
 40
4.5
 40
5.0
 40
5.0
 40
5.0
 40
5.5
 40
5.5
 40
5.5
 40
5.5
 10
3911.83189424081
 20
1471.223401719813
 10
3911.615460901871
 20
1471.223401719813
 10
3911.399027562939
 20
1471.223401719813
 10
3911.399027562939
 20
1471.223401719813
 10
3911.399027562939
 20
1471.223401719813
 10
3911.399027562939
 20
1470.507072494321
 10
3911.399027562939
 20
1469.790743268829
 72
     4
 94
        3
 73
     0
 74
     0
 95
       11
 96
        7
 40
3.0
 40
3.0
 40
3.0
 40
3.0
 40
3.5
 40
3.5
 40
3.5
 40
4.5
 40
4.5
 40
4.5
 40
4.5
 10
3911.399027562939
 20
1469.790743268829
 10
3911.399027562939
 20
1469.074414043338
 10
3911.399027562939
 20
1468.35808481785
 10
3911.399027562939
 20
1468.35808481785
 10
3911.399027562939
 20
1467.696857840474
 10
3911.357478852519
 20
1466.93230618513
 10
3910.235535566119
 20
1466.93230618513
 72
     4
 94
        3
 73
     0
 74
     0
 95
        8
 96
        4
 40
2.0
 40
2.0
 40
2.0
 40
2.0
 40
3.0
 40
3.0
 40
3.0
 40
3.0
 10
3910.235535566119
 20
1466.93230618513
 10
3909.11354957805
 20
1466.93230618513
 10
3909.072000867629
 20
1467.696857840474
 10
3909.072000867629
 20
1468.35808481785
 97
        0
 92
        5
 93
        1
 72
     4
 94
        3
 73
     0
 74
     0
 95
       17
 96
       13
 40
0.0
 40
0.0
 40
0.0
 40
0.0
 40
1.0
 40
1.0
 40
1.0
 40
2.0
 40
2.0
 40
2.0
 40
3.0
 40
3.0
 40
3.0
 40
4.0
 40
4.0
 40
4.0
 40
4.0
 10
3918.4139286574
 20
1468.76075822731
 10
3918.4139286574
 20
1467.360962336428
 10
3917.539378385849
 20
1466.194490439865
 10
3916.077244916469
 20
1466.194490439865
 10
3914.615111447089
 20
1466.194490439865
 10
3913.740561175539
 20
1467.360962336428
 10
3913.740561175539
 20
1468.76075822731
 10
3913.740561175539
 20
1470.160532964618
 10
3914.615111447089
 20
1471.327026014758
 10
3916.077244916469
 20
1471.327026014758
 10
3917.539378385849
 20
1471.327026014758
 10
3918.4139286574
 20
1470.160532964618
 10
3918.4139286574
 20
1468.76075822731
 97
        0
 92
       20
 93
        4
 72
     4
 94
        3
 73
     0
 74
     0
 95
        8
 96
        4
 40
2.0
 40
2.0
 40
2.0
 40
2.0
 40
3.0
 40
3.0
 40
3.0
 40
3.0
 10
3916.077244916469
 20
1470.627138646109
 10
3917.122618952499
 20
1470.627138646109
 10
3917.559894088281
 20
1469.700802196834
 10
3917.559894088281
 20
1468.76075822731
 72
     4
 94
        3
 73
     0
 74
     0
 95
        8
 96
        4
 40
1.0
 40
1.0
 40
1.0
 40
1.0
 40
2.0
 40
2.0
 40
2.0
 40
2.0
 10
3917.559894088281
 20
1468.76075822731
 10
3917.559894088281
 20
1467.820693104211
 10
3917.122618952499
 20
1466.894377808521
 10
3916.077244916469
 20
1466.894377808521
 72
     4
 94
        3
 73
     0
 74
     0
 95
        8
 96
        4
 40
0.0
 40
0.0
 40
0.0
 40
0.0
 40
1.0
 40
1.0
 40
1.0
 40
1.0
 10
3916.077244916469
 20
1466.894377808521
 10
3915.031913007132
 20
1466.894377808521
 10
3914.59463787136
 20
1467.820693104211
 10
3914.59463787136
 20
1468.76075822731
 72
     4
 94
        3
 73
     0
 74
     0
 95
        8
 96
        4
 40
3.0
 40
3.0
 40
3.0
 40
3.0
 40
4.0
 40
4.0
 40
4.0
 40
4.0
 10
3914.59463787136
 20
1468.76075822731
 10
3914.59463787136
 20
1469.700802196834
 10
3915.031913007132
 20
1470.627138646109
 10
3916.077244916469
 20
1470.627138646109
 97
        0
 92
        5
 93
       31
 72
     4
 94
        3
 73
     0
 74
     0
 95
        8
 96
        4
 40
1.0
 40
1.0
 40
1.0
 40
1.0
 40
2.0
 40
2.0
 40
2.0
 40
2.0
 10
3922.59536272103
 20
1469.749752288451
 10
3922.59536272103
 20
1470.392658463938
 10
3922.328913054318
 20
1471.346205750718
 10
3920.9350758808
 20
1471.346205750718
 72
     4
 94
        3
 73
     0
 74
     0
 95
       11
 96
        7
 40
6.749964999999998
 40
6.749964999999998
 40
6.749964999999998
 40
6.749964999999998
 40
7.749964999999998
 40
7.749964999999998
 40
7.749964999999998
 40
8.0
 40
8.0
 40
8.0
 40
8.0
 10
3920.9350758808
 20
1471.346205750718
 10
3920.9350758808
 20
1471.346205750718
 10
3918.78287872304
 20
1471.346205750718
 10
3918.78287872304
 20
1471.346205750718
 10
3918.78287872304
 20
1471.346205750718
 10
3918.78287872304
 20
1471.0237549023
 10
3918.78287872304
 20
1470.540101201241
 72
     4
 94
        3
 73
     0
 74
     0
 95
        8
 96
        4
 40
6.499969999999998
 40
6.499969999999998
 40
6.499969999999998
 40
6.499969999999998
 40
6.749964999999998
 40
6.749964999999998
 40
6.749964999999998
 40
6.749964999999998
 10
3918.78287872304
 20
1470.540101201241
 10
3918.78287872304
 20
1470.056524873939
 10
3918.78287872304
 20
1469.411797267555
 10
3918.78287872304
 20
1468.767089002035
 72
     4
 94
        3
 73
     0
 74
     0
 95
        8
 96
        4
 40
6.3749725
 40
6.3749725
 40
6.3749725
 40
6.3749725
 40
6.499969999999998
 40
6.499969999999998
 40
6.499969999999998
 40
6.499969999999998
 10
3918.78287872304
 20
1468.767089002035
 10
3918.78287872304
 20
1468.444734869276
 10
3918.78287872304
 20
1468.122385571726
 10
3918.78287872304
 20
1467.820187436892
 72
     4
 94
        3
 73
     0
 74
     0
 95
        8
 96
        4
 40
6.249974999999997
 40
6.249974999999997
 40
6.249974999999997
 40
6.249974999999997
 40
6.374972499999997
 40
6.374972499999997
 40
6.374972499999997
 40
6.374972499999997
 10
3918.78287872304
 20
1467.820187436892
 10
3918.78287872304
 20
1467.517989302053
 10
3918.78287872304
 20
1467.235942329921
 10
3918.78287872304
 20
1466.994192847992
 72
     4
 94
        3
 73
     0
 74
     0
 95
        8
 96
        4
 40
6.187476249999998
 40
6.187476249999998
 40
6.187476249999998
 40
6.187476249999998
 40
6.249974999999999
 40
6.249974999999999
 40
6.249974999999999
 40
6.249974999999999
 10
3918.78287872304
 20
1466.994192847992
 10
3918.78287872304
 20
1466.873318107028
 10
3918.78287872304
 20
1466.762517738617
 10
3918.78287872304
 20
1466.664310033684
 72
     4
 94
        3
 73
     0
 74
     0
 95
        8
 96
        4
 40
6.124977499999999
 40
6.124977499999999
 40
6.124977499999999
 40
6.124977499999999
 40
6.187476249999998
 40
6.187476249999998
 40
6.187476249999998
 40
6.187476249999998
 10
3918.78287872304
 20
1466.664310033684
 10
3918.78287872304
 20
1466.566102328757
 10
3918.78287872304
 20
1466.480487287318
 10
3918.78287872304
 20
1466.409983200299
 72
     4
 94
        3
 73
     0
 74
     0
 95
        8
 96
        4
 40
6.093728125
 40
6.093728125
 40
6.093728125
 40
6.093728125
 40
6.124977499999999
 40
6.124977499999999
 40
6.124977499999999
 40
6.124977499999999
 10
3918.78287872304
 20
1466.409983200299
 10
3918.78287872304
 20
1466.374731156792
 10
3918.78287872304
 20
1466.343256851887
 10
3918.78287872304
 20
1466.315875071962
 72
     4
 94
        3
 73
     0
 74
     0
 95
        8
 96
        4
 40
6.06247875
 40
6.06247875
 40
6.06247875
 40
6.06247875
 40
6.093728125
 40
6.093728125
 40
6.093728125
 40
6.093728125
 10
3918.78287872304
 20
1466.315875071962
 10
3918.78287872304
 20
1466.288493292034
 10
3918.78287872304
 20
1466.265204037074
 10
3918.78287872304
 20
1466.24632209346
 72
     4
 94
        3
 73
     0
 74
     0
 95
        8
 96
        4
 40
6.046854062499998
 40
6.046854062499998
 40
6.046854062499998
 40
6.046854062499998
 40
6.062478749999998
 40
6.062478749999998
 40
6.062478749999998
 40
6.062478749999998
 10
3918.78287872304
 20
1466.24632209346
 10
3918.78287872304
 20
1466.236881121653
 10
3918.78287872304
 20
1466.228541977676
 10
3918.78287872304
 20
1466.221344009838
 72
     4
 94
        3
 73
     0
 74
     0
 95
        8
 96
        4
 40
6.031229375000001
 40
6.031229375000001
 40
6.031229375000001
 40
6.031229375000001
 40
6.046854062500001
 40
6.046854062500001
 40
6.046854062500001
 40
6.046854062500001
 10
3918.78287872304
 20
1466.221344009838
 10
3918.78287872304
 20
1466.214146041993
 10
3918.78287872304
 20
1466.208089250281
 10
3918.78287872304
 20
1466.203212982992
 72
     4
 94
        3
 73
     0
 74
     0
 95
       11
 96
        7
 40
5.999979147302425
 40
5.999979147302425
 40
5.999979147302425
 40
5.999979147302425
 40
6.0
 40
6.0
 40
6.0
 40
6.000468271484374
 40
6.000468271484374
 40
6.000468271484374
 40
6.000468271484374
 10
3918.782878724151
 20
1466.188436452585
 10
3918.782878723411
 20
1466.188436452585
 10
3918.78287872304
 20
1466.188436452585
 10
3918.78287872304
 20
1466.188436452585
 10
3918.78287872304
 20
1466.188436452585
 10
3918.78287872304
 20
1466.188437583576
 10
3918.78287872304
 20
1466.188439844485
 72
     4
 94
        3
 73
     0
 74
     0
 95
        8
 96
        4
 40
5.49999
 40
5.49999
 40
5.49999
 40
5.49999
 40
5.999979147302425
 40
5.999979147302425
 40
5.999979147302425
 40
5.999979147302425
 10
3918.782878724151
 20
1466.188436452585
 10
3918.782896533089
 20
1466.188436452585
 10
3918.996413976702
 20
1466.188436452585
 10
3919.209927150158
 20
1466.188436452585
 72
     4
 94
        3
 73
     0
 74
     0
 95
       11
 96
        7
 40
4.999511717945667
 40
4.999511717945667
 40
4.999511717945667
 40
4.999511717945667
 40
5.499501717945666
 40
5.499501717945666
 40
5.499501717945666
 40
5.499989999999998
 40
5.499989999999998
 40
5.499989999999998
 40
5.499989999999998
 10
3919.209927150158
 20
1466.188436452585
 10
3919.423440687739
 20
1466.188436452585
 10
3919.63694995513
 20
1466.188436452585
 10
3919.63694995513
 20
1466.188436452585
 10
3919.63694995513
 20
1466.188436452585
 10
3919.63694995513
 20
1466.188436924492
 10
3919.63694995513
 20
1466.188437867848
 72
     4
 94
        3
 73
     0
 74
     0
 95
        8
 96
        4
 40
4.937501249873328
 40
4.937501249873328
 40
4.937501249873328
 40
4.937501249873328
 40
4.9531259375
 40
4.9531259375
 40
4.9531259375
 40
4.9531259375
 10
3919.63694995513
 20
1466.2010754742
 10
3919.63694995513
 20
1466.203838845471
 10
3919.63694995513
 20
1466.20704012852
 10
3919.63694995513
 20
1466.21066422327
 72
     4
 94
        3
 73
     0
 74
     0
 95
        8
 96
        4
 40
4.906251875000001
 40
4.906251875000001
 40
4.906251875000001
 40
4.906251875000001
 40
4.93750124987333
 40
4.93750124987333
 40
4.93750124987333
 40
4.93750124987333
 10
3919.63694995513
 20
1466.21066422327
 10
3919.63694995513
 20
1466.217912412679
 10
3919.63694995513
 20
1466.226851848851
 10
3919.63694995513
 20
1466.237361731204
 72
     4
 94
        3
 73
     0
 74
     0
 95
        8
 96
        4
 40
4.875002499912453
 40
4.875002499912453
 40
4.875002499912453
 40
4.875002499912453
 40
4.906251875000001
 40
4.906251875000001
 40
4.906251875000001
 40
4.906251875000001
 10
3919.63694995513
 20
1466.237361731204
 10
3919.63694995513
 20
1466.247871613631
 10
3919.63694995513
 20
1466.259951942265
 10
3919.63694995513
 20
1466.27348191652
 72
     4
 94
        3
 73
     0
 74
     0
 95
        8
 96
        4
 40
4.812503749999999
 40
4.812503749999999
 40
4.812503749999999
 40
4.812503749999999
 40
4.875002499912453
 40
4.875002499912453
 40
4.875002499912453
 40
4.875002499912453
 10
3919.63694995513
 20
1466.27348191652
 10
3919.63694995513
 20
1466.30054186492
 10
3919.63694995513
 20
1466.333400395763
 10
3919.63694995513
 20
1466.371091104429
 72
     4
 94
        3
 73
     0
 74
     0
 95
        8
 96
        4
 40
4.750005000000001
 40
4.750005000000001
 40
4.750005000000001
 40
4.750005000000001
 40
4.812503749999999
 40
4.812503749999999
 40
4.812503749999999
 40
4.812503749999999
 10
3919.63694995513
 20
1466.371091104429
 10
3919.63694995513
 20
1466.408781813137
 10
3919.63694995513
 20
1466.451304699675
 10
3919.63694995513
 20
1466.497693359403
 72
     4
 94
        3
 73
     0
 74
     0
 95
        8
 96
        4
 40
4.625007500000001
 40
4.625007500000001
 40
4.625007500000001
 40
4.625007500000001
 40
4.750005000000002
 40
4.750005000000002
 40
4.750005000000002
 40
4.750005000000002
 10
3919.63694995513
 20
1466.497693359403
 10
3919.63694995513
 20
1466.59047067885
 10
3919.63694995513
 20
1466.69871109104
 10
3919.63694995513
 20
1466.814683358866
 72
     4
 94
        3
 73
     0
 74
     0
 95
        8
 96
        4
 40
4.500009999999996
 40
4.500009999999996
 40
4.500009999999996
 40
4.500009999999996
 40
4.625007499999997
 40
4.625007499999997
 40
4.625007499999997
 40
4.625007499999997
 10
3919.63694995513
 20
1466.814683358866
 10
3919.63694995513
 20
1466.93065562669
 10
3919.63694995513
 20
1467.054359750136
 10
3919.63694995513
 20
1467.178064492099
 72
     4
 94
        3
 73
     0
 74
     0
 95
        8
 96
        4
 40
4.250014999999999
 40
4.250014999999999
 40
4.250014999999999
 40
4.250014999999999
 40
4.500009999999996
 40
4.500009999999996
 40
4.500009999999996
 40
4.500009999999996
 10
3919.63694995513
 20
1467.178064492099
 10
3919.63694995513
 20
1467.425473976025
 10
3919.63694995513
 20
1467.672885933991
 10
3919.63694995513
 20
1467.858450469073
 72
     4
 94
        3
 73
     0
 74
     0
 95
       11
 96
        7
 40
3.999287592773436
 40
3.999287592773436
 40
3.999287592773436
 40
3.999287592773436
 40
4.249302592773437
 40
4.249302592773437
 40
4.249302592773437
 40
4.250014999999999
 40
4.250014999999999
 40
4.250014999999999
 40
4.250014999999999
 10
3919.63694995513
 20
1467.858450469073
 10
3919.63694995513
 20
1468.044029849612
 10
3919.63694995513
 20
1468.167751911077
 10
3919.63694995513
 20
1468.167751911077
 10
3919.63694995513
 20
1468.167751911077
 10
3919.63695061396
 20
1468.167751911077
 10
3919.636951930681
 20
1468.167751911077
 72
     4
 94
        3
 73
     0
 74
     0
 95
        8
 96
        4
 40
3.906271874999998
 40
3.906271874999998
 40
3.906271874999998
 40
3.906271874999998
 40
3.937521249747056
 40
3.937521249747056
 40
3.937521249747056
 40
3.937521249747056
 10
3919.651518821509
 20
1468.167751911077
 10
3919.656271096971
 20
1468.167751911077
 10
3919.662132620381
 20
1468.167751911077
 10
3919.669024165158
 20
1468.167751911077
 72
     4
 94
        3
 73
     0
 74
     0
 95
        8
 96
        4
 40
3.875022499912441
 40
3.875022499912441
 40
3.875022499912441
 40
3.875022499912441
 40
3.906271874999998
 40
3.906271874999998
 40
3.906271874999998
 40
3.906271874999998
 10
3919.669024165158
 20
1468.167751911077
 10
3919.67591571003
 20
1468.167751911077
 10
3919.683837276302
 20
1468.167751911077
 10
3919.692709637419
 20
1468.167751911077
 72
     4
 94
        3
 73
     0
 74
     0
 95
        8
 96
        4
 40
3.81252375
 40
3.81252375
 40
3.81252375
 40
3.81252375
 40
3.875022499912441
 40
3.875022499912441
 40
3.875022499912441
 40
3.875022499912441
 10
3919.692709637419
 20
1468.167751911077
 10
3919.710454359571
 20
1468.167751911077
 10
3919.732002261059
 20
1468.167751911077
 10
3919.756719529389
 20
1468.167751911077
 72
     4
 94
        3
 73
     0
 74
     0
 95
        8
 96
        4
 40
3.750024999999998
 40
3.750024999999998
 40
3.750024999999998
 40
3.750024999999998
 40
3.81252375
 40
3.81252375
 40
3.81252375
 40
3.81252375
 10
3919.756719529389
 20
1468.167751911077
 10
3919.781436797752
 20
1468.167751911077
 10
3919.809323432939
 20
1468.167751911077
 10
3919.83974562244
 20
1468.167751911077
 72
     4
 94
        3
 73
     0
 74
     0
 95
        8
 96
        4
 40
3.6250275
 40
3.6250275
 40
3.6250275
 40
3.6250275
 40
3.750024999999998
 40
3.750024999999998
 40
3.750024999999998
 40
3.750024999999998
 10
3919.83974562244
 20
1468.167751911077
 10
3919.900590001449
 20
1468.167751911077
 10
3919.97157659772
 20
1468.167751911077
 10
3920.047634911069
 20
1468.167751911077
 72
     4
 94
        3
 73
     0
 74
     0
 95
        8
 96
        4
 40
3.50003
 40
3.50003
 40
3.50003
 40
3.50003
 40
3.6250275
 40
3.6250275
 40
3.6250275
 40
3.6250275
 10
3920.047634911069
 20
1468.167751911077
 10
3920.123693224431
 20
1468.167751911077
 10
3920.20482325489
 20
1468.167751911077
 10
3920.28595450229
 20
1468.167751911077
 72
     4
 94
        3
 73
     0
 74
     0
 95
        8
 96
        4
 40
3.250035
 40
3.250035
 40
3.250035
 40
3.250035
 40
3.50003
 40
3.50003
 40
3.50003
 40
3.50003
 10
3920.28595450229
 20
1468.167751911077
 10
3920.4482169971
 20
1468.167751911077
 10
3920.61048435969
 20
1468.167751911077
 10
3920.732192588818
 20
1468.167751911077
 72
     4
 94
        3
 73
     0
 74
     0
 95
       11
 96
        7
 40
2.0
 40
2.0
 40
2.0
 40
2.0
 40
2.250035
 40
2.250035
 40
2.250035
 40
3.250035
 40
3.250035
 40
3.250035
 40
3.250035
 10
3920.732192588818
 20
1468.167751911077
 10
3920.85392029164
 20
1468.167751911077
 10
3920.9350758808
 20
1468.167751911077
 10
3920.9350758808
 20
1468.167751911077
 10
3922.328913054318
 20
1468.160514233739
 10
3922.59536272103
 20
1469.114061520521
 10
3922.59536272103
 20
1469.749752288451
 97
        0
 92
       20
 93
       11
 72
     4
 94
        3
 73
     0
 74
     0
 95
        8
 96
        4
 40
3.250015000000001
 40
3.250015000000001
 40
3.250015000000001
 40
3.250015000000001
 40
3.500009999937033
 40
3.500009999937033
 40
3.500009999937033
 40
3.500009999937033
 10
3920.268911691501
 20
1470.609387928064
 10
3920.4269037054
 20
1470.609387928064
 10
3920.584897299179
 20
1470.609387928064
 10
3920.703396049279
 20
1470.609387928064
 72
     4
 94
        3
 73
     0
 74
     0
 95
       11
 96
        7
 40
2.0
 40
2.0
 40
2.0
 40
2.0
 40
2.250015
 40
2.250015
 40
2.250015
 40
3.250015
 40
3.250015
 40
3.250015
 40
3.250015
 10
3920.703396049279
 20
1470.609387928064
 10
3920.821904279499
 20
1470.609387928064
 10
3920.90091134646
 20
1470.609387928064
 10
3920.90091134646
 20
1470.609387928064
 10
3921.35187477447
 20
1470.609387928064
 10
3921.741291488951
 20
1470.435995448852
 10
3921.741291488951
 20
1469.756967696011
 72
     4
 94
        3
 73
     0
 74
     0
 95
        8
 96
        4
 40
1.0
 40
1.0
 40
1.0
 40
1.0
 40
2.0
 40
2.0
 40
2.0
 40
2.0
 10
3921.741291488951
 20
1469.756967696011
 10
3921.741291488951
 20
1469.106846112959
 10
3921.269854616189
 20
1468.904569733733
 10
3920.887262383289
 20
1468.904569733733
 72
     4
 94
        3
 73
     0
 74
     0
 95
       11
 96
        7
 40
4.49999
 40
4.49999
 40
4.49999
 40
4.49999
 40
5.49999
 40
5.49999
 40
5.49999
 40
6.0
 40
6.0
 40
6.0
 40
6.0
 10
3920.887262383289
 20
1468.904569733733
 10
3920.887262383289
 20
1468.904569733733
 10
3919.63694995513
 20
1468.904569733733
 10
3919.63694995513
 20
1468.904569733733
 10
3919.63694995513
 20
1468.904569733733
 10
3919.63694995513
 20
1469.330791330672
 10
3919.63694995513
 20
1469.757004403173
 72
     4
 94
        3
 73
     0
 74
     0
 95
       11
 96
        7
 40
3.999267592773436
 40
3.999267592773436
 40
3.999267592773436
 40
3.999267592773436
 40
4.499257592773438
 40
4.499257592773438
 40
4.499257592773438
 40
4.49999
 40
4.49999
 40
4.49999
 40
4.49999
 10
3919.63694995513
 20
1469.757004403173
 10
3919.63694995513
 20
1470.183200427494
 10
3919.63694995513
 20
1470.609387928064
 10
3919.63694995513
 20
1470.609387928064
 10
3919.63694995513
 20
1470.609387928064
 10
3919.636950633149
 20
1470.609387928064
 10
3919.636951988181
 20
1470.609387928064
 72
     4
 94
        3
 73
     0
 74
     0
 95
        8
 96
        4
 40
3.906251875
 40
3.906251875
 40
3.906251875
 40
3.906251875
 40
3.937501249746713
 40
3.937501249746713
 40
3.937501249746713
 40
3.937501249746713
 10
3919.651144278702
 20
1470.609387928064
 10
3919.655772864561
 20
1470.609387928064
 10
3919.66148145544
 20
1470.609387928064
 10
3919.668192909862
 20
1470.609387928064
 72
     4
 94
        3
 73
     0
 74
     0
 95
        8
 96
        4
 40
3.8750025
 40
3.8750025
 40
3.8750025
 40
3.8750025
 40
3.906251875
 40
3.906251875
 40
3.906251875
 40
3.906251875
 10
3919.668192909862
 20
1470.609387928064
 10
3919.674904364309
 20
1470.609387928064
 10
3919.682618682339
 20
1470.609387928064
 10
3919.6912587225
 20
1470.609387928064
 72
     4
 94
        3
 73
     0
 74
     0
 95
        8
 96
        4
 40
3.812503749999999
 40
3.812503749999999
 40
3.812503749999999
 40
3.812503749999999
 40
3.8750025
 40
3.8750025
 40
3.8750025
 40
3.8750025
 10
3919.6912587225
 20
1470.609387928064
 10
3919.70853880279
 20
1470.609387928064
 10
3919.72952177154
 20
1470.609387928064
 10
3919.753590497131
 20
1470.609387928064
 72
     4
 94
        3
 73
     0
 74
     0
 95
        8
 96
        4
 40
3.750004999953268
 40
3.750004999953268
 40
3.750004999953268
 40
3.750004999953268
 40
3.812503749999999
 40
3.812503749999999
 40
3.812503749999999
 40
3.812503749999999
 10
3919.753590497131
 20
1470.609387928064
 10
3919.777659222739
 20
1470.609387928064
 10
3919.804813705191
 20
1470.609387928064
 10
3919.834436812859
 20
1470.609387928064
 72
     4
 94
        3
 73
     0
 74
     0
 95
        8
 96
        4
 40
3.625007499999998
 40
3.625007499999998
 40
3.625007499999998
 40
3.625007499999998
 40
3.750004999953268
 40
3.750004999953268
 40
3.750004999953268
 40
3.750004999953268
 10
3919.834436812859
 20
1470.609387928064
 10
3919.89368302813
 20
1470.609387928064
 10
3919.962803744251
 20
1470.609387928064
 10
3920.03686190831
 20
1470.609387928064
 72
     4
 94
        3
 73
     0
 74
     0
 95
        8
 96
        4
 40
3.500009999937033
 40
3.500009999937033
 40
3.500009999937033
 40
3.500009999937033
 40
3.625007499999998
 40
3.625007499999998
 40
3.625007499999998
 40
3.625007499999998
 10
3920.03686190831
 20
1470.609387928064
 10
3920.11092007243
 20
1470.609387928064
 10
3920.18991568448
 20
1470.609387928064
 10
3920.268911691501
 20
1470.609387928064
 97
        0
 92
        7
 72
     0
 73
     1
 93
        8
 10
3926.899040888601
 20
1471.346205750718
 10
3922.964312785151
 20
1471.346205750718
 10
3922.964312785151
 20
1470.566028673376
 10
3924.502821064338
 20
1470.566028673376
 10
3924.502821064338
 20
1466.188436452585
 10
3925.353733036609
 20
1466.188436452585
 10
3925.353733036609
 20
1470.566028673376
 10
3926.899040888601
 20
1470.566028673376
 97
        0
 92
        7
 72
     0
 73
     1
 93
        4
 10
3928.127955809131
 20
1471.346205750718
 10
3927.267715365868
 20
1471.346205750718
 10
3927.267715365868
 20
1466.188436452585
 10
3928.127955809131
 20
1466.188436452585
 97
        0
 92
        5
 93
        9
 72
     4
 94
        3
 73
     0
 74
     0
 95
       11
 96
        7
 40
8.0
 40
8.0
 40
8.0
 40
8.0
 40
8.5
 40
8.5
 40
8.5
 40
9.5
 40
9.5
 40
9.5
 40
9.5
 10
3932.485864549479
 20
1469.663732018319
 10
3932.699874007751
 20
1469.663732018319
 10
3932.913883466039
 20
1469.663732018319
 10
3932.913883466039
 20
1469.663732018319
 10
3932.811148791931
 20
1470.725611942441
 10
3931.941387666961
 20
1471.339318294605
 10
3930.838795061118
 20
1471.346205750718
 72
     4
 94
        3
 73
     0
 74
     0
 95
        8
 96
        4
 40
7.0
 40
7.0
 40
7.0
 40
7.0
 40
8.0
 40
8.0
 40
8.0
 40
8.0
 10
3930.838795061118
 20
1471.346205750718
 10
3929.3732319421
 20
1471.346205750718
 10
3928.49663028397
 20
1470.17397772566
 10
3928.49663028397
 20
1468.767321101654
 72
     4
 94
        3
 73
     0
 74
     0
 95
        8
 96
        4
 40
6.0
 40
6.0
 40
6.0
 40
6.0
 40
7.0
 40
7.0
 40
7.0
 40
7.0
 10
3928.49663028397
 20
1468.767321101654
 10
3928.49663028397
 20
1467.360643220061
 10
3929.3732319421
 20
1466.188436452585
 10
3930.838795061118
 20
1466.188436452585
 72
     4
 94
        3
 73
     0
 74
     0
 95
        8
 96
        4
 40
5.0
 40
5.0
 40
5.0
 40
5.0
 40
6.0
 40
6.0
 40
6.0
 40
6.0
 10
3930.838795061118
 20
1466.188436452585
 10
3932.02360074155
 20
1466.188436452585
 10
3932.852234216469
 20
1467.002091607946
 10
3932.920723999202
 20
1468.181207089121
 72
     4
 94
        3
 73
     0
 74
     0
 95
       11
 96
        7
 40
3.0
 40
3.0
 40
3.0
 40
3.0
 40
4.0
 40
4.0
 40
4.0
 40
5.0
 40
5.0
 40
5.0
 40
5.0
 10
3932.920723999202
 20
1468.181207089121
 10
3932.920723999202
 20
1468.181207089121
 10
3932.0852077656
 20
1468.181207089121
 10
3932.0852077656
 20
1468.181207089121
 10
3932.016760208388
 20
1467.464082607304
 10
3931.598980978818
 20
1466.891764764588
 10
3930.838795061118
 20
1466.891764764588
 72
     4
 94
        3
 73
     0
 74
     0
 95
        8
 96
        4
 40
2.0
 40
2.0
 40
2.0
 40
2.0
 40
3.0
 40
3.0
 40
3.0
 40
3.0
 10
3930.838795061118
 20
1466.891764764588
 10
3929.791011171671
 20
1466.891764764588
 10
3929.35271034259
 20
1467.822634219426
 10
3929.35271034259
 20
1468.767321101654
 72
     4
 94
        3
 73
     0
 74
     0
 95
        8
 96
        4
 40
1.0
 40
1.0
 40
1.0
 40
1.0
 40
2.0
 40
2.0
 40
2.0
 40
2.0
 10
3929.35271034259
 20
1468.767321101654
 10
3929.35271034259
 20
1469.711986726305
 10
3929.791011171671
 20
1470.642877438714
 10
3930.838795061118
 20
1470.642877438714
 72
     4
 94
        3
 73
     0
 74
     0
 95
        8
 96
        4
 40
0.0
 40
0.0
 40
0.0
 40
0.0
 40
1.0
 40
1.0
 40
1.0
 40
1.0
 10
3930.838795061118
 20
1470.642877438714
 10
3931.551055021112
 20
1470.642877438714
 10
3931.91402553429
 20
1470.229141147334
 10
3932.057845632921
 20
1469.663732018319
 72
     4
 94
        3
 73
     0
 74
     0
 95
        8
 96
        4
 40
9.5
 40
9.5
 40
9.5
 40
9.5
 40
10.0
 40
10.0
 40
10.0
 40
10.0
 10
3932.057845632921
 20
1469.663732018319
 10
3932.057845632921
 20
1469.663732018319
 10
3932.271855091202
 20
1469.663732018319
 10
3932.485864549479
 20
1469.663732018319
 97
        0
 92
        5
 93
       15
 72
     4
 94
        3
 73
     0
 74
     0
 95
        8
 96
        4
 40
13.0
 40
13.0
 40
13.0
 40
13.0
 40
14.0
 40
14.0
 40
14.0
 40
14.0
 10
3935.36589273314
 20
1466.188436452585
 10
3936.35537670404
 20
1466.188436452585
 10
3937.34481771179
 20
1466.629743826011
 10
3937.34481771179
 20
1467.733012259576
 72
     4
 94
        3
 73
     0
 74
     0
 95
        8
 96
        4
 40
12.0
 40
12.0
 40
12.0
 40
12.0
 40
13.0
 40
13.0
 40
13.0
 40
13.0
 10
3937.34481771179
 20
1467.733012259576
 10
3937.34481771179
 20
1468.243257966919
 10
3937.031272749819
 20
1468.794892183702
 10
3936.37625678783
 20
1468.987974788362
 72
     4
 94
        3
 73
     0
 74
     0
 95
        8
 96
        4
 40
11.0
 40
11.0
 40
11.0
 40
11.0
 40
12.0
 40
12.0
 40
12.0
 40
12.0
 10
3936.37625678783
 20
1468.987974788362
 10
3936.118435012419
 20
1469.063821835975
 10
3935.01750466836
 20
1469.346526400485
 10
3934.940858434852
 20
1469.367210026417
 72
     4
 94
        3
 73
     0
 74
     0
 95
        8
 96
        4
 40
10.0
 40
10.0
 40
10.0
 40
10.0
 40
11.0
 40
11.0
 40
11.0
 40
11.0
 10
3934.940858434852
 20
1469.367210026417
 10
3934.58546737899
 20
1469.463761957538
 10
3934.348568650511
 20
1469.656823304623
 10
3934.348568650511
 20
1470.001600004507
 72
     4
 94
        3
 73
     0
 74
     0
 95
        8
 96
        4
 40
9.0
 40
9.0
 40
9.0
 40
9.0
 40
10.0
 40
10.0
 40
10.0
 40
10.0
 10
3934.348568650511
 20
1470.001600004507
 10
3934.348568650511
 20
1470.498070799614
 10
3934.857209210268
 20
1470.642877438714
 10
3935.261363424769
 20
1470.642877438714
 72
     4
 94
        3
 73
     0
 74
     0
 95
        8
 96
        4
 40
8.0
 40
8.0
 40
8.0
 40
8.0
 40
9.0
 40
9.0
 40
9.0
 40
9.0
 10
3935.261363424769
 20
1470.642877438714
 10
3935.860613237019
 20
1470.642877438714
 10
3936.29265052639
 20
1470.408427582184
 10
3936.33445365711
 20
1469.774058861675
 72
     4
 94
        3
 73
     0
 74
     0
 95
       11
 96
        7
 40
6.0
 40
6.0
 40
6.0
 40
6.0
 40
7.0
 40
7.0
 40
7.0
 40
8.0
 40
8.0
 40
8.0
 40
8.0
 10
3936.33445365711
 20
1469.774058861675
 10
3936.33445365711
 20
1469.774058861675
 10
3937.205488263759
 20
1469.774058861675
 10
3937.205488263759
 20
1469.774058861675
 10
3937.205488263759
 20
1470.801458990048
 10
3936.33445365711
 20
1471.346205750718
 10
3935.296206527561
 20
1471.346205750718
 72
     4
 94
        3
 73
     0
 74
     0
 95
        8
 96
        4
 40
5.0
 40
5.0
 40
5.0
 40
5.0
 40
6.0
 40
6.0
 40
6.0
 40
6.0
 10
3935.296206527561
 20
1471.346205750718
 10
3934.397331809171
 20
1471.346205750718
 10
3933.47753404387
 20
1470.884214751361
 10
3933.47753404387
 20
1469.898160617268
 72
     4
 94
        3
 73
     0
 74
     0
 95
        8
 96
        4
 40
4.0
 40
4.0
 40
4.0
 40
4.0
 40
5.0
 40
5.0
 40
5.0
 40
5.0
 10
3933.47753404387
 20
1469.898160617268
 10
3933.47753404387
 20
1469.387914909928
 10
3933.72839579133
 20
1468.877647945006
 10
3934.578507351069
 20
1468.650106802175
 72
     4
 94
        3
 73
     0
 74
     0
 95
        8
 96
        4
 40
3.0
 40
3.0
 40
3.0
 40
3.0
 40
4.0
 40
4.0
 40
4.0
 40
4.0
 10
3934.578507351069
 20
1468.650106802175
 10
3935.261363424769
 20
1468.463911653635
 10
3935.71428079792
 20
1468.374268436206
 10
3936.06271182584
 20
1468.243257966919
 72
     4
 94
        3
 73
     0
 74
     0
 95
        8
 96
        4
 40
2.0
 40
2.0
 40
2.0
 40
2.0
 40
3.0
 40
3.0
 40
3.0
 40
3.0
 10
3936.06271182584
 20
1468.243257966919
 10
3936.264767451531
 20
1468.167410919308
 10
3936.473826068268
 20
1468.015716824086
 10
3936.473826068268
 20
1467.636460328456
 72
     4
 94
        3
 73
     0
 74
     0
 95
        8
 96
        4
 40
1.0
 40
1.0
 40
1.0
 40
1.0
 40
2.0
 40
2.0
 40
2.0
 40
2.0
 10
3936.473826068268
 20
1467.636460328456
 10
3936.473826068268
 20
1467.264112546522
 10
3936.18812121802
 20
1466.891764764588
 10
3935.421658882868
 20
1466.891764764588
 72
     4
 94
        3
 73
     0
 74
     0
 95
        8
 96
        4
 40
0.0
 40
0.0
 40
0.0
 40
0.0
 40
1.0
 40
1.0
 40
1.0
 40
1.0
 10
3935.421658882868
 20
1466.891764764588
 10
3934.724839790168
 20
1466.891764764588
 10
3934.160433080688
 20
1467.188265498913
 10
3934.160433080688
 20
1467.946757232597
 72
     4
 94
        3
 73
     0
 74
     0
 95
        8
 96
        4
 40
15.5
 40
15.5
 40
15.5
 40
15.5
 40
16.0
 40
16.0
 40
16.0
 40
16.0
 10
3934.160433080688
 20
1467.946757232597
 10
3934.160433080688
 20
1467.946757232597
 10
3933.942674429031
 20
1467.946757232597
 10
3933.724915777368
 20
1467.946757232597
 72
     4
 94
        3
 73
     0
 74
     0
 95
       11
 96
        7
 40
14.0
 40
14.0
 40
14.0
 40
14.0
 40
14.5
 40
14.5
 40
14.5
 40
15.5
 40
15.5
 40
15.5
 40
15.5
 10
3933.724915777368
 20
1467.946757232597
 10
3933.507157125711
 20
1467.946757232597
 10
3933.289398474041
 20
1467.946757232597
 10
3933.289398474041
 20
1467.946757232597
 10
3933.31032152098
 20
1466.726274499555
 10
3934.23007632314
 20
1466.188436452585
 10
3935.36589273314
 20
1466.188436452585
 97
        0
 75
     1
 76
     1
 47
0.0244899890509677
 98
       14
 10
3894.816129418802
 20
1472.149022517932
 10
3894.816129418802
 20
1472.149022517932
 10
3894.816129418802
 20
1472.149022517932
 10
3894.816129418802
 20
1472.149022517932
 10
3905.739465945901
 20
1470.866726366025
 10
3908.94169858647
 20
1470.096270694365
 10
3916.087415750601
 20
1471.074157040038
 10
3916.087415750601
 20
1471.074157040038
 10
3920.534960913689
 20
1471.074157040038
 10
3920.534960913689
 20
1471.074157040038
 10
3925.338308335221
 20
1471.014891580196
 10
3927.828930301619
 20
1470.422233852629
 10
3931.149764721219
 20
1470.925991825866
 10
3934.826401399251
 20
1466.658856813218
1001
GRADIENTCOLOR1ACI
1070
     5
1001
GRADIENTCOLOR2ACI
1070
     2
1001
ACAD
1010
0.0
1020
0.0
1030
0.0
  0
MTEXT
  5
6D0
330
1F
100
AcDbEntity
  8
6文字层
100
AcDbMText
 10
3927.48588985445
 20
1448.328045800841
 30
0.0
 40
2.5
 41
17.84855769230755
 71
     5
 72
     5
  1
{\fSimHei|b1|i0|c134|p49;270642}
1001
ACDBBLOCKREPETAG
1000

1001
ACAD
1000
ACAD_MTEXT_DEFINED_HEIGHT_BEGIN
1070
    46
1040
4.283653846153733
1000
ACAD_MTEXT_DEFINED_HEIGHT_END
  0
MTEXT
  5
6D1
330
1F
100
AcDbEntity
  8
6文字层
100
AcDbMText
 10
3955.1205309281
 20
1456.474142387294
 30
0.0
 40
2.5
 41
71.44564321082993
 71
     5
 72
     5
  1
{\fSimHei|b1|i0|c134|p49;K9偏心平凹球面反射镜 未镀膜^J25.00X20.00mm F=500.00mm}
1001
ACDBBLOCKREPETAG
1000

1001
ACAD
1000
ACAD_MTEXT_DEFINED_HEIGHT_BEGIN
1070
    46
1040
4.283653846153733
1000
ACAD_MTEXT_DEFINED_HEIGHT_END
  0
LINE
  5
6D2
330
1F
100
AcDbEntity
  8
6文字层
 62
     0
100
AcDbLine
 10
3856.52724455577
 20
1445.338705341909
 30
0.0
 11
3736.52724455571
 21
1445.338705341907
 31
0.0
  0
MTEXT
  5
6D3
102
{ACAD_XDICTIONARY
360
6D4
102
}
330
1F
100
AcDbEntity
  8
6文字层
100
AcDbMText
 10
3730.569844552998
 20
1506.202892122962
 30
0.0
 40
2.5
 41
114.6703060300538
 71
     1
 72
     5
  1
{\fSimSun|b1|i0|c134|p49;\C1;注：}\P{\fSimSun|b1|i0|c134|p49;\C1;1：本图仅供参考,禁止使用本图加工生产.}\P{\fSimSun|b1|i0|c134|p49;\C1;2：图纸细节如有更改不再另行通知.}
  7
标准
1001
ACAD
1000
ACAD_MTEXT_COLUMN_INFO_BEGIN
1070
    75
1070
     2
1070
    79
1070
     0
1070
    76
1070
     1
1070
    78
1070
     0
1070
    48
1040
114.6703060300538
1070
    49
1040
1.0
1070
    50
1070
     1
1040
-12.28937728937729
1000
ACAD_MTEXT_COLUMN_INFO_END
  0
INSERT
  5
6D5
330
1F
100
AcDbEntity
  8
2细线层
100
AcDbBlockReference
  2
*T22
 10
3719.527243825911
 20
1477.005371754904
 30
0.0
  0
MTEXT
  5
6D6
330
1F
100
AcDbEntity
  8
6文字层
100
AcDbMText
 10
3735.651262723927
 20
1599.089826873115
 30
0.0
 40
2.5
 41
73.0012707428877
 71
     1
 72
     1
  3
{\fSimSun|b1|i0|c134|p34;\W1;注释：\fSimSun|b1|i0|c0|p34; \P1.\fSimSun|b1|i0|c134|p34;材料：精退火\fSimSun|b1|i0|c0|p34;K9\fSimSun|b1|i0|c134|p34;光学玻璃\fSimSun|b1|i0|c0|p34; Nd=1.5168                                                \P2.\fSimSun|b1
  3
|i0|c134|p34;表面面型：\fSimSun|b1|i0|c0|p34;\U+03BB/4 @ 633 nm            \P3.\fSimSun|b1|i0|c134|p34;焦距：500\fSimSun|b1|i0|c0|p34;.00\U+00B12%mm \P4.\fSimSun|b1|i0|c134|p34;镀膜：\A1;未镀膜\A0;   \P\fSimSun|b1|i0|c0|p34;5.\fSimSun|b1|i0|c134|p34
  1
;倒边：\fSimSun|b1|i0|c0|p34;0.2~0.5mmX45\U+00B0}
  7
TH-GBD2M
1001
ACAD
1000
ACAD_MTEXT_DEFINED_HEIGHT_BEGIN
1070
    46
1040
26.01190476190477
1000
ACAD_MTEXT_DEFINED_HEIGHT_END
  0
LINE
  5
911
330
1F
100
AcDbEntity
  8
3中心线层
100
AcDbLine
 10
3846.817553311374
 20
1572.677365570292
 30
0.0
 11
3952.803443960455
 21
1572.677365570292
 31
0.0
  0
LINE
  5
912
102
{ACAD_REACTORS
330
93D
102
}
330
1F
100
AcDbEntity
  8
3中心线层
100
AcDbLine
 10
3874.873835447433
 20
1588.084315333217
 30
0.0
 11
3874.873835447433
 21
1511.562076089662
 31
0.0
  0
LINE
  5
913
102
{ACAD_REACTORS
330
965
102
}
330
1F
100
AcDbEntity
  8
1轮廓实线层
100
AcDbLine
 10
3864.877232826046
 20
1560.177365570292
 30
0.0
 11
3864.877232826046
 21
1585.177365570292
 31
0.0
  0
LINE
  5
914
102
{ACAD_REACTORS
330
93C
102
}
330
1F
100
AcDbEntity
  8
1轮廓实线层
100
AcDbLine
 10
3864.877232826046
 20
1585.177365570292
 30
0.0
 11
3884.877232826046
 21
1585.177365570292
 31
0.0
  0
LINE
  5
915
102
{ACAD_REACTORS
330
93E
102
}
330
1F
100
AcDbEntity
  8
1轮廓实线层
100
AcDbLine
 10
3884.877232826046
 20
1585.177365570292
 30
0.0
 11
3884.877232826046
 21
1560.177365570292
 31
0.0
  0
DIMENSION
  5
916
330
1F
100
AcDbEntity
  8
7标注层
100
AcDbDimension
  2
*D41
 10
3884.877232826046
 20
1592.780135325656
 30
0.0
 11
3895.255140518354
 21
1592.780135325656
 31
0.0
 70
   160
  1
<>{}{\H0.71x;\C3;\S 0.00^ -0.10;}
  3
透镜标注
100
AcDbAlignedDimension
 13
3864.877232826046
 23
1585.177365570292
 33
0.0
 14
3884.877232826046
 24
1585.177365570292
 34
0.0
100
AcDbRotatedDimension
1001
GENIUS_GENDTOL_13
1000
TolSmNrm
1000

1000
{\H0.71x;$2\S$+$P^ $-$M;}
1040
50.0
1001
ACAD_DSTYLE_DIMINSPECT
1070
   396
1000
100%
1070
   395
1000

1070
   394
1070
    33
1070
   393
1070
     0
1001
ACAD
1000
DSTYLE
1002
{
1070
    48
1040
0.1
1070
   288
1070
     1
1002
}
  0
DIMENSION
  5
917
330
1F
100
AcDbEntity
  8
7标注层
100
AcDbDimension
  2
*D42
 10
3860.24074447429
 20
1585.177365570293
 30
0.0
 11
3860.24074447429
 21
1572.677365570292
 31
0.0
 70
   160
  1
<>{}{\H0.71x;\C3;\S 0.00^ -0.10;}
  3
透镜标注
100
AcDbAlignedDimension
 13
3864.877232826046
 23
1560.177365570292
 33
0.0
 14
3864.877232826046
 24
1585.177365570292
 34
0.0
 50
90.0
100
AcDbRotatedDimension
1001
GENIUS_GENDTOL_13
1000
TolSmNrm
1000

1000
{\H0.71x;$2\S$+$P^ $-$M;}
1040
50.0
1001
ACAD_DSTYLE_DIMINSPECT
1070
   396
1000
100%
1070
   395
1000

1070
   394
1070
    33
1070
   393
1070
     0
1001
ACAD
1000
DSTYLE
1002
{
1070
    48
1040
0.1
1070
   288
1070
     1
1002
}
  0
LINE
  5
918
102
{ACAD_REACTORS
330
962
102
}
330
1F
100
AcDbEntity
  8
1轮廓实线层
100
AcDbLine
 10
3864.877232826046
 20
1560.177365570292
 30
0.0
 11
3884.877232826046
 21
1560.177365570292
 31
0.0
  0
DIMENSION
  5
919
330
1F
100
AcDbEntity
  8
7标注层
100
AcDbDimension
  2
*D43
 10
3849.983443669883
 20
1519.959131282397
 30
0.0
 11
3849.983443669883
 21
1507.046823590088
 31
0.0
 70
   160
  3
TH-GBD2M
100
AcDbAlignedDimension
 13
3865.247027758029
 23
1529.269131282396
 33
0.0
 14
3865.230550703769
 24
1519.959131282397
 34
0.0
 50
90.0
100
AcDbRotatedDimension
  0
LINE
  5
91A
102
{ACAD_REACTORS
330
95D
102
}
330
1F
100
AcDbEntity
  8
7标注层
 62
     0
100
AcDbLine
 10
3865.242173656068
 20
1529.269131282396
 30
0.0
 11
3865.242173656068
 21
1519.959131282396
 31
0.0
  0
LINE
  5
91B
102
{ACAD_REACTORS
330
950
102
}
330
1F
100
AcDbEntity
  8
0
100
AcDbLine
 10
3885.242173656068
 20
1529.269131282396
 30
0.0
 11
3885.242173656068
 21
1520.259188383338
 31
0.0
  0
LINE
  5
91C
102
{ACAD_REACTORS
330
94E
102
}
330
1F
100
AcDbEntity
  8
0
100
AcDbLine
 10
3865.242173656068
 20
1529.269131282396
 30
0.0
 11
3885.242173656068
 21
1529.269131282396
 31
0.0
  0
ARC
  5
91D
102
{ACAD_REACTORS
330
93B
102
}
330
1F
100
AcDbEntity
  8
0
100
AcDbCircle
 10
3890.242590278475
 20
520.2716905446894
 30
0.0
 40
1000.0
100
AcDbArc
 50
90.2865039622449
 51
91.43256761573528
  0
DIMENSION
  5
91E
330
1F
100
AcDbEntity
  8
7标注层
100
AcDbDimension
  2
*D44
 10
3883.682537016777
 20
1520.259192956006
 30
0.0
 11
3883.682537016777
 21
1508.11457757139
 31
0.0
 70
   160
  3
TH-GBD2M
100
AcDbAlignedDimension
 13
3885.248418400915
 23
1529.269131282396
 33
0.0
 14
3885.251000704716
 24
1520.259192956006
 34
0.0
 50
90.0
100
AcDbRotatedDimension
  0
ARC
  5
91F
102
{ACAD_REACTORS
330
956
102
}
330
1F
100
AcDbEntity
  8
0
  6
CENTER
100
AcDbCircle
 10
3890.242173656068
 20
520.2716801257858
 30
0.0
 40
1000.0
100
AcDbArc
 50
88.5674562624335
 51
91.43254373756652
  0
LINE
  5
920
102
{ACAD_REACTORS
330
945
102
}
330
1F
100
AcDbEntity
  8
3中心线层
100
AcDbLine
 10
3890.230550703769
 20
1533.847273704235
 30
0.0
 11
3890.230550703769
 21
1509.854286704231
 31
0.0
  0
DIMENSION
  5
921
330
1F
100
AcDbEntity
  8
7标注层
100
AcDbDimension
  2
*D45
 10
3890.230550703769
 20
1542.75963766788
 30
0.0
 11
3903.339382620631
 21
1542.75963766788
 31
0.0
 70
   160
  3
TH-GBD2M
100
AcDbAlignedDimension
 13
3885.230550703769
 23
1531.059131282397
 33
0.0
 14
3890.230550703769
 24
1531.110374270347
 34
0.0
100
AcDbRotatedDimension
  0
LINE
  5
922
102
{ACAD_REACTORS
330
952
102
}
330
1F
100
AcDbEntity
  8
0
100
AcDbLine
 10
3865.242173656068
 20
1519.959131282396
 30
0.0
 11
3915.242173656068
 21
1519.959131282396
 31
0.0
  0
LINE
  5
923
330
1F
100
AcDbEntity
  8
3中心线层
100
AcDbLine
 10
3911.758789176189
 20
1572.677365570292
 30
0.0
 11
3943.092249157588
 21
1572.677365570292
 31
0.0
  0
LINE
  5
924
330
1F
100
AcDbEntity
  8
3中心线层
100
AcDbLine
 10
3914.641506736057
 20
1572.677365570291
 30
0.0
 11
3945.974966717455
 21
1572.677365570291
 31
0.0
  0
LEADER
  5
925
330
1F
100
AcDbEntity
  8
7标注层
100
AcDbLeader
  3
TH-GBD2M
 76
     3
 10
3935.87019240607
 20
1572.689145462839
 30
0.0
 10
3940.43610659293
 20
1581.489629794809
 30
0.0
 10
3945.461418582246
 20
1581.489629794809
 30
0.0
1001
ACAD
1000
DSTYLE
1002
{
1070
     5
1000

1070
   340
1005
2F1
1070
   147
1040
1.5
1070
    77
1070
     0
1002
}
  0
MTEXT
  5
926
330
1F
100
AcDbEntity
  8
7标注层
 62
     3
100
AcDbMText
 10
3943.002145418092
 20
1584.185268099664
 30
0.0
 40
2.5
 41
0.0
 71
     5
 72
     1
  1
\A1;S2
  7
TH-GBD2M
  0
LEADER
  5
927
330
1F
100
AcDbEntity
  8
7标注层
100
AcDbLeader
  3
TH-GBD2M
 76
     3
 10
3926.856462649222
 20
1572.67736524087
 30
0.0
 10
3922.290548462362
 20
1581.47784957284
 30
0.0
 10
3917.265236473046
 20
1581.47784957284
 30
0.0
211
-1.0
221
0.0
231
0.0
1001
ACAD
1000
DSTYLE
1002
{
1070
     5
1000

1070
   340
1005
2F1
1070
   147
1040
1.5
1070
    77
1070
     0
1002
}
  0
MTEXT
  5
928
330
1F
100
AcDbEntity
  8
7标注层
 62
     3
100
AcDbMText
 10
3919.559843405657
 20
1585.095596288605
 30
0.0
 40
2.5
 41
0.0
 71
     5
 72
     1
  1
\A1;S1
  7
TH-GBD2M
  0
LINE
  5
929
102
{ACAD_REACTORS
330
951
102
}
330
1F
100
AcDbEntity
  8
1轮廓实线层
100
AcDbLine
 10
3926.856462478308
 20
1585.177365570245
 30
0.0
 11
3926.856462478308
 21
1560.177365570245
 31
0.0
  0
ARC
  5
92A
102
{ACAD_REACTORS
330
955
102
}
330
1F
100
AcDbEntity
  8
1轮廓实线层
100
AcDbCircle
 10
4535.856462478308
 20
1572.677365570245
 30
0.0
 40
600.0
100
AcDbArc
 50
178.8062515628589
 51
181.1937484371411
  0
DIMENSION
  5
92B
330
1F
100
AcDbEntity
  8
7标注层
100
AcDbDimension
  2
*D46
 10
3935.856531801565
 20
1592.470983622693
 30
0.0
 11
3951.609608724642
 21
1592.470983622693
 31
0.0
 70
   160
  1
<>%%p0.20
  3
TH-GBD2M
100
AcDbAlignedDimension
 13
3926.856462478309
 23
1572.677365570291
 33
0.0
 14
3935.856531801565
 24
1572.677365570291
 34
0.0
100
AcDbRotatedDimension
1001
ACAD_DSTYLE_DIMINSPECT
1070
   396
1000
100%
1070
   395
1000

1070
   394
1070
    33
1070
   393
1070
     0
  0
DIMENSION
  5
92C
330
1F
100
AcDbEntity
  8
7标注层
100
AcDbDimension
  2
*D47
 10
3935.986684943218
 20
1555.072846795478
 30
0.0
 11
3931.421573710764
 21
1555.072846795478
 31
0.0
 70
   160
  3
TH-GBD2M
100
AcDbAlignedDimension
 13
3926.856462478309
 23
1560.177365570291
 33
0.0
 14
3935.986684943218
 24
1560.177365570291
 34
0.0
100
AcDbRotatedDimension
  0
LINE
  5
92D
102
{ACAD_REACTORS
330
957
102
}
330
1F
100
AcDbEntity
  8
1轮廓实线层
100
AcDbLine
 10
3926.856462478308
 20
1560.177365570245
 30
0.0
 11
3935.986684943217
 21
1560.177365570245
 31
0.0
  0
LINE
  5
92E
102
{ACAD_REACTORS
330
954
102
}
330
1F
100
AcDbEntity
  8
1轮廓实线层
100
AcDbLine
 10
3926.856462478308
 20
1585.177365570245
 30
0.0
 11
3935.986684943217
 21
1585.177365570245
 31
0.0
  0
DIMENSION
  5
92F
102
{ACAD_REACTORS
330
95E
102
}
102
{ACAD_XDICTIONARY
360
A99
102
}
330
1F
100
AcDbEntity
  8
ADSK_CONSTRAINTS
 60
     1
100
AcDbDimension
 10
3865.242173656068
 20
1542.700045251051
 30
0.0
 11
3865.242173656068
 21
1542.700045251051
 31
0.0
 70
   128
  1
d2=20
  3
ISO-25
100
AcDbAlignedDimension
 13
3885.242173656068
 23
1524.764159832867
 33
0.0
 14
3865.242173656068
 24
1524.614131282396
 34
0.0
100
AcDbRotatedDimension
  0
DIMENSION
  5
930
102
{ACAD_REACTORS
330
949
102
}
102
{ACAD_XDICTIONARY
360
A9B
102
}
330
1F
100
AcDbEntity
  8
ADSK_CONSTRAINTS
 60
     1
100
AcDbDimension
 10
3890.242590278466
 20
520.2716905452984
 30
0.0
 11
3905.571918430312
 21
1513.376827826933
 31
0.0
 70
   132
  1
半径1=1000
  3
ISO-25
100
AcDbRadialDimension
 15
3905.676507293191
 25
1520.152580553885
 35
0.0
 40
0.0
1001
ACAD
1000
DSTYLE
1002
{
1070
   288
1070
     1
1002
}
1001
ACAD_DSTYLE_DIMRADIAL_EXTE
1070
   387
1070
     1
1070
   388
1040
0.6462361007784128
1070
   390
1040
2.510730858992122
  0
DIMENSION
  5
931
102
{ACAD_REACTORS
330
94B
102
}
102
{ACAD_XDICTIONARY
360
A9D
102
}
330
1F
100
AcDbEntity
  8
ADSK_CONSTRAINTS
 60
     1
100
AcDbDimension
 10
3884.877232826045
 20
1579.468335406627
 30
0.0
 11
3884.877232826045
 21
1579.468335406627
 31
0.0
 70
   128
  1
d1=20
  3
ISO-25
100
AcDbAlignedDimension
 13
3864.877232826046
 23
1585.177365570292
 33
0.0
 14
3884.877232826046
 24
1585.177365570292
 34
0.0
100
AcDbRotatedDimension
  0
DIMENSION
  5
932
102
{ACAD_REACTORS
330
947
102
}
102
{ACAD_XDICTIONARY
360
A9F
102
}
330
1F
100
AcDbEntity
  8
ADSK_CONSTRAINTS
 60
     1
100
AcDbDimension
 10
3890.242173656068
 20
520.2716801255021
 30
0.0
 11
4134.064278841053
 21
1476.320758229314
 31
0.0
 70
   132
  1
半径3=1000
  3
ISO-25
100
AcDbRadialDimension
 15
4155.441797615829
 25
1484.465208133323
 35
0.0
 40
0.0
1001
ACAD
1000
DSTYLE
1002
{
1070
   288
1070
     1
1002
}
1001
ACAD_DSTYLE_DIMRADIAL_EXTE
1070
   387
1070
     1
1070
   388
1040
1.357546453390195
1070
   390
1040
1.653637165106711
  0
DIMENSION
  5
933
102
{ACAD_REACTORS
330
963
102
}
102
{ACAD_XDICTIONARY
360
AA1
102
}
330
1F
100
AcDbEntity
  8
ADSK_CONSTRAINTS
 60
     1
100
AcDbDimension
 10
3869.053147686695
 20
1519.959131282396
 30
0.0
 11
3869.053147686695
 21
1519.959131282396
 31
0.0
 70
   128
  1
d4=9.31
  3
ISO-25
100
AcDbAlignedDimension
 13
3865.242173656068
 23
1529.269131282396
 33
0.0
 14
3865.242173656068
 24
1519.959131282396
 34
0.0
 50
90.0
100
AcDbRotatedDimension
  0
DIMENSION
  5
934
102
{ACAD_REACTORS
330
95B
102
}
102
{ACAD_XDICTIONARY
360
AA3
102
}
330
1F
100
AcDbEntity
  8
ADSK_CONSTRAINTS
 60
     1
100
AcDbDimension
 10
3915.242173656068
 20
1514.275702391746
 30
0.0
 11
3915.242173656068
 21
1514.275702391746
 31
0.0
 70
   128
  1
d5=50
  3
ISO-25
100
AcDbAlignedDimension
 13
3865.242173656068
 23
1519.959131282396
 33
0.0
 14
3915.242173656068
 24
1519.959131282396
 34
0.0
100
AcDbRotatedDimension
  0
DIMENSION
  5
935
102
{ACAD_REACTORS
330
93F
102
}
102
{ACAD_XDICTIONARY
360
AA5
102
}
330
1F
100
AcDbEntity
  8
ADSK_CONSTRAINTS
 60
     1
100
AcDbDimension
 10
4535.856462477055
 20
1572.677365570245
 30
0.0
 11
3961.570821819617
 21
1521.86450179952
 31
0.0
 70
   132
  1
半径2=600
  3
TH-GBD2M
100
AcDbRadialDimension
 15
3938.191381413791
 25
1519.795886051063
 35
0.0
 40
0.0
1001
ACAD
1000
DSTYLE
1002
{
1070
   288
1070
     1
1002
}
1001
ACAD_DSTYLE_DIMRADIAL_EXTE
1070
   387
1070
     1
1070
   388
1040
3.019949950077523
1070
   390
1040
3.263235357102063
  0
DIMENSION
  5
936
102
{ACAD_REACTORS
330
959
102
}
102
{ACAD_XDICTIONARY
360
AA7
102
}
330
1F
100
AcDbEntity
  8
ADSK_CONSTRAINTS
 60
     1
100
AcDbDimension
 10
3921.05062233141
 20
1563.309353315274
 30
0.0
 11
3921.05062233141
 21
1563.309353315274
 31
0.0
 70
   128
  1
d3=25
  3
TH-GBD2M
100
AcDbAlignedDimension
 13
3931.421573710763
 23
1585.177365570245
 33
0.0
 14
3931.421573710763
 24
1560.177365570245
 34
0.0
 50
90.0
100
AcDbRotatedDimension
  0
DIMENSION
  5
937
102
{ACAD_REACTORS
330
941
102
}
102
{ACAD_XDICTIONARY
360
AA9
102
}
330
1F
100
AcDbEntity
  8
ADSK_CONSTRAINTS
 60
     1
100
AcDbDimension
 10
3935.856462478308
 20
1568.637037311168
 30
0.0
 11
3935.856462478308
 21
1568.637037311168
 31
0.0
 70
   128
  1
d6=9
  3
TH-GBD2M
100
AcDbAlignedDimension
 13
3926.856462478308
 23
1572.677365570245
 33
0.0
 14
3935.856462478308
 24
1572.677365570245
 34
0.0
100
AcDbRotatedDimension
  0
ENDSEC
  0
SECTION
  2
OBJECTS
  0
DICTIONARY
  5
C
330
0
100
AcDbDictionary
  3
ACAD_ASSOCNETWORK
350
90C
  3
ACAD_CIP_PREVIOUS_PRODUCT_INFO
350
216
  3
ACAD_COLOR
350
6B
  3
ACAD_DETAILVIEWSTYLE
350
21B
  3
ACAD_GROUP
350
D
  3
ACAD_LAYOUT
350
1A
  3
ACAD_MATERIAL
350
6A
  3
ACAD_MLEADERSTYLE
350
12D
  3
ACAD_MLINESTYLE
350
17
  3
ACAD_PLOTSETTINGS
350
19
  3
ACAD_RENDER_ACTIVE_RAPIDRT
350
582
  3
ACAD_RENDER_RAPIDRT_SETTINGS
350
57B
  3
ACAD_SCALELIST
350
10C
  3
ACAD_SECTIONVIEWSTYLE
350
219
  3
ACAD_VISUALSTYLE
350
EF
  3
ACDB_RECOMPOSE_DATA
350
AB1
  3
ACDBHEADERROUNDTRIPXREC
350
A72
  3
ACDBVARIABLEDICTIONARY
350
5E
  3
DWGPROPS
350
A97
  0
DICTIONARY
  5
AAB
330
8
100
AcDbDictionary
280
     1
  3
ACAD_XREC_ROUNDTRIP
360
AAC
  0
DICTIONARY
  5
1FF
330
2
100
AcDbDictionary
280
     1
  3
ACAD_LAYERSTATES
360
200
  0
DICTIONARY
  5
1CE
330
1F
100
AcDbDictionary
280
     1
  3
ACAD_ASSOCNETWORK
360
9C9
  0
DICTIONARY
  5
6D4
330
6D3
100
AcDbDictionary
280
     1
  3
ACAD_MTEXT_RT
360
A98
  0
DICTIONARY
  5
A99
330
92F
100
AcDbDictionary
280
     1
  3
ACAD_XREC_ROUNDTRIP
360
A9A
  0
DICTIONARY
  5
A9B
330
930
100
AcDbDictionary
280
     1
  3
ACAD_XREC_ROUNDTRIP
360
A9C
  0
DICTIONARY
  5
A9D
330
931
100
AcDbDictionary
280
     1
  3
ACAD_XREC_ROUNDTRIP
360
A9E
  0
DICTIONARY
  5
A9F
330
932
100
AcDbDictionary
280
     1
  3
ACAD_XREC_ROUNDTRIP
360
AA0
  0
DICTIONARY
  5
AA1
330
933
100
AcDbDictionary
280
     1
  3
ACAD_XREC_ROUNDTRIP
360
AA2
  0
DICTIONARY
  5
AA3
330
934
100
AcDbDictionary
280
     1
  3
ACAD_XREC_ROUNDTRIP
360
AA4
  0
DICTIONARY
  5
AA5
330
935
100
AcDbDictionary
280
     1
  3
ACAD_XREC_ROUNDTRIP
360
AA6
  0
DICTIONARY
  5
AA7
330
936
100
AcDbDictionary
280
     1
  3
ACAD_XREC_ROUNDTRIP
360
AA8
  0
DICTIONARY
  5
AA9
330
937
100
AcDbDictionary
280
     1
  3
ACAD_XREC_ROUNDTRIP
360
AAA
  0
DICTIONARY
  5
90C
102
{ACAD_REACTORS
330
C
102
}
330
C
100
AcDbDictionary
  3
ACAD_ASSOCNETWORK
350
90D
  0
XRECORD
  5
216
102
{ACAD_REACTORS
330
C
102
}
330
C
100
AcDbXrecord
300
ACD
300
2021
300

  0
DICTIONARY
  5
6B
102
{ACAD_REACTORS
330
C
102
}
330
C
100
AcDbDictionary
  0
DICTIONARY
  5
21B
102
{ACAD_REACTORS
330
C
102
}
330
C
100
AcDbDictionary
  3
METRIC50
350
21C
  0
DICTIONARY
  5
D
102
{ACAD_REACTORS
330
C
102
}
330
C
100
AcDbDictionary
  0
DICTIONARY
  5
1A
102
{ACAD_REACTORS
330
C
102
}
330
C
100
AcDbDictionary
  0
DICTIONARY
  5
6A
102
{ACAD_REACTORS
330
C
102
}
330
C
100
AcDbDictionary
  3
BYBLOCK
350
ED
  3
BYLAYER
350
EC
  3
GLOBAL
350
EE
  0
DICTIONARY
  5
12D
102
{ACAD_REACTORS
330
C
102
}
330
C
100
AcDbDictionary
  3
ANNOTATIVE
350
13B
  3
STANDARD
350
12E
  0
DICTIONARY
  5
17
102
{ACAD_REACTORS
330
C
102
}
330
C
100
AcDbDictionary
  3
STANDARD
350
18
  0
DICTIONARY
  5
19
102
{ACAD_REACTORS
330
C
102
}
330
C
100
AcDbDictionary
  0
ACAD_PROXY_OBJECT
  5
582
102
{ACAD_REACTORS
330
C
102
}
330
C
100
AcDbProxyObject
 90
      499
 91
      524
 93
      375
310
40902D6D0B911D3A6D3C3203520B8F6E4D6C8BEBCB6B1F090390540501408000000000000084000000000000002102
  0
DICTIONARY
  5
57B
102
{ACAD_REACTORS
330
C
102
}
330
C
100
AcDbDictionary
  3
茶歇质量
350
57F
  3
低
350
57C
  3
高
350
57E
  3
午餐质量
350
580
  3
夜间质量
350
581
  3
中
350
57D
  0
DICTIONARY
  5
10C
102
{ACAD_REACTORS
330
C
102
}
330
C
100
AcDbDictionary
  3
A0
350
10D
  3
A1
350
1BE
  3
A2
350
1BF
  3
A3
350
1C0
  3
A4
350
1C1
  3
A5
350
1C2
  3
A6
350
1C3
  3
A7
350
1C4
  3
A8
350
1C5
  3
A9
350
1C6
  3
B0
350
1C7
  3
B1
350
1C8
  3
B2
350
1C9
  3
B3
350
1CA
  3
B4
350
1CB
  3
B5
350
1CC
  3
B6
350
1CD
  0
DICTIONARY
  5
219
102
{ACAD_REACTORS
330
C
102
}
330
C
100
AcDbDictionary
  3
METRIC50
350
21A
  0
DICTIONARY
  5
EF
102
{ACAD_REACTORS
330
C
102
}
330
C
100
AcDbDictionary
  3
2DWIREFRAME
350
F5
  3
BASIC
350
F4
  3
BRIGHTEN
350
FB
  3
COLORCHANGE
350
FF
  3
CONCEPTUAL
350
F8
  3
DIM
350
FA
  3
EDGECOLOROFF
350
1E6
  3
FACEPATTERN
350
FE
  3
FLAT
350
F0
  3
FLATWITHEDGES
350
F1
  3
GOURAUD
350
F2
  3
GOURAUDWITHEDGES
350
F3
  3
HIDDEN
350
F7
  3
JITTEROFF
350
1E4
  3
LINEPATTERN
350
FD
  3
OVERHANGOFF
350
1E5
  3
REALISTIC
350
F9
  3
SHADED
350
1F3
  3
SHADED_WITH_EDGES
350
1F2
  3
SHADES_OF_GRAY
350
1EF
  3
SKETCHY
350
1F0
  3
THICKEN
350
FC
  3
WIREFRAME
350
F6
  3
X-RAY
350
1F1
  0
XRECORD
  5
AB1
102
{ACAD_REACTORS
330
C
102
}
330
C
100
AcDbXrecord
 90
        1
330
6D3
  0
DICTIONARY
  5
A72
102
{ACAD_REACTORS
330
C
102
}
330
C
100
AcDbDictionary
  3
CEPSNID
350
A7C
  3
CEPSNTYPE
350
A7B
  3
COLORDICT
350
A95
  3
DIMSTYLEDATA
350
A92
  3
FINGERPRINTGUID
350
A7D
  3
HYPERLINKBASE
350
A75
  3
INSUNITS
350
A7A
  3
LAYOUTDICT
350
A77
  3
LWETCUNION
350
A79
  3
MATERIALDICT
350
A96
  3
PLOTSETDICT
350
A78
  3
PSVPSCALE
350
A7F
  3
PUCSBASE
350
A82
  3
PUCSORGBACK
350
A88
  3
PUCSORGBOTTOM
350
A84
  3
PUCSORGFRONT
350
A87
  3
PUCSORGLEFT
350
A85
  3
PUCSORGRIGHT
350
A86
  3
PUCSORGTOP
350
A83
  3
PUCSORTHOREF
350
A80
  3
PUCSORTHOVIEW
350
A81
  3
STYLESHEET
350
A76
  3
TSTACKALIGN
350
A73
  3
TSTACKSIZE
350
A74
  3
UCSBASE
350
A8B
  3
UCSORGBACK
350
A91
  3
UCSORGBOTTOM
350
A8D
  3
UCSORGFRONT
350
A90
  3
UCSORGLEFT
350
A8E
  3
UCSORGRIGHT
350
A8F
  3
UCSORGTOP
350
A8C
  3
UCSORTHOREF
350
A89
  3
UCSORTHOVIEW
350
A8A
  3
VERSIONGUID
350
A7E
  0
DICTIONARY
  5
5E
102
{ACAD_REACTORS
330
C
102
}
330
C
100
AcDbDictionary
  3
CANNOSCALE
350
146
  3
CENTEREXE
350
259
  3
CENTERLTYPEFILE
350
25A
  3
CMLEADERSTYLE
350
145
  3
CTABLESTYLE
350
84
  3
CVIEWDETAILSTYLE
350
227
  3
CVIEWSECTIONSTYLE
350
228
  3
DIMASSOC
350
5F
  3
HIDETEXT
350
63
  3
LAYEREVAL
350
1AE
  3
LAYERNOTIFY
350
1AF
  3
MSLTSCALE
350
AAD
  3
PSOLHEIGHT
350
A94
  3
PSOLWIDTH
350
A93
  0
XRECORD
  5
A97
102
{ACAD_REACTORS
330
C
102
}
330
C
100
AcDbXrecord
  1
DWGPROPS COOKIE
  2

  3

  4

  6

  7

  8
MSI
  9

300
=
301
=
302
=
303
=
304
=
305
=
306
=
307
=
308
=
309
=
 40
0.0
 41
2460229.317152778
 42
2460669.129095868
  1

 90
        0
  0
XRECORD
  5
AAC
102
{ACAD_REACTORS
330
AAB
102
}
330
AAB
100
AcDbXrecord
102
VTR_0.000_0.000_1.000_1.000_VISUALSTYLE
340
F5
102
VTR_0.000_0.000_1.000_1.000_GRIDDISPLAY
 70
     3
102
VTR_0.000_0.000_1.000_1.000_GRIDMAJOR
 70
     5
102
VTR_0.000_0.000_1.000_1.000_DEFAULTLIGHTING
280
     1
102
VTR_0.000_0.000_1.000_1.000_DEFAULTLIGHTINGTYPE
 70
     1
102
VTR_0.000_0.000_1.000_1.000_BRIGHTNESS
141
0.0
102
VTR_0.000_0.000_1.000_1.000_CONTRAST
142
0.0
  0
DICTIONARY
  5
200
102
{ACAD_REACTORS
330
1FF
102
}
330
1FF
100
AcDbDictionary
  0
DICTIONARY
  5
9C9
102
{ACAD_REACTORS
330
1CE
102
}
330
1CE
100
AcDbDictionary
  3
ACAD_ASSOCNETWORK
350
9CA
  0
XRECORD
  5
A98
102
{ACAD_REACTORS
330
6D4
102
}
330
6D4
100
AcDbXrecord
 40
116758.0
  1
\pxqj;{\fSimSun|b1|i0|c134|p49;\C1;注：\P1：本图仅供参考,禁止使用本图加工生产.\P2：图纸细节如有更改不再另行通知.}
  0
XRECORD
  5
A9A
102
{ACAD_REACTORS
330
A99
102
}
330
A99
100
AcDbXrecord
102
ISDYNAMIC
 70
     1
  0
XRECORD
  5
A9C
102
{ACAD_REACTORS
330
A9B
102
}
330
A9B
100
AcDbXrecord
102
ISDYNAMIC
 70
     1
  0
XRECORD
  5
A9E
102
{ACAD_REACTORS
330
A9D
102
}
330
A9D
100
AcDbXrecord
102
ISDYNAMIC
 70
     1
  0
XRECORD
  5
AA0
102
{ACAD_REACTORS
330
A9F
102
}
330
A9F
100
AcDbXrecord
102
ISDYNAMIC
 70
     1
  0
XRECORD
  5
AA2
102
{ACAD_REACTORS
330
AA1
102
}
330
AA1
100
AcDbXrecord
102
ISDYNAMIC
 70
     1
  0
XRECORD
  5
AA4
102
{ACAD_REACTORS
330
AA3
102
}
330
AA3
100
AcDbXrecord
102
ISDYNAMIC
 70
     1
  0
XRECORD
  5
AA6
102
{ACAD_REACTORS
330
AA5
102
}
330
AA5
100
AcDbXrecord
102
ISDYNAMIC
 70
     1
  0
XRECORD
  5
AA8
102
{ACAD_REACTORS
330
AA7
102
}
330
AA7
100
AcDbXrecord
102
ISDYNAMIC
 70
     1
  0
XRECORD
  5
AAA
102
{ACAD_REACTORS
330
AA9
102
}
330
AA9
100
AcDbXrecord
102
ISDYNAMIC
 70
     1
  0
ACAD_PROXY_OBJECT
  5
90D
102
{ACAD_REACTORS
330
90C
102
}
330
90C
100
AcDbProxyObject
 90
      499
 91
      528
 93
       52
310
40AAAAA4090140
330
0
360
0
330
9CA
 94
        0
1001
ACAD
1000
AcadProxyRoundTripData
1071
      523
1071
 11403297
1070
     0
  0
ACAD_PROXY_OBJECT
  5
21C
102
{ACAD_REACTORS
330
21B
102
}
330
21B
100
AcDbProxyObject
 90
      499
 91
      516
 93
      877
310
9084D65747269633530481E0000000000000A20500E0000000000000A20233E0000000000000A20400000000000017202029B929E2E20B1AB30B9102B34B2BBA232BA30B4B624B21F129014129E2E20B1AB30B9102B34B2BBA9B1B0B632902E33101112B9B7111F1294A33A33800
340
11
340
0
340
16
340
11
340
16
340
16
 94
        0
  0
MATERIAL
  5
ED
102
{ACAD_REACTORS
330
6A
102
}
102
{ACAD_XDICTIONARY
360
1F9
102
}
330
6A
100
AcDbMaterial
  1
BYBLOCK
 73
     2
 78
     2
172
     2
176
     2
270
     2
274
     2
  0
MATERIAL
  5
EC
102
{ACAD_REACTORS
330
6A
102
}
102
{ACAD_XDICTIONARY
360
1F7
102
}
330
6A
100
AcDbMaterial
  1
BYLAYER
 73
     2
 78
     2
172
     2
176
     2
270
     2
274
     2
  0
MATERIAL
  5
EE
102
{ACAD_REACTORS
330
6A
102
}
102
{ACAD_XDICTIONARY
360
173
102
}
330
6A
100
AcDbMaterial
  1
GLOBAL
 73
     2
 43
0.0007999999797903
 43
0.0
 43
0.0
 43
0.0
 43
0.0
 43
0.0007999999797903
 43
0.0
 43
0.0
 43
0.0
 43
0.0
 43
1.0
 43
0.0
 43
0.0
 43
0.0
 43
0.0
 43
1.0
 78
     2
172
     2
 49
0.0007999999797903
 49
0.0
 49
0.0
 49
0.0
 49
0.0
 49
0.0007999999797903
 49
0.0
 49
0.0
 49
0.0
 49
0.0
 49
1.0
 49
0.0
 49
0.0
 49
0.0
 49
0.0
 49
1.0
176
     2
142
0.0007999999797903
142
0.0
142
0.0
142
0.0
142
0.0
142
0.0007999999797903
142
0.0
142
0.0
142
0.0
142
0.0
142
1.0
142
0.0
142
0.0
142
0.0
142
0.0
142
1.0
270
     2
144
0.0007999999797903
144
0.0
144
0.0
144
0.0
144
0.0
144
0.0007999999797903
144
0.0
144
0.0
144
0.0
144
0.0
144
1.0
144
0.0
144
0.0
144
0.0
144
0.0
144
1.0
274
     2
1001
ACAD
1070
    -1
1070
     3
1070
     0
1000

1071
        0
1070
     0
  0
ACAD_PROXY_OBJECT
  5
13B
102
{ACAD_REACTORS
330
12D
102
}
330
12D
100
AcDbProxyObject
 90
      499
 91
      508
 93
      610
310
40901902A4063FBFFFFFE0000000000000020400000000000020404214DD185B99185C990000000000000104090140501A00000000000004100000000000000041025766000000000000039000
340
14
340
0
340
11
340
0
 94
        0
1001
ACAD_MLEADERVER
1070
     2
  0
ACAD_PROXY_OBJECT
  5
12E
102
{ACAD_REACTORS
330
12D
102
}
330
12D
100
AcDbProxyObject
 90
      499
 91
      508
 93
      610
310
40901902A4063FBFFFFFE0000000000000020400000000000020404214DD185B99185C990000000000000104090140501A00000000000004100000000000000041025764000000000000039000
340
14
340
0
340
11
340
0
 94
        0
1001
ACAD_MLEADERVER
1070
     2
  0
MLINESTYLE
  5
18
102
{ACAD_REACTORS
330
17
102
}
330
17
100
AcDbMlineStyle
  2
STANDARD
 70
     0
  3

 62
   256
 51
90.0
 52
90.0
 71
     2
 49
0.5
 62
   256
  6
BYLAYER
 49
-0.5
 62
   256
  6
BYLAYER
  0
ACAD_PROXY_OBJECT
  5
57F
102
{ACAD_REACTORS
330
57B
102
}
330
57B
100
AcDbProxyObject
 90
      499
 91
      524
 93
      399
310
40908B2E8D0AAD6CAC1BFB90CE4D6C8BE20313020B7D6D6D340D034050142901408000000000000084000000000000002102
  0
ACAD_PROXY_OBJECT
  5
57C
102
{ACAD_REACTORS
330
57B
102
}
330
57B
100
AcDbProxyObject
 90
      499
 91
      524
 93
      367
310
40902B5CDB911D3A6D3C3203120B8F6E4D6C8BEBCB6B1F0903901406408000000000000084000000000000002102
  0
ACAD_PROXY_OBJECT
  5
57E
102
{ACAD_REACTORS
330
57B
102
}
330
57B
100
AcDbProxyObject
 90
      499
 91
      524
 93
      391
310
40902B8DFB912D3A6D3C320313020B8F6E4D6C8BEBCB6B1F04090390A40502408000000000000084000000000000002102
  0
ACAD_PROXY_OBJECT
  5
580
102
{ACAD_REACTORS
330
57B
102
}
330
57B
100
AcDbProxyObject
 90
      499
 91
      524
 93
      399
310
40908CEE7B2CDD6CAC1BFB90CE4D6C8BE20363020B7D6D6D341103405014F102408000000000000084000000000000002102
  0
ACAD_PROXY_OBJECT
  5
581
102
{ACAD_REACTORS
330
57B
102
}
330
57B
100
AcDbProxyObject
 90
      499
 91
      524
 93
      423
310
40908D2B9BCE4D6CAC1BFB90CE4D6C8BE20313220D0A1CAB1415034050134008000102408000000000000084000000000000002102
  0
ACAD_PROXY_OBJECT
  5
57D
102
{ACAD_REACTORS
330
57B
102
}
330
57B
100
AcDbProxyObject
 90
      499
 91
      524
 93
      383
310
40902D6D0B911D3A6D3C3203520B8F6E4D6C8BEBCB6B1F04050390540501408000000000000084000000000000002102
  0
ACAD_PROXY_OBJECT
  5
10D
102
{ACAD_REACTORS
330
10C
102
}
330
10C
100
AcDbProxyObject
 90
      499
 91
      507
 93
       41
310
903313A31580
  0
ACAD_PROXY_OBJECT
  5
1BE
102
{ACAD_REACTORS
330
10C
102
}
330
10C
100
AcDbProxyObject
 90
      499
 91
      507
 93
      105
310
903313A324000000000000004000
  0
ACAD_PROXY_OBJECT
  5
1BF
102
{ACAD_REACTORS
330
10C
102
}
330
10C
100
AcDbProxyObject
 90
      499
 91
      507
 93
      105
310
903313A344000000000000104000
  0
ACAD_PROXY_OBJECT
  5
1C0
102
{ACAD_REACTORS
330
10C
102
}
330
10C
100
AcDbProxyObject
 90
      499
 91
      507
 93
      105
310
903313A354000000000000144000
  0
ACAD_PROXY_OBJECT
  5
1C1
102
{ACAD_REACTORS
330
10C
102
}
330
10C
100
AcDbProxyObject
 90
      499
 91
      507
 93
      105
310
903313A384000000000000204000
  0
ACAD_PROXY_OBJECT
  5
1C2
102
{ACAD_REACTORS
330
10C
102
}
330
10C
100
AcDbProxyObject
 90
      499
 91
      507
 93
      113
310
904313A31304000000000000244000
  0
ACAD_PROXY_OBJECT
  5
1C3
102
{ACAD_REACTORS
330
10C
102
}
330
10C
100
AcDbProxyObject
 90
      499
 91
      507
 93
      113
310
904313A31364000000000000304000
  0
ACAD_PROXY_OBJECT
  5
1C4
102
{ACAD_REACTORS
330
10C
102
}
330
10C
100
AcDbProxyObject
 90
      499
 91
      507
 93
      113
310
904313A32304000000000000344000
  0
ACAD_PROXY_OBJECT
  5
1C5
102
{ACAD_REACTORS
330
10C
102
}
330
10C
100
AcDbProxyObject
 90
      499
 91
      507
 93
      113
310
904313A333040000000000003E4000
  0
ACAD_PROXY_OBJECT
  5
1C6
102
{ACAD_REACTORS
330
10C
102
}
330
10C
100
AcDbProxyObject
 90
      499
 91
      507
 93
      113
310
904313A34304000000000000444000
  0
ACAD_PROXY_OBJECT
  5
1C7
102
{ACAD_REACTORS
330
10C
102
}
330
10C
100
AcDbProxyObject
 90
      499
 91
      507
 93
      113
310
904313A35304000000000000494000
  0
ACAD_PROXY_OBJECT
  5
1C8
102
{ACAD_REACTORS
330
10C
102
}
330
10C
100
AcDbProxyObject
 90
      499
 91
      507
 93
      121
310
905313A3130304000000000000594000
  0
ACAD_PROXY_OBJECT
  5
1C9
102
{ACAD_REACTORS
330
10C
102
}
330
10C
100
AcDbProxyObject
 90
      499
 91
      507
 93
      105
310
903323A310000000000000010100
  0
ACAD_PROXY_OBJECT
  5
1CA
102
{ACAD_REACTORS
330
10C
102
}
330
10C
100
AcDbProxyObject
 90
      499
 91
      507
 93
      105
310
903343A310000000000000410100
  0
ACAD_PROXY_OBJECT
  5
1CB
102
{ACAD_REACTORS
330
10C
102
}
330
10C
100
AcDbProxyObject
 90
      499
 91
      507
 93
      105
310
903383A310000000000000810100
  0
ACAD_PROXY_OBJECT
  5
1CC
102
{ACAD_REACTORS
330
10C
102
}
330
10C
100
AcDbProxyObject
 90
      499
 91
      507
 93
      113
310
90431303A310000000000000910100
  0
ACAD_PROXY_OBJECT
  5
1CD
102
{ACAD_REACTORS
330
10C
102
}
330
10C
100
AcDbProxyObject
 90
      499
 91
      507
 93
      121
310
9053130303A310000000000001650100
  0
ACAD_PROXY_OBJECT
  5
21A
102
{ACAD_REACTORS
330
219
102
}
330
219
100
AcDbProxyObject
 90
      499
 91
      515
 93
     2015
310
9084D657472696335304B360000000000000A2060000000000000A202209258409E5840A25840A65840B05840B40000000000001220233A65800000000000028800000000000000A2060000000000000A2040000000000001720202AC929E2E20B1AB30B9102B34B2BBA9B2B1BA34B7B729BA30B93A24B21F1296929E2E20B
310
1AB30B9102B34B2BBA9B2B1BA34B7B722B73224B21F129014129E2E20B1AB30B9102B34B2BBA9B1B0B632902E33101112B9B7111F1294E0080A0C829CA6926662C400000000000002204000000000000022020D0305A88A9F643F27E32B9969C2960E81F87FA0718D4DE3E87E32B9969C2960E85F9E5129FC49EA5FA7E
340
11
340
0
340
0
340
16
340
16
340
11
 94
        0
  0
ACAD_PROXY_OBJECT
  5
F5
102
{ACAD_REACTORS
330
EF
102
}
330
EF
100
AcDbProxyObject
 90
      499
 91
      506
 93
      444
310
42CC9915DA5C99599C985B59504902404333333333333E33F0000000000000F90107901411070040501600405405064090741402480A0340
1001
ACAD
1000
AcDbSavedByObjectVersion
1070
     0
  0
ACAD_PROXY_OBJECT
  5
F4
102
{ACAD_REACTORS
330
EF
102
}
330
EF
100
AcDbProxyObject
 90
      499
 91
      506
 93
      388
310
4150985CDA58D07406404333333333333E33F0000000000000F90107A41107004050150841D405064090741402480A0350
1001
ACAD
1000
AcDbSavedByObjectVersion
1070
     0
  0
ACAD_PROXY_OBJECT
  5
FB
102
{ACAD_REACTORS
330
EF
102
}
330
EF
100
AcDbProxyObject
 90
      499
 91
      506
 93
      436
310
42109C9A59DA1D195B90C40902404333333333333E33F0000000000000F9010790141107004050150841D405064090741402480A029950
1001
ACAD
1000
AcDbSavedByObjectVersion
1070
     0
  0
ACAD_PROXY_OBJECT
  5
FF
102
{ACAD_REACTORS
330
EF
102
}
330
EF
100
AcDbProxyObject
 90
      499
 91
      506
 93
      452
310
42D0DBDB1BDC90DA185B99D95104090240C333333333333E33F0000000000000F90108901411070040501508421405064090741402480A0350
1001
ACAD
1000
AcDbSavedByObjectVersion
1070
     0
  0
ACAD_PROXY_OBJECT
  5
F8
102
{ACAD_REACTORS
330
EF
102
}
330
EF
100
AcDbProxyObject
 90
      499
 91
      506
 93
      508
310
4290DBDB98D95C1D1D585B10940D02404333333333333E33F0000000000000F90107902409070040501000000000000111010841D405064090740C02480A0340
1001
ACAD
1000
AcDbSavedByObjectVersion
1070
     0
  0
ACAD_PROXY_OBJECT
  5
FA
102
{ACAD_REACTORS
330
EF
102
}
330
EF
100
AcDbProxyObject
 90
      499
 91
      506
 93
      420
310
40D11A5B50B40902404333333333333E33F0000000000000F9010790141107004050150841D405064090741402480A02677FFFFFD0
1001
ACAD
1000
AcDbSavedByObjectVersion
1070
     0
  0
ACAD_PROXY_OBJECT
  5
1E6
102
{ACAD_REACTORS
330
EF
102
}
330
EF
100
AcDbProxyObject
 90
      499
 91
      506
 93
      452
310
43115919D950DBDB1BDC93D999916409028333333333333E33F0000000000000F9010790141107004050150841D405064090741402480A0350
1001
ACAD
1000
AcDbSavedByObjectVersion
1070
     0
  0
ACAD_PROXY_OBJECT
  5
FE
102
{ACAD_REACTORS
330
EF
102
}
330
EF
100
AcDbProxyObject
 90
      499
 91
      506
 93
      452
310
42D19858D95C185D1D195C9B90F40902404333333333333E33F0000000000000F9010790141107004050150841D405064090741402480A0350
1001
ACAD
1000
AcDbSavedByObjectVersion
1070
     0
  0
ACAD_PROXY_OBJECT
  5
F0
102
{ACAD_REACTORS
330
EF
102
}
330
EF
100
AcDbProxyObject
 90
      499
 91
      506
 93
      380
310
41119B185D240901404333333333333E33F0000000000000F9010740A907004050150841D405064090741402480A1B50
1001
ACAD
1000
AcDbSavedByObjectVersion
1070
     0
  0
ACAD_PROXY_OBJECT
  5
F1
102
{ACAD_REACTORS
330
EF
102
}
330
EF
100
AcDbProxyObject
 90
      499
 91
      506
 93
      468
310
43519B185D15DA5D1A115919D95CD0140901404333333333333E33F0000000000000F90107409019070040501600405405064090741402480A1B50
1001
ACAD
1000
AcDbSavedByObjectVersion
1070
     0
  0
ACAD_PROXY_OBJECT
  5
F2
102
{ACAD_REACTORS
330
EF
102
}
330
EF
100
AcDbProxyObject
 90
      499
 91
      506
 93
      404
310
41D1DBDD5C985D5910240902404333333333333E33F0000000000000F9010740A9070040501641D405064090741402480A1B50
1001
ACAD
1000
AcDbSavedByObjectVersion
1070
     0
  0
ACAD_PROXY_OBJECT
  5
F3
102
{ACAD_REACTORS
330
EF
102
}
330
EF
100
AcDbProxyObject
 90
      499
 91
      506
 93
      492
310
4411DBDD5C985D5915DA5D1A115919D95CD0340902404333333333333E33F0000000000000F90107409019070040501600405405064090741402480A1B50
1001
ACAD
1000
AcDbSavedByObjectVersion
1070
     0
  0
ACAD_PROXY_OBJECT
  5
F7
102
{ACAD_REACTORS
330
EF
102
}
330
EF
100
AcDbProxyObject
 90
      499
 91
      506
 93
      476
310
41921A5919195B90640502408333333333333E33F0000000000000F901079024090700405020000000000001110200405405064090740C02480A0340
1001
ACAD
1000
AcDbSavedByObjectVersion
1070
     0
  0
ACAD_PROXY_OBJECT
  5
1E4
102
{ACAD_REACTORS
330
EF
102
}
330
EF
100
AcDbProxyObject
 90
      499
 91
      506
 93
      428
310
42529A5D1D195C93D999914409028333333333333E33F0000000000000F9010790141107004050150A41D405064090741402480A0350
1001
ACAD
1000
AcDbSavedByObjectVersion
1070
     0
  0
ACAD_PROXY_OBJECT
  5
FD
102
{ACAD_REACTORS
330
EF
102
}
330
EF
100
AcDbProxyObject
 90
      499
 91
      506
 93
      452
310
42D31A5B995C185D1D195C9B90E40902404333333333333E33F0000000000000F9010790141107004050750841D405064090741402483A0350
1001
ACAD
1000
AcDbSavedByObjectVersion
1070
     0
  0
ACAD_PROXY_OBJECT
  5
1E5
102
{ACAD_REACTORS
330
EF
102
}
330
EF
100
AcDbProxyObject
 90
      499
 91
      506
 93
      444
310
42D3DD995C9A185B99D3D999915409028333333333333E33F0000000000000F9010790141107004050150941D405064090741402480A0350
1001
ACAD
1000
AcDbSavedByObjectVersion
1070
     0
  0
ACAD_PROXY_OBJECT
  5
F9
102
{ACAD_REACTORS
330
EF
102
}
330
EF
100
AcDbProxyObject
 90
      499
 91
      506
 93
      428
310
425499585B1A5CDD1A58D08409038333333333333E33F0000000000000F9010740A907004050150800405405064090740C02480A1B40
1001
ACAD
1000
AcDbSavedByObjectVersion
1070
     0
  0
ACAD_PROXY_OBJECT
  5
1F3
102
{ACAD_REACTORS
330
EF
102
}
330
EF
100
AcDbProxyObject
 90
      499
 91
      506
 93
      420
310
4194DA1859195911B40902404333333333333E33F0000000000000F9010740A41107004050150800405405064090840C02480A0B40
1001
ACAD
1000
AcDbSavedByObjectVersion
1070
     0
  0
ACAD_PROXY_OBJECT
  5
1F2
102
{ACAD_REACTORS
330
EF
102
}
330
EF
100
AcDbProxyObject
 90
      499
 91
      506
 93
      516
310
4454DA18591959081DDA5D1A08195919D95CD1A40902404333333333333E33F0000000000000F901074090140907004050250800405405064090740C02480A0B40
1001
ACAD
1000
AcDbSavedByObjectVersion
1070
     0
  0
ACAD_PROXY_OBJECT
  5
1EF
102
{ACAD_REACTORS
330
EF
102
}
330
EF
100
AcDbProxyObject
 90
      499
 91
      506
 93
      532
310
4394DA1859195CC81BD98811DC985E5174090240C333333333333E33F0000000000000F901079024090741D01000000000000111010841D405064090740C02480A0340
1001
ACAD
1000
AcDbSavedByObjectVersion
1070
     0
  0
ACAD_PROXY_OBJECT
  5
1F0
102
{ACAD_REACTORS
330
EF
102
}
330
EF
100
AcDbProxyObject
 90
      499
 91
      506
 93
      476
310
41D4DAD95D18DA1E51840502408333333333333E33F0000000000000F901079024090741D01000000000000111010B41D405064090741802480A0340
1001
ACAD
1000
AcDbSavedByObjectVersion
1070
     0
  0
ACAD_PROXY_OBJECT
  5
FC
102
{ACAD_REACTORS
330
EF
102
}
330
EF
100
AcDbProxyObject
 90
      499
 91
      506
 93
      420
310
41D51A1A58DAD95B90D40902404333333333333E33F0000000000000F9010790141107004050150C41D405064090741402480A0350
1001
ACAD
1000
AcDbSavedByObjectVersion
1070
     0
  0
ACAD_PROXY_OBJECT
  5
F6
102
{ACAD_REACTORS
330
EF
102
}
330
EF
100
AcDbProxyObject
 90
      499
 91
      506
 93
      420
310
4255DA5C99599C985B595059028333333333333E33F0000000000000F90107901411070040501600405405064090740C02480A0340
1001
ACAD
1000
AcDbSavedByObjectVersion
1070
     0
  0
ACAD_PROXY_OBJECT
  5
1F1
102
{ACAD_REACTORS
330
EF
102
}
330
EF
100
AcDbProxyObject
 90
      499
 91
      506
 93
      404
310
41560B54985E51940902404000000000000E03F0000000000000F9010740501907004050150841D405064090740C02480A1B40
1001
ACAD
1000
AcDbSavedByObjectVersion
1070
     0
  0
XRECORD
  5
A7C
102
{ACAD_REACTORS
330
A72
102
}
330
A72
100
AcDbXrecord
340
0
  0
XRECORD
  5
A7B
102
{ACAD_REACTORS
330
A72
102
}
330
A72
100
AcDbXrecord
 90
        0
  0
XRECORD
  5
A95
102
{ACAD_REACTORS
330
A72
102
}
330
A72
100
AcDbXrecord
340
6B
  0
XRECORD
  5
A92
102
{ACAD_REACTORS
330
A72
102
}
330
A72
100
AcDbXrecord
1000
DSTYLE
1002
{
1070
   340
340
11
1002
}
  0
XRECORD
  5
A7D
102
{ACAD_REACTORS
330
A72
102
}
330
A72
100
AcDbXrecord
  1
{5F365222-B146-224F-AC27-29DA3E651A93}
  0
XRECORD
  5
A75
102
{ACAD_REACTORS
330
A72
102
}
330
A72
100
AcDbXrecord
  1

  0
XRECORD
  5
A7A
102
{ACAD_REACTORS
330
A72
102
}
330
A72
100
AcDbXrecord
 90
        4
  0
XRECORD
  5
A77
102
{ACAD_REACTORS
330
A72
102
}
330
A72
100
AcDbXrecord
340
1A
  0
XRECORD
  5
A79
102
{ACAD_REACTORS
330
A72
102
}
330
A72
100
AcDbXrecord
 90
    10781
  0
XRECORD
  5
A96
102
{ACAD_REACTORS
330
A72
102
}
330
A72
100
AcDbXrecord
340
6A
  0
XRECORD
  5
A78
102
{ACAD_REACTORS
330
A72
102
}
330
A72
100
AcDbXrecord
340
19
  0
XRECORD
  5
A7F
102
{ACAD_REACTORS
330
A72
102
}
330
A72
100
AcDbXrecord
 40
0.0
  0
XRECORD
  5
A82
102
{ACAD_REACTORS
330
A72
102
}
330
A72
100
AcDbXrecord
340
0
  0
XRECORD
  5
A88
102
{ACAD_REACTORS
330
A72
102
}
330
A72
100
AcDbXrecord
 10
0.0
 20
0.0
 30
0.0
  0
XRECORD
  5
A84
102
{ACAD_REACTORS
330
A72
102
}
330
A72
100
AcDbXrecord
 10
0.0
 20
0.0
 30
0.0
  0
XRECORD
  5
A87
102
{ACAD_REACTORS
330
A72
102
}
330
A72
100
AcDbXrecord
 10
0.0
 20
0.0
 30
0.0
  0
XRECORD
  5
A85
102
{ACAD_REACTORS
330
A72
102
}
330
A72
100
AcDbXrecord
 10
0.0
 20
0.0
 30
0.0
  0
XRECORD
  5
A86
102
{ACAD_REACTORS
330
A72
102
}
330
A72
100
AcDbXrecord
 10
0.0
 20
0.0
 30
0.0
  0
XRECORD
  5
A83
102
{ACAD_REACTORS
330
A72
102
}
330
A72
100
AcDbXrecord
 10
0.0
 20
0.0
 30
0.0
  0
XRECORD
  5
A80
102
{ACAD_REACTORS
330
A72
102
}
330
A72
100
AcDbXrecord
340
0
  0
XRECORD
  5
A81
102
{ACAD_REACTORS
330
A72
102
}
330
A72
100
AcDbXrecord
 70
     0
  0
XRECORD
  5
A76
102
{ACAD_REACTORS
330
A72
102
}
330
A72
100
AcDbXrecord
  1

  0
XRECORD
  5
A73
102
{ACAD_REACTORS
330
A72
102
}
330
A72
100
AcDbXrecord
 90
        1
  0
XRECORD
  5
A74
102
{ACAD_REACTORS
330
A72
102
}
330
A72
100
AcDbXrecord
 90
       70
  0
XRECORD
  5
A8B
102
{ACAD_REACTORS
330
A72
102
}
330
A72
100
AcDbXrecord
340
0
  0
XRECORD
  5
A91
102
{ACAD_REACTORS
330
A72
102
}
330
A72
100
AcDbXrecord
 10
0.0
 20
0.0
 30
0.0
  0
XRECORD
  5
A8D
102
{ACAD_REACTORS
330
A72
102
}
330
A72
100
AcDbXrecord
 10
0.0
 20
0.0
 30
0.0
  0
XRECORD
  5
A90
102
{ACAD_REACTORS
330
A72
102
}
330
A72
100
AcDbXrecord
 10
0.0
 20
0.0
 30
0.0
  0
XRECORD
  5
A8E
102
{ACAD_REACTORS
330
A72
102
}
330
A72
100
AcDbXrecord
 10
0.0
 20
0.0
 30
0.0
  0
XRECORD
  5
A8F
102
{ACAD_REACTORS
330
A72
102
}
330
A72
100
AcDbXrecord
 10
0.0
 20
0.0
 30
0.0
  0
XRECORD
  5
A8C
102
{ACAD_REACTORS
330
A72
102
}
330
A72
100
AcDbXrecord
 10
0.0
 20
0.0
 30
0.0
  0
XRECORD
  5
A89
102
{ACAD_REACTORS
330
A72
102
}
330
A72
100
AcDbXrecord
340
0
  0
XRECORD
  5
A8A
102
{ACAD_REACTORS
330
A72
102
}
330
A72
100
AcDbXrecord
 70
     0
  0
XRECORD
  5
A7E
102
{ACAD_REACTORS
330
A72
102
}
330
A72
100
AcDbXrecord
  1
{F3E9AC49-ED33-914D-B332-628B83C0EAFB}
  0
DICTIONARYVAR
  5
146
102
{ACAD_REACTORS
330
5E
102
}
330
5E
100
DictionaryVariables
280
     0
  1
1:1
  0
DICTIONARYVAR
  5
259
102
{ACAD_REACTORS
330
5E
102
}
330
5E
100
DictionaryVariables
280
     0
  1
3.500000
  0
DICTIONARYVAR
  5
25A
102
{ACAD_REACTORS
330
5E
102
}
330
5E
100
DictionaryVariables
280
     0
  1
acadiso.lin
  0
DICTIONARYVAR
  5
145
102
{ACAD_REACTORS
330
5E
102
}
330
5E
100
DictionaryVariables
280
     0
  1
Standard
  0
DICTIONARYVAR
  5
84
102
{ACAD_REACTORS
330
5E
102
}
330
5E
100
DictionaryVariables
280
     0
  1
Standard
  0
DICTIONARYVAR
  5
227
102
{ACAD_REACTORS
330
5E
102
}
330
5E
100
DictionaryVariables
280
     0
  1
Metric50
  0
DICTIONARYVAR
  5
228
102
{ACAD_REACTORS
330
5E
102
}
330
5E
100
DictionaryVariables
280
     0
  1
Metric50
  0
DICTIONARYVAR
  5
5F
102
{ACAD_REACTORS
330
5E
102
}
330
5E
100
DictionaryVariables
280
     0
  1
2
  0
DICTIONARYVAR
  5
63
102
{ACAD_REACTORS
330
5E
102
}
330
5E
100
DictionaryVariables
280
     0
  1
1
  0
DICTIONARYVAR
  5
1AE
102
{ACAD_REACTORS
330
5E
102
}
330
5E
100
DictionaryVariables
280
     0
  1
0
  0
DICTIONARYVAR
  5
1AF
102
{ACAD_REACTORS
330
5E
102
}
330
5E
100
DictionaryVariables
280
     0
  1
0
  0
DICTIONARYVAR
  5
AAD
102
{ACAD_REACTORS
330
5E
102
}
330
5E
100
DictionaryVariables
280
     0
  1
1
  0
DICTIONARYVAR
  5
A94
102
{ACAD_REACTORS
330
5E
102
}
330
5E
100
DictionaryVariables
280
     0
  1
80.000000
  0
DICTIONARYVAR
  5
A93
102
{ACAD_REACTORS
330
5E
102
}
330
5E
100
DictionaryVariables
280
     0
  1
5.000000
  0
ACAD_PROXY_OBJECT
  5
9CA
102
{ACAD_REACTORS
330
9C9
102
}
330
9C9
100
AcDbProxyObject
 90
      499
 91
      528
 93
       69
310
40A40AAAA4C50AFFE0
330
90D
360
0
360
93A
360
966
360
967
360
968
360
969
360
96A
360
96B
360
96C
360
96D
360
96E
 94
        0
1001
ACAD
1000
AcadProxyRoundTripData
1071
      523
1071
 11403297
1070
     0
  0
DICTIONARY
  5
1F9
330
ED
100
AcDbDictionary
280
     1
  3
ACAD_XREC_ROUNDTRIP
360
AAE
  3
FBXASSET
360
1FA
  0
DICTIONARY
  5
1F7
330
EC
100
AcDbDictionary
280
     1
  3
ACAD_XREC_ROUNDTRIP
360
AAF
  3
FBXASSET
360
1F8
  0
DICTIONARY
  5
173
330
EE
100
AcDbDictionary
280
     1
  3
ACAD_XREC_ROUNDTRIP
360
AB0
  3
FBXASSET
360
1FB
  0
ACAD_PROXY_OBJECT
  5
93A
330
9CA
100
AcDbProxyObject
 90
      499
 91
      528
 93
    33193
310
40A4099AAA90204173753A163D5A8059CF30B7D7B3CB204D4C9113804000144358F202891014F8812EC40D77208BC1035E4822F44057B20ABE10264881B2641194206CA90465881B2E4119820CCC903668823364199C20ECE9056788435A40DAE208D79036C08236240DB2212D990A6D08138E40DC8208E490372882396415
310
CC204E69037388239E40DD0208E890B748813A640DD4208EA903758823AE42DD8204EC903768823B640DDC208EE905778813BE40DE0208F0903788823C6415E420EF41087A481BD4411EB206F61047B481BDC425EF214F81017E8813F640DFC208FE9037F8823FE414000100002180080800010C0080400008600602000040
310
804010000206028080001040180400008180E0200004100801000020E04808000102028040000818160200004100C010000206068080001040380400008381E02000042C100100002180880800010C04804000086034020000408DE0100002066F808000104380040000819C2020000410E20100002027180800010B390040
310
000811CA02000040CE6010000208738080001033A0040000821D2020000404EA010000216758080001013B0040000811DA02000040CEE010000208778080001033C0040000821E2020000414F201000021A798080001083D0040000819EA020000410F60100002067B8080001043E0040000819F2020000424FA0100002147
310
D80800010C3F0040000861FA020000430FE0100002187F8080001030000800008200204000041802020000206018100001040100800008300A04000041C06020000206038100001040200800008301204000040C0A020000208058100001060300800008381A0400008940154D27D00554CBB20ABC2F4BE336CE00C4003260
310
38323B0A000046A0F885ACAE814000000000000785FC20019301C191D85000423507C42D65740880064C0706476140182C849C9AE0955025DD025E01A01000001800FFFFFFFF5D978409775D802D794097A00804000006013FFFFFFFD765E9025E57600B5EE0080000D83EDAD7743F2030BC112980CE102997C405760095ED
310
9241594659986659E01880064C0706C76340282682584701D5D028000000000000F0BF8400326038363B1A000046A0F885ACAE811020C980E0D8EC6800BC8E2CA4FCAAAA04C9A02CA00C007FFFFFFFB24CA204C9B24016CAA04CB00202000003009FFFFFFFEC932C8132AC9005B2E81B30CCB3A03011FFFFFFFEC93308132E
310
C9005B328132EC9005B3481B36CE33A03011FFFFFFFEBB33681334BB005B3881334BB005B3A8132ECD00480B4CF202C9004A7CD6A08D7B62D9B680302AF408E212CEC880684E55B91946C66054B400000000002047A040C16A22A7D908CA04408326038363B1A002F238B293F2AAA811000C980E0C8EC2803059093935C12A
310
A04D7204D780202000003001FFFFFFFED6B5E8135CD6805B60813620180800000C027FFFFFFFB5AD8A04D835A016D9202D980C067FFFFFFFB5AD9A04D935A016DA202D68048038E81B92E5B98031C00E2D3478F6C4803870821D9BA2B1A050000000000001E17F0E007169A3C7B62401C38410ECDD158D023801C5A68F1ED8
310
90050D2E317026953409C8405C901800FFFFFFFF71DC9409C871C02DCA405CB01804FFFFFFFF71DCB409CA71C02DCC405C70094F9CD40DCF745D201800C9E76E583B61402002817FD8A417D02680064F3B72C1DB0A0100140BFEC520BE8100193CEDCB176C680400502FFB1482FA04E7202E780C007FFFFFFFB9AE7A04E739
310
A016E8202E880C027FFFFFFFB9AE8A04E839A016E9202E6804A24E9A06EABAEEC00C0064F3B72C1DB0A00810B04FE63D0C48134003279DB960ED85004085827F31E86240800C9E76E58BB63401021609FCC7A189027510175406003FFFFFFFDD375502751D300B7590175C06013FFFFFFFDD375D02759D300B7610174C0251
310
27650376DDD77806003279DB960ED8500800A05FF62905F40A600193CEDCB076C280400502FFB1482FA040064F3B72C1DB0A00810B04FE63D0C4813B480BB603001FFFFFFFEECBB6813B4EC805BB8813BAF400C027FFFFFFFBB2EEA04EE3B2016EF202EC804A7CEFA06F0BC6F200C0064F3B72C5DB1A00810B04FE63D0C481
310
4000000000000785FC003279DB962ED8D004085827F31E86240800C9E76E58BB63402002817FD8A417D0278102785E801800FFFFFFFF77DE1409E077C02DE2405E301804FFFFFFFF77DE3409E277C02DE4405DF0094F9E8409DC78002404000000000000F0BFA7A5047ADED7BDF001880064C07066764402740C89E0CA3633
310
02A5A00000000001023D02060B51153EC84650220019301C1A1D9D0060B212726B825540880064C0706476140182C849C9AE0955027A9027AC1101000001800FFFFFFFF7A5EB409EA7A402DEC415ED008040000030100000240400001201000001804FFFFFFFF7A5ED409EC7A402DEE405EF0180CFFFFFFFF7A5EF409EE7A4
310
02DF0405E9009007EA008405BF48B3C4E44402030BEB8C01249F0299FB40DFD7FC00010000018500633D0A6666440242C58B150BED61028000000000000F0BF8280319E85333322012162C58A85F6B0810A00C67A14CCCC880000D05565AFDA9204FE202FE80C007FFFFFFFBF6FEA04FE3F6016FF202FF80C027FFFFFFFBF6
310
FFA04FF3F601600008000202FD804BF400808000204D732A01201008000204F62F201201808000204D83D8012020080002040300800001002000003001C6F25E728EC2800011A83E216B2BA04D080064C07064761400108D41F10B595D0220019301C1B1D8D000423507C42D6574080501000040C060100000240400001A01
310
000001800FFFFFFFF010040000060100004080501000001004000002C070100004040801000001804FFFFFFFF010040000080100004080701000001004000002C09010000408050100007B0024066028040001030300400000E010000040040000060038DE4BCE51D850060B212726B8255409A1000C980E0C8EC280305909
310
3935C12AA04400326038343B3A00C16424E4D704AA81016020000818180200000780800002402000003001FFFFFFFE05008000018020000810160200000500800000581A0200008181C0200000780800002202000003009FFFFFFFE0500800001C0200008101A0200000500800000581E02000081016020000068080000048
310
08000000000001E17F40800800020205008000004A2408808000204F501A02000001209008000204058080003D80120D008000204028080002EE0126F00800020C700080001C4020000720080001E60200000201000000A0400000318080A8915DF4D080487E827FB1482FA04D0C0405448AEFA6840243F413FD8A417D0218
310
30284436479A90090FD04FF62905F408DF010000408E00100003F804000006003FFFFFFFCDE0100003800400010237C040000DE01000000B38404000102388040000FD01000001804FFFFFFFF378040000E2010000408E101000037804000002CE3010000802003FD94E33A3DB50020A4B7B9954257409A390040001013780
310
40000024E30100003940400010639C040000E90100003AC040000F301000000408000002020000018C0405448AEFA6840321FA09FCC7A189026860202A24577D3420190FD04FE63D0C4810C1814221B23CD480643F413F98F43120473008000204738080001FE02000003001FFFFFFFE728080001CE020000811CC02000072
310
8080000059D0020000811D20200007E00800000C027FFFFFFF9CA02000074808000204740080001CA02000001675008000401001FECA719D1EDA807838305D4AC12EA04D1D6020000809CA020000012750080001D8020001004007FB29C6747B6A0041496F732A84AE814C7680800020A778080001E2020000790080000160
310
400000601000000C60202A24577D3420190FD04FE63D0C4814000000000000785FC301015122BBE9A100C87E827F31E862408C0405448AEFA6840243F413FD8A417D023B8040001023BC040000FF01000001800FFFFFFFF3B4040000EF010000408EE0100003B404000002CF0010000408F10100003F804000006013FFFFFF
310
FCED0100003C4040001023C0040000ED01000000B3C8040001013B4040000024EC0100003CC04000102394040000DE0100000093D0040001063D8040000F80100003E8040000FB0100000200800000902000001830101592AB468940321FA09FCC5618502A5A00000000003020902060B51153EC8465021530284436479A90
310
0C87E827F31E86240854C0A110D91E6A4026BF413FD8A417D023D4040001023D8040000FC01000001800FFFFFFFF3D0040000F6010000408F50100003D004000002CF7010000408F80100003F404000006013FFFFFFFCF40100003E0040001023DC040000F401000000B3E4040001013E804000006033FFFFFFFCF40100003
310
E8040001023E4040000F401000000B3EC040001013D004000002400FC010000408E80100003D4040000024FD010000408F7010000384040000024FE010000408F001000037C040000024FF010000408EE0100003980400000240002000040C010200000080800000602000001808FFFFFFFF39404000001020000408000200
310
0039404000002C020200004080002000039404000002C0302000040C040200000140800000602000001808FFFFFFFF378040000040200004080302000037804000002C050200004080302000037804000002C060200004080002000000C08000002406601C080001030200800000902000003408000006023FFFFFFFCF4010
310
0000200800010201C080000F401000000B0240800010201C080000F401000000B0280800010302C0800000C02000003408000006023FFFFFFFCED01000002C08000102028080000ED01000000B03008000102028080000ED01000000B0340800010202808000007020000009010000000000003C2FE9164100630043006F00
310
6E00730074007200610069006E006500640044006100740075006D004C0069006E00650046104018C010C01BC01B801CC01D001C8018401A401B801940190010801BC01D401B8019001940190013001A401B80194011A4100630043006F006E00730074007200610069006E006500640049006D0070006C006900630069007
310
40050006F0069006E00740045904018C014001BC01A401B801D0010C01D401C801D80194010C01BC01B801CC01D001C8018401A401B801D001144100630056006500720074006900630061006C0043006F006E00730074007200610069006E00740045104018C013401A40190014001BC01A401B801D0010C01BC01B801CC0
310
1D001C8018401A401B801D0011441006300440069007300740061006E006300650043006F006E00730074007200610069006E00740044104018C010C01BC01B801CC01D001C8018401A401B801940190010401C8018C011741006300430065006E0074006500720050006F0069006E00740043006F006E0073007400720061
310
0069006E00740046904018C01480184019001A401D401CC011001A4018401B4019401D0019401C8010C01BC01B801CC01D001C8018401A401B801D001164100630048006F00720069007A006F006E00740061006C0043006F006E00730074007200610069006E00740047104018C014001BC01A401B801D0010C01BC01A401
310
B8018C01A40190019401B8018C0194010C01BC01B801CC01D001C8018401A401B801D001174100630045007100750061006C004C0065006E0067007400680043006F006E00730074007200610069006E007400C21280
330
9CA
360
0
360
0
360
959
360
961
360
965
360
95D
360
954
360
950
360
960
360
958
360
962
360
95E
360
93F
360
947
360
943
360
93B
360
94D
360
955
360
951
360
949
360
941
360
945
360
93D
360
944
360
93C
360
946
360
93E
360
953
360
957
360
94B
360
94F
360
952
360
94E
360
956
360
95B
360
963
330
0
330
0
330
95D
330
0
330
0
330
0
330
950
330
0
330
0
330
0
330
0
340
958
340
95E
330
93B
330
0
330
0
330
0
340
943
340
949
330
93D
330
0
330
0
330
962
330
0
330
0
330
93C
330
0
330
0
330
965
330
0
330
0
330
93E
330
0
330
0
340
94F
340
94B
330
956
330
0
330
0
330
0
340
961
340
947
330
0
330
945
330
0
330
0
330
94E
330
0
330
0
340
944
340
963
330
952
330
0
330
0
340
960
340
95B
330
957
330
0
330
0
330
0
330
954
330
0
330
0
330
0
330
0
330
951
330
0
330
0
330
955
330
0
330
0
330
0
340
953
340
93F
330
0
330
0
340
946
340
959
330
0
330
0
340
94D
340
941
 94
        0
1001
ACAD
1000
AcadProxyRoundTripData
1071
      517
1071
 11403297
1070
     0
  0
ACAD_PROXY_OBJECT
  5
966
102
{ACAD_REACTORS
330
958
102
}
330
9CA
100
AcDbProxyObject
 90
      499
 91
      528
 93
      373
310
40A442AA9025691424099000C801023200300043104018C01100188010C018401B0018C00E800C400B800C00220018
330
9CA
360
0
 94
        0
1001
ACAD
1000
AcadProxyRoundTripData
1071
      522
1071
 11403297
1070
     0
  0
ACAD_PROXY_OBJECT
  5
967
102
{ACAD_REACTORS
330
943
102
}
330
9CA
100
AcDbProxyObject
 90
      499
 91
      528
 93
      445
310
40A44EAA902568E8030000240D294E117CC40104310030003000300043104018C01100188010C018401B0018C00E800C400B800C00250018
330
9CA
360
0
 94
        0
1001
ACAD
1000
AcadProxyRoundTripData
1071
      522
1071
 11403297
1070
     0
  0
ACAD_PROXY_OBJECT
  5
968
102
{ACAD_REACTORS
330
94F
102
}
330
9CA
100
AcDbProxyObject
 90
      499
 91
      528
 93
      373
310
40A45EAA9025691424099000C401023200300043104018C01100188010C018401B0018C00E800C400B800C00220018
330
9CA
360
0
 94
        0
1001
ACAD
1000
AcadProxyRoundTripData
1071
      522
1071
 11403297
1070
     0
  0
ACAD_PROXY_OBJECT
  5
969
102
{ACAD_REACTORS
330
961
102
}
330
9CA
100
AcDbProxyObject
 90
      499
 91
      528
 93
      445
310
40A462AA902568E8030000240D294E117CCC0104310030003000300043104018C01100188010C018401B0018C00E800C400B800C00250018
330
9CA
360
0
 94
        0
1001
ACAD
1000
AcadProxyRoundTripData
1071
      522
1071
 11403297
1070
     0
  0
ACAD_PROXY_OBJECT
  5
96A
102
{ACAD_REACTORS
330
944
102
}
330
9CA
100
AcDbProxyObject
 90
      499
 91
      528
 93
      461
310
40A46EAA9024A01F85EB51B89E224024099000D0010439002E003300310043104018C01100188010C018401B0018C00E800C400B800C00240018
330
9CA
360
0
 94
        0
1001
ACAD
1000
AcadProxyRoundTripData
1071
      522
1071
 11403297
1070
     0
  0
ACAD_PROXY_OBJECT
  5
96B
102
{ACAD_REACTORS
330
960
102
}
330
9CA
100
AcDbProxyObject
 90
      499
 91
      528
 93
      373
310
40A472AA9025693224099000D401023500300043104018C01100188010C018401B0018C00E800C400B800C00220018
330
9CA
360
0
 94
        0
1001
ACAD
1000
AcadProxyRoundTripData
1071
      522
1071
 11403297
1070
     0
  0
ACAD_PROXY_OBJECT
  5
96C
102
{ACAD_REACTORS
330
953
102
}
330
9CA
100
AcDbProxyObject
 90
      499
 91
      528
 93
      429
310
40A4BEAA90256858020000240D294E117CC8010336003000300043104018C01100188010C018401B0018C00E800C400B800C00240018
330
9CA
360
0
 94
        0
1001
ACAD
1000
AcadProxyRoundTripData
1071
      522
1071
 11403297
1070
     0
  0
ACAD_PROXY_OBJECT
  5
96D
102
{ACAD_REACTORS
330
946
102
}
330
9CA
100
AcDbProxyObject
 90
      499
 91
      528
 93
      373
310
40A4C2AA9025691924099000CC01023200350043104018C01100188010C018401B0018C00E800C400B800C00220018
330
9CA
360
0
 94
        0
1001
ACAD
1000
AcadProxyRoundTripData
1071
      522
1071
 11403297
1070
     0
  0
ACAD_PROXY_OBJECT
  5
96E
102
{ACAD_REACTORS
330
94D
102
}
330
9CA
100
AcDbProxyObject
 90
      499
 91
      528
 93
      357
310
40A4C6AA9025690924099000D80101390043104018C01100188010C018401B0018C00E800C400B800C0021001A
330
9CA
360
0
 94
        0
1001
ACAD
1000
AcadProxyRoundTripData
1071
      522
1071
 11403297
1070
     0
  0
XRECORD
  5
AAE
102
{ACAD_REACTORS
330
1F9
102
}
330
1F9
100
AcDbXrecord
102
MATERIAL
148
0.0
149
0.0
149
0.0
 93
        0
 94
       63
282
     0
 72
     1
 77
     1
171
     1
175
     1
179
     1
273
     0
  0
XRECORD
  5
1FA
102
{ACAD_REACTORS
330
1F9
102
}
330
1F9
100
AcDbXrecord
 70
     1
 90
429727718
  1
D62C5603-E3A1-4AEA-B7FB-FE5D8D0755AF
310
504B03040A0000080000CC70623B3DEE336E79000000790000001B0000006175746F6465736B2D64657369676E2D7061636B6167652E786D6C3C3F786D6C2076657273696F6E3D22312E302220656E636F64696E673D227574662D3822203F3E3C666F726D6174733E3C666F726D61743E687474703A2F2F736368656D612E
310
6175746F6465736B2E636F6D2F64657369676E2D7061636B6167652F323030393C2F666F726D61743E3C2F666F726D6174733E504B0304140006080800CC70623BD486FD9CA0000000F4000000130000005B436F6E74656E745F54797065735D2E786D6C7D8EC10E82300C865F65E91D8A1E8C310C0EEA1BF002731658846E
310
D98AC1B77784ABF1D8FE5FBFBF75BBCE937A534CCEB38643598122B6FEE978D0B0485F9C41B54DDD7D022595594E1A469170414C76A4D9A4D207E29CF43ECE46F218070CC6BECC4078ACAA135ACF422C856C0E68EA1BF5669944DDD7BCDE7B1F8E415D77AECB980613C2E4AC91FC167A2B244592486606FC29C8FD7F045B9A
310
EF7053A7E60B504B0304140006080800CC70623B853B8169EB0000007C01000008000000636F72652E786D6C8D90416EC3201045AF62CDB6C206821CC7C244919D9CA01740401C94182C03558F5F9C3852BBEB6A467FFE9B197D7EFC9E1EC5975982F5AE035262288C535E5B377690E21535501C055FBC8FBF6C503839990E
310
5619041F179FE64D52DE45E362569DD7661365082642A11EB9E920A89B99642953CC8E702F67A9EE7234257977194EC9EAE275C4EABCCF5EAD5940D4AC6F0E35A568B8F43562CD7046CD199FD07E60174276A7BE677B5EADB0E0D14EEFFB6A31321A0D82627C4084204C3F096B71DD52F6819B16635EADF63F509AF53FA164
310
5DDCD1EDDD17164090FCC8732078B56691CB33A85CD7DCC40F504B0304140006080800CC70623B55019EA25F0000007C00000007000000636E782E786D6C4DCB3B0E80201045D1AD90E915ED2CF8AC45050C11660C8261F98AB1B07AC9C97D42D718D865D3E909258CFD00CCE24AC6E326A164D74DC0B4128928FF32603847
310
2BA13128B1252AC747C6BAB984FC68F0B87FE8960A5C09FE86CFB69FBA01504B0304140006080800CC70623BDBABAAF470010000D40300000C0000006662782F636F72652E786D6CC553D16E823014FD95A6AF4B694182CC941A83FA05FB810A9511A125A5257EFE2E82712ECEB8A7F100CD39F7F69E734AF9FADC366850B6
310
AF8DCE7018308C942E4C59EB2AC3DE1D498AD15A706B8CFB56869196ADCAF00863C12B6B7C374385D14E6907A836A59A41D9F7CA615434B0C8705F7CAA5606D23BA8E84F41278B93AC54100640439DE0BDB320004D43C63716C7C399D30917DCFBBA9CD9BA8469F5B156168B24CED3F7248AC8769F27244EB73B92EED8862C
310
B7F13E0C179B3C8F979C8ECD82BBBABDAA2BAC924E9558448CBD9330242CFA08E3154B5651FCC6D215639C8EE5774DBE2B5F6CF2B5768B68963BB5F5588420E442FC700B1139D4CB01F450C1E918227C2E09DF070D8140C84E1E9AAB8F1340832A9CB13130A5F1376A908D57309505ECF2A0DF179C4E9D30F5B239B87E3823
310
7A79C6F31DE1A8A5AEC08474B03C7837EAE4938639B44E5932B833D2C6B6B279CDC613877FA26EE21F4A2A4C63EC7F29A2F301D1F9F7A0E37D145F504B0304140006080800CC70623B9C113CC27E0000009D0000000B0000006662782F636E782E786D6C4DCCDF0A83201C86E15B91DFB94BFB330DD428C8FB886521330DA7
310
6397BF1A1DECE883878F57749FCDA1B7892F1BBC047A23808C7F84D9FA55424E0BE6803A256208E9EF06C84F9B91703228B1C690F78B66B34CD9A5439DF5CF0BFBF65E35BCA1B8D6A5C6F540381E886698B5741C695F9503EBA150A2F8958E3DC3EA0B504B0304140006080800CC70623B7DF2F77C2A010000120200003100
310
00006662782F41393633353835312D344632462D344230382D423046372D3739314545314133324237412F636F72652E786D6C8D51DB8EC22014FC15C2939B0D2DB4B45643319AE817EC0F6041255A68B86CFCFC856D4D76DF7CE190393373060EDB3DC707F856CE6B6B7A480A0C81328395DA5C7B18C3057510EC3873D686
310
3F34088C18550F330C39BB3A1BA7051AAC09CA84841A2BD5020AEF55806078A44B0FFD7053A328440C89E1EFC52486BBB8AA8214A99D789CF9E05200300FC927E4FB4D5B375D43103D5527440FB843077C5AA3F5861C8F645F5787F59E95B390B318B55CE45AA638FAA2957BD7248B390B7A7CC51F9C124149C82B8C378810
310
84AB2F42B7B8DD56F413775B8C5999E9FF4471926F8AA236A1AE96B8B3CC434E5839373893369E1FAF30EA395917409EB7F26AF8801C171837A4A6AC9C89E9F9C9B1A58BA30FD6A5EF5DDDCF894B9AD9B6A59C957943A9FCAE2FD5BC4DFE03504B0304140006080800CC70623BAD7543B64E01000033030000300000006662
310
782F41393633353835312D344632462D344230382D423046372D3739314545314133324237412F636E782E786D6CD593CD6EC32010845F0571AD6CE3D48AD20813A9873E410FBD12D82434182C7EAAE6EDBB2424CD25871E7B41D6EC30B3FA84F9E67BB2E40B4234DE8DB46F1925E094D7C6ED479AD3AE5951B2113C789FEE
310
6C943839C1488B4C05DF079FE72A69D8C96C13AAD6B8631503449F83828872B949AC57D26200B826A308D316B4064D6E46FCDA41C05550DC9E483A00797BFD207EFB092A45DE9514C1BBD22178396BD39D891265658C238DEA00936C654E5E433CB65A26D9F6EDB5EBC14EBF49A45CB856E66048291F6939A9A81BB5C89177
310
38143CA680F4AA299D66A042CEB3354A2684DC9D8D178FE0D9B8B41CAAD720F880EE7EF93C0C18769E099ECC04D5A102C8049A8A05632F4DDF376CF1DE0F6BB65C2F8627B65A33C6BB62177CEBBDAD973006829F89F22E814B54F4BC2BE347F8AA8F681390B50FA73F804400B5F542E796F19FF974E7F78DB802FE05E20750
310
4B0304140006080800CC70623BE75B7789680500003C100000340000006662782F41393633353835312D344632462D344230382D423046372D3739314545314133324237412F6F626A656374732E786D6CAD575B8F9B3818FD2B887D06C22499CB8AA1CA655245D5B455A356FB305264C061D8018C6C3393D95FBFC7600890
310
A4CD5EF210B0B1BFEBF98E3F7B1FF6596ABC522E1296DF9BAE3D320D9A872C4AF2F8DE2CE5CEBA358D0FBEC719939D65A691938CDE9B6ADAF4BD98B3B2D05311DD91329583D9D5FC0F438434A7A611A644887B5384CF34233629258BA878B12322891DEFF6B66BD70BFB62634E8AE781D082709A4B588AF91C528CDA28B73F
310
1C998EEF39EABBEFA97FBD6A7C7E9553F9D3D79FE442923C3C523610337627CB87ABE99D359D4CC6D6E4FACAB5E6ABF9D2726FC6A3C5F56271377BB88362213924694B38DD99FE47C48627A1E7D49F5A8BB5E1A74C0A599ED3B0F21F1E56366B89112D681E218F0915D0D6F17AD41FBA2A369DCF6335D62ABBD39779D5DDD1
310
11D4D8DE3CBB96B2E04FB8202E41051754A1AA8E8F76B4C6DFE810B580B1547F4B84911149794252234D024EF8BBE963A95AE27B3D310A9D5C215C7960FAEE415ED75694C6AFB17BCACA5D99A60A9AA65F217B0BFC53292ACB92BF283FAD0D3621576592CB5BED907C2FA8E9DF794E35E97BEA31BED21FEB401ABB94C44839
310
DCACBF0E1C5DA8DA5B2F4DFFD32AD86F543D9E565E7056502E157C00AD2671CD534549AB752FCA9CDA00677A313F04E51B22FF19E57B300579E3C97EB29F682D92935CEC18CF901B7B54FD8C51F362B56FC72FE0B3C1EAE335EDCCBF5AEC39ADB17DC238973F804BA5E6F6BFE7AF1FB32E523BE9F3BD571418E3631DCA4D48
310
5250CF639223210A9446CA30052EDF057BD35F8329C1ECD84552BF0DC8D18BE7BCE23BFE6BD960AB4A7DE79923A103BEBD80F911CBAA2C60DB19B01CF164A5583B772EE6D3FFA56666CBCDA74DC97724A48F9A58967497E489C4D979006FD7A05E227A1EBDD0F737C623387A9C844D3709995625106D157315F8B8392CD4E0
310
A0B9A720C4BE9829CEF37EA1E13111214D53925356365ADA634861B52519DD27A00AEB808EAF0628E6F435519D446F45CF2C9CF5214F0A15B2F6D06B79DA3EE3CBF7F56780D2F4E7EF73A0F5E5B02A38D07DC852C6B7C1FBB6664213E0C39E3EBA7FF4E1AD23EA2829407C85E586727488B751B2DB9502BC7B228A3FD68B6E
310
A65A22397E690AA8D158D7E404EC8CDA235CC3B7D1898680131CEC2CDF2638C65196279577750F15884AEE19F94199155B92B13297978469D4F8D358DF0AEF7631E28DC8F0D9F437D5D39A83B2231A1D52D543813A824EF8D44BCFF2FA6A31BD1E8DAD87F1CCB526B3879935BF59CDADD5C37479BB1CDD4CA7B3556B516589
310
EF352754B706114D9C885EC9131DE6EFEB43D99AFE2391C2F958179413D7CFEF6B1B6DB1E7600F00DE6E5C67454A339A4BA2E0FBA85ED26F045D454F463DBFCE484C2F90F2E5E3666003662ED8F755951A7D1BECD5B30B550B2785C8E7320B7292A4838DDA71BBC863ED7613CAF659337A3354231D4FF4A182A54904C2898C
310
98B28C4AD0CE056CCF332A80986E571EE9DBC305BB5FEB7E509220A58D25CF042D712A806AC0AD0C657FDEF80D2D9CEAA2EE4D1C76F60BFE74219A06527D6F82DF6412526107381E55E353090704D085B52408A8913C4ED159D79BDA71BB4BC506F4831350EB6F975CD22D69BF7AC49B91A2C0A9DDA3D5CA36AD20FC478E37
310
E61844E2352865EBCB61A275A65283CAAA9DD27703B4102F5AF51EF5F573B75CBB5AD38BC845F7A49F82A0966A49C2E3EA5EA0ECD326CD965F1DB402C6FA8B51A4658C5C5E2EC9E214602E55810345408596591009A82E7E7FFACA19EEA299B14A0081A705CB3296EBC14CDF658DCD336EA6D1136881AAEB87B81AB9EE53D5
310
F5EB8BC8362082DA24122F98680A4E7930C01A0079749CEA14382A0783E5EBA5A10F8C098456A03D6A4AEB6BB881E2513747552A5DB22C7EDAF83BD5528081A365F7FF06504B0304140006080000CC70623B000000000000000000000000350000006662782F41393633353835312D344632462D344230382D423046372D37
310
39314545314133324237412F76657274696365732E62696E504B0304140006080800CC70623BF270F1330600000004000000360000006662782F41393633353835312D344632462D344230382D423046372D3739314545314133324237412F747269616E676C65732E62696E636660600000504B0304140006080000CC7062
310
3B000000000000000000000000370000006662782F41393633353835312D344632462D344230382D423046372D3739314545314133324237412F617474726962757465732E62696E504B0304140006080800CC70623B08DA0BD19000000041010000360000006662782F41393633353835312D344632462D344230382D4230
310
46372D3739314545314133324237412F6469726563746F72792E786D6C858F410AC3201045AF22B36F53E9A60B35CBEEBAE80D244E44489C6234F4F835464A48035D0DF398FF9F8AF63D0E6CC63039F212F8F9020C7D47C6792B21C5FE7403D62A1188E2E60C98D7234A5830286103A55745067B9D86B8A3CF9C7F90C11DE6
310
07FB144396D7B6A82D282E9A152AD114D5EF2CB866EEE831B8EEA07A7BB5A8D7D61A2BAAEB7FD5F70921FF497D00504B0304140006080800CC70623BEDD1DC58FD000000A00100003B0000006662782F41393633353835312D344632462D344230382D423046372D3739314545314133324237412F7265736F75726365732F
310
636F72652E786D6C8D504B6E833010BD0A9A6D65B00922041947112427E8052C33A156828DFCA97AFC9A40A576D7CDCCE87D344F8F9FBFE667F689CE6B6B3A6039850C8DB2A336530731DC4903D95970676DF82583CCC8193B5861107C72362E3BA4AC096842428D1D7107A5F7182053CF7474E0D507CE32973124857FE48B
310
540F3961CEF244279DE03EB81420DB9EAC1384436FA353E879B1B182C7A8C75DA3C7F453DF353A1075D537A7BA6464B8F535A99AE14A9A2BBD90E350DD183B5CFABE3AF262350B1EF4FC9351399401471025A527C218A1E53BAB5A5AB765F5469B96525EACF23FA6B88CFF34456DC2A1DCE36E360F82A5202F42F062ED2BAD
310
579969AFDD8A6F504B010214000A0000080000CC70623B3DEE336E79000000790000001B00000000000000000000000000000000006175746F6465736B2D64657369676E2D7061636B6167652E786D6C504B01021400140006080800CC70623BD486FD9CA0000000F40000001300000000000000000000000000B20000005B
310
436F6E74656E745F54797065735D2E786D6C504B01021400140006080800CC70623B853B8169EB0000007C010000080000000000000000000000000083010000636F72652E786D6C504B01021400140006080800CC70623B55019EA25F0000007C000000070000000000000000000000000094020000636E782E786D6C504B
310
01021400140006080800CC70623BDBABAAF470010000D40300000C00000000000000000000000000180300006662782F636F72652E786D6C504B01021400140006080800CC70623B9C113CC27E0000009D0000000B00000000000000000000000000B20400006662782F636E782E786D6C504B01021400140006080800CC70
310
623B7DF2F77C2A010000120200003100000000000000000000000000590500006662782F41393633353835312D344632462D344230382D423046372D3739314545314133324237412F636F72652E786D6C504B01021400140006080800CC70623BAD7543B64E010000330300003000000000000000000000000000D2060000
310
6662782F41393633353835312D344632462D344230382D423046372D3739314545314133324237412F636E782E786D6C504B01021400140006080800CC70623BE75B7789680500003C10000034000000000000000000000000006E0800006662782F41393633353835312D344632462D344230382D423046372D3739314545
310
314133324237412F6F626A656374732E786D6C504B01021400140006080000CC70623B0000000000000000000000003500000000000000000000000000280E00006662782F41393633353835312D344632462D344230382D423046372D3739314545314133324237412F76657274696365732E62696E504B01021400140006
310
080800CC70623BF270F133060000000400000036000000000000000000000000007B0E00006662782F41393633353835312D344632462D344230382D423046372D3739314545314133324237412F747269616E676C65732E62696E504B01021400140006080000CC70623B0000000000000000000000003700000000000000
310
000000000000D50E00006662782F41393633353835312D344632462D344230382D423046372D3739314545314133324237412F617474726962757465732E62696E504B01021400140006080800CC70623B08DA0BD1900000004101000036000000000000000000000000002A0F00006662782F41393633353835312D344632
310
462D344230382D423046372D3739314545314133324237412F6469726563746F72792E786D6C504B01021400140006080800CC70623BEDD1DC58FD000000A00100003B000000000000000000000000000E1000006662782F41393633353835312D344632462D344230382D423046372D3739314545314133324237412F7265
310
736F75726365732F636F72652E786D6C504B0506000000000E000E0080040000641100000000
  0
XRECORD
  5
AAF
102
{ACAD_REACTORS
330
1F7
102
}
330
1F7
100
AcDbXrecord
102
MATERIAL
148
0.0
149
0.0
149
0.0
 93
        0
 94
       63
282
     0
 72
     1
 77
     1
171
     1
175
     1
179
     1
273
     0
  0
XRECORD
  5
1F8
102
{ACAD_REACTORS
330
1F7
102
}
330
1F7
100
AcDbXrecord
 70
     1
 90
429727718
  1
30362254-06B7-45E0-A893-8CFA70E3D6BC
310
504B03040A0000080000CC70623B3DEE336E79000000790000001B0000006175746F6465736B2D64657369676E2D7061636B6167652E786D6C3C3F786D6C2076657273696F6E3D22312E302220656E636F64696E673D227574662D3822203F3E3C666F726D6174733E3C666F726D61743E687474703A2F2F736368656D612E
310
6175746F6465736B2E636F6D2F64657369676E2D7061636B6167652F323030393C2F666F726D61743E3C2F666F726D6174733E504B0304140006080800CC70623BD486FD9CA0000000F4000000130000005B436F6E74656E745F54797065735D2E786D6C7D8EC10E82300C865F65E91D8A1E8C310C0EEA1BF002731658846E
310
D98AC1B77784ABF1D8FE5FBFBF75BBCE937A534CCEB38643598122B6FEE978D0B0485F9C41B54DDD7D022595594E1A469170414C76A4D9A4D207E29CF43ECE46F218070CC6BECC4078ACAA135ACF422C856C0E68EA1BF5669944DDD7BCDE7B1F8E415D77AECB980613C2E4AC91FC167A2B244592486606FC29C8FD7F045B9A
310
EF7053A7E60B504B0304140006080800CC70623B1EC5D7A3EB0000007C01000008000000636F72652E786D6C8D90416EC3201045AF82665B6103C6756C6122AB4D4ED00B204C5C94182C03558F5F9C3852BBEB6A467FFE9B197D71FC9E6FE8CBACC17AD7032D0820E3B41FAD9B7A48F1820F808E52ACDEC75F36404ECDA687
310
4D0629A6D5A76597B477D1B89855E747B38B2A041301E95B6E7A08FAD3CCAA50296647B8168BD2573599823EBB0CA76447F43862C7BCCF5EAC59410E4DDD9C7973C2755553CCCFA4C603E3040F1565ED3B1FDE4E432BCA0D9622DAF9795FAF464533826484B498524CD807E51D79ED187F21878E10516EF63F505AC67F42C9
310
BA58B1FDDD071640D2FCC87D2045B96591CB3DA85CB7DCE40F504B0304140006080800CC70623B55019EA25F0000007C00000007000000636E782E786D6C4DCB3B0E80201045D1AD90E915ED2CF8AC45050C11660C8261F98AB1B07AC9C97D42D718D865D3E909258CFD00CCE24AC6E326A164D74DC0B4128928FF32603847
310
2BA13128B1252AC747C6BAB984FC68F0B87FE8960A5C09FE86CFB69FBA01504B0304140006080800CC70623B8C9102E971010000D40300000C0000006662782F636F72652E786D6CC5535B6E833010BC8AE5DF0A6C08340F1947A84D4ED00B38C6A128602363A31CBFCB234A53A551FA553EC09AD9F5CE8C31DB9E9B1AF5CA
310
7695D1198E428A91D2D214952E33ECDD315861B4E5CC1AE3BE9561A445A3323CC098B3D21ADFCE9034DA29ED00D5A6503328BA4E398C640D8B0C77F253352214DE4145770A5B214FA2546114020D759C75CE8200340D19DE981F0F6746269C33EFAB6266AB02A655C74A59CCF365BADC27CB5D902ED22848F6340DF238A141
310
BE88E2F57B92BFEDF23523433367AE6A2EEAA455C2A902F398D2751045018D3FA264435F3771F242571B4A1919CA6F9A7C5B3CD9E42BED16F12C776AEB308F40C848FC700B1139D4891EF410CEC810227CC6846F8386402064270EF5C5C709A05E49676C024C61FC95EA45ED154CA5211D1FF4FB8291A913A68E9B83EBBB33
310
E2A7673CDE118E5AE8124C0807CB8377834E366998436B950D7A7746DAD846D4CFD978E0F04FD455FC5D49D2D4C6FE9722321F10997F0F32DC47FE05504B0304140006080800CC70623BFFEA85907E0000009D0000000B0000006662782F636E782E786D6C4DCCD10A83201886E15B91FFDC95D95A811AB6F23E625948A6C3
310
E9D8E5AF46073BFAE0E1E365ED67B3E8ADC3CB78C7815C7240DA3DFC64DCC221C519D7805AC182F7F1EF06C88D9BE6703008B6049F9E274D7A1E938DBB5AE3D6131B2589BA0D3D965551E0B2EA732C9B9A624AAEB41E3A557677029960D9AFB4EF11165F504B0304140006080800CC70623B4FEEA4082C0100001202000031
310
0000006662782F39464131463745442D413632322D343644302D413938332D3331353338454246344243312F636F72652E786D6C8D515B6EC32010BC0AE2AB55850DD871ED0813254D72825EC00192A2C460F1A872FC42ED48ED5F7E00CDCECCCEB26C731F6FE05B39AFADE921293004CA082BB5B9F43086336A21D870E6AC
310
0D7F68109861543DCC30E4ECE26C9C164858139409093556AA051CBC570102714B8F1E7AF1A5C6A11862480C7F2DA6415C878B2A4891CA89C7990F2E050073937C42DE1DB7E4F87ED8A36D4329AA9B3D46DBAEAD504556557BD81DEBDD0761E52CE42C462D17B996298E3E6BE59E35C962CE821E1FF18553435012728A7187
310
0841987E927A8D9B35ADDF70BBC6989599FE4F1427F9A4286A132ABAC49D651EF234CD5CE04CDA78BA3DC2A8FB645D00B9DF8B57E215725C60BCA2A463E54C4CE327C7A65E1C7DB02E7DEFCBF594B864C5CA6CDBD49C957943E9FA5D5FBAF336F90F504B0304140006080800CC70623BAD7543B64E01000033030000300000
310
006662782F39464131463745442D413632322D343644302D413938332D3331353338454246344243312F636E782E786D6CD593CD6EC32010845F0571AD6CE3D48AD20813A9873E410FBD12D82434182C7EAAE6EDBB2424CD25871E7B41D6EC30B3FA84F9E67BB2E40B4234DE8DB46F1925E094D7C6ED479AD3AE5951B2113C
310
789FEE6C943839C1488B4C05DF079FE72A69D8C96C13AAD6B8631503449F83828872B949AC57D26200B826A308D316B4064D6E46FCDA41C05550DC9E483A00797BFD207EFB092A45DE9514C1BBD22178396BD39D891265658C238DEA00936C654E5E433CB65A26D9F6EDB5EBC14EBF49A45CB856E66048291F6939A9A81BB5
310
C8917738143CA680F4AA299D66A042CEB3354A2684DC9D8D178FE0D9B8B41CAAD720F880EE7EF93C0C18769E099ECC04D5A102C8049A8A05632F4DDF376CF1DE0F6BB65C2F8627B65A33C6BB62177CEBBDAD973006829F89F22E814B54F4BC2BE347F8AA8F681390B50FA73F804400B5F542E796F19FF974E7F78DB802FE05
310
E207504B0304140006080800CC70623B16AB87BA640500003C100000340000006662782F39464131463745442D413632322D343644302D413938332D3331353338454246344243312F6F626A656374732E786D6CAD575B6FA33818FD2B887DE6924B3BED8A326A92B68A663B534DD4D13E548A0C38942D60649B369D5FBFC7
310
600890A493BDE42160637FD7F31D7FF63E6FB3D478A55C242CBF3247B66B1A340F5994E4F19559CA8D75611A9F7D8F33263BCB4C232719BD32D5B4E97B316765A1A722BA21652A07B3B7B33F0D11D29C9A46981221AE4C113ED38CD8A4942CA2E2C58E882476BCD9DA23BB5ED8171B73523C0F841684D35CC252CCE79062D4
310
468DFA43D7747CCF51DF7D4FFDEB5593E3AB9CCA9FBEFE241792E4E19EB28198C968BAB8199F5D5A67D3E9C49A9E8F47D6EC76B6B0469F26EEFC7C3EBFBCBEB98462213924694B38DD98FE1D62C393D073EA4FADC5DAF04326852CCF6958F90F0F2B9BB5C48816348F90C7840A68EB78EDF68723159BCEE7891A6B95DDE9D3
310
BCEAEEE8086A6C6F9E5D4B59F0175C10A7A0820BAA5055C7473B5AE3CFDD452D602CD5DF12616444529E90D448938013FE6EFA58AA96F85E4F8C42275708571E98FE6827AF6B2B4AE3D7D83D64E5A64C53054DD3AF90BD06FEA9149565C94FCA0F6B834DC85599E4F2423B24DF0B6AFA979E534DFA9E7A4CC6FA631D486393
310
921829879BF5D781A373557BCB85E97FB90DB62B558F8795179C15944B051F40AB495CF35451D26A4727654E6D8033BD98EF82F21D91FF8AF2DD9982BCF1643BDD4EB516C9492E368C67C88DED563FC36D5EACF66DFF057C3658BDBFA69DF9578B3DA735B64F18C7F20770A9D45CFCF7FCF563D6456A277DBEF78A02637CA2
310
43B90A490AEAB94F72244481D24819A6C0E59B606BFA4B3025981DBB48EAB701D97BF19C577CC77F2D1B6C55A9EF3C732474C0B727303F625995056C3B02963D9EAC146BE78EC5FCEC7FA999EBC5EACBAAE41B12D27B4D2C0BBA49F244E2ECDC81B76B502F113D8F5EE8FB1BE3111CDD4FC2AA9B844CAB1288B68AB90A7CDC
310
1C166AB0D3DC5310625FCC14E779BFD0709F8890A629C9292B1B2DED31A4B0DA928CEE135085754027E3018A397D4D5427D15BD1330B677DC8934285AC3DF45A9EB68FF8F2B8FC0A509AFEECFD0FF2DE25CC6047F7214B195F07EFEB9A094D800F7BFAE8FED187B78EA8A3A400F115961BCAD1215E47C966530AF0EE8128FE
310
58CEBB996A8964FFA529A046635D9353B0336A8F700DDF46271A024E70B0B37C9DE01847591E54DED53D54202AB947E4076556AC49C6CA5C9E1226B7F1A7B1BE15DEED62C41B91E1B3E9AFAAA735036547343A925075041DF0A9979E893B391F8FCFA6967B3EFB644DCF6E5CEBFAE272625DCC6FAF3FB93793C5F90CE1EF57
310
407342756B10D1C489E8953CD1617E5CEECAD6F4EF8914CE5D5D504E5C3F1F9736DA62CFC11E00BCDDB8CC8A9466349744C1F75EBDA4DF09BA8A9E8C7A7E9991989E20E5DBDD6A6003664ED8F7A04A8DBE0DF6EAD9B9AA858342E47399053949D2C146EDB85DE4B176BB0965FBAC19BD19AA918E27FA50C1D22402E144464C
310
59462568E704B6E71915404CB72B8FF4EDE184DDAF753F284990D2C6926782963815403548A70C657FDEF80D2D9CEAA2AE4C1C76F60BFE74219A06527D6582DF6412526107381E55E353090704D085B52408D0933C4ED159D79BDA71BB4BC506F4831350EB6F979CD22D69BF7AC49B91A2C0A9DDA3D5CA36AD20FC478E37E6
310
1844E2352865EBCB6EA275A652E3836BE04EFB400BF1A2556F515F1FBB35B2AB35BD889C744FFA1004B5544B121E57F70215746DD2F5E2C1412B602CBF19455AC6C8E5E9922C4E01E65215385004546899059180EAFCF7A707CE7017CD8CDB0410789AB32C63B91E5CEBBBACB17AC6CD347A022D5075FD106377347AAABA7E
310
7D11590744509B44E205134DC1290F06580320F78E537D3D73540E06CB970B431F185308AD40BBD794D6D77003C5A36E8EAA54BA64597CD8F83BD552A080A365F7FF06504B0304140006080000CC70623B000000000000000000000000350000006662782F39464131463745442D413632322D343644302D413938332D3331
310
353338454246344243312F76657274696365732E62696E504B0304140006080800CC70623BF270F1330600000004000000360000006662782F39464131463745442D413632322D343644302D413938332D3331353338454246344243312F747269616E676C65732E62696E636660600000504B0304140006080000CC70623B
310
000000000000000000000000370000006662782F39464131463745442D413632322D343644302D413938332D3331353338454246344243312F617474726962757465732E62696E504B0304140006080800CC70623B08DA0BD19000000041010000360000006662782F39464131463745442D413632322D343644302D413938
310
332D3331353338454246344243312F6469726563746F72792E786D6C858F410AC3201045AF22B36F53E9A60B35CBEEBAE80D244E44489C6234F4F835464A48035D0DF398FF9F8AF63D0E6CC63039F212F8F9020C7D47C6792B21C5FE7403D62A1188E2E60C98D7234A5830286103A55745067B9D86B8A3CF9C7F90C11DE607
310
FB144396D7B6A82D282E9A152AD114D5EF2CB866EEE831B8EEA07A7BB5A8D7D61A2BAAEB7FD5F70921FF497D00504B0304140006080800CC70623B0D6EF93BFE000000A00100003B0000006662782F39464131463745442D413632322D343644302D413938332D3331353338454246344243312F7265736F75726365732F63
310
6F72652E786D6C8D50596E833010BD0A9ADFCA60B334011947A8694ED00B586642AC041B79A97AFC9A40A5F6AF3F33A3B7689E1E3F7DCD8FEC139DD7D6F4C0720A191A65476DA61E62B892236427C19DB5E1970C322367EC618541F0C9D9B8EC90B226A009093576C41D94DE63804C3DD2D18357379C652E63480A7FCF17A9
310
EE72C29CE5894E3AC17D702940B63D59270887DE46A7D0F36263058F518FBB468FE9A7BE6A7420864373B8D4873369AA8691FA421B3294352543C5CAF65C0F6FEF43CB8BD52C78D0F34F46E550061C419494B6843142CB0F5677F4B52BEB177AEC28E5C52AFF638ACBF84F53D42654E51E77B379102C05791282176B5F693D
310
CB4C7BED567C03504B010214000A0000080000CC70623B3DEE336E79000000790000001B00000000000000000000000000000000006175746F6465736B2D64657369676E2D7061636B6167652E786D6C504B01021400140006080800CC70623BD486FD9CA0000000F40000001300000000000000000000000000B20000005B
310
436F6E74656E745F54797065735D2E786D6C504B01021400140006080800CC70623B1EC5D7A3EB0000007C010000080000000000000000000000000083010000636F72652E786D6C504B01021400140006080800CC70623B55019EA25F0000007C000000070000000000000000000000000094020000636E782E786D6C504B
310
01021400140006080800CC70623B8C9102E971010000D40300000C00000000000000000000000000180300006662782F636F72652E786D6C504B01021400140006080800CC70623BFFEA85907E0000009D0000000B00000000000000000000000000B30400006662782F636E782E786D6C504B01021400140006080800CC70
310
623B4FEEA4082C0100001202000031000000000000000000000000005A0500006662782F39464131463745442D413632322D343644302D413938332D3331353338454246344243312F636F72652E786D6C504B01021400140006080800CC70623BAD7543B64E010000330300003000000000000000000000000000D5060000
310
6662782F39464131463745442D413632322D343644302D413938332D3331353338454246344243312F636E782E786D6C504B01021400140006080800CC70623B16AB87BA640500003C1000003400000000000000000000000000710800006662782F39464131463745442D413632322D343644302D413938332D3331353338
310
454246344243312F6F626A656374732E786D6C504B01021400140006080000CC70623B0000000000000000000000003500000000000000000000000000270E00006662782F39464131463745442D413632322D343644302D413938332D3331353338454246344243312F76657274696365732E62696E504B01021400140006
310
080800CC70623BF270F133060000000400000036000000000000000000000000007A0E00006662782F39464131463745442D413632322D343644302D413938332D3331353338454246344243312F747269616E676C65732E62696E504B01021400140006080000CC70623B0000000000000000000000003700000000000000
310
000000000000D40E00006662782F39464131463745442D413632322D343644302D413938332D3331353338454246344243312F617474726962757465732E62696E504B01021400140006080800CC70623B08DA0BD190000000410100003600000000000000000000000000290F00006662782F39464131463745442D413632
310
322D343644302D413938332D3331353338454246344243312F6469726563746F72792E786D6C504B01021400140006080800CC70623B0D6EF93BFE000000A00100003B000000000000000000000000000D1000006662782F39464131463745442D413632322D343644302D413938332D3331353338454246344243312F7265
310
736F75726365732F636F72652E786D6C504B0506000000000E000E0080040000641100000000
  0
XRECORD
  5
AB0
102
{ACAD_REACTORS
330
173
102
}
330
173
100
AcDbXrecord
102
MATERIAL
148
0.0
149
0.0
149
0.0
 93
        0
 94
       63
282
     0
 72
     1
 77
     1
171
     1
175
     1
179
     1
273
     0
  0
XRECORD
  5
1FB
102
{ACAD_REACTORS
330
173
102
}
330
173
100
AcDbXrecord
 70
     0
 90
1673772943
  1
ECE7A1D2-D628-4531-984C-D00F80459256
310
504B03040A0000080000CC70623B3DEE336E79000000790000001B0000006175746F6465736B2D64657369676E2D7061636B6167652E786D6C3C3F786D6C2076657273696F6E3D22312E302220656E636F64696E673D227574662D3822203F3E3C666F726D6174733E3C666F726D61743E687474703A2F2F736368656D612E
310
6175746F6465736B2E636F6D2F64657369676E2D7061636B6167652F323030393C2F666F726D61743E3C2F666F726D6174733E504B0304140006080800CC70623BD486FD9CA0000000F4000000130000005B436F6E74656E745F54797065735D2E786D6C7D8EC10E82300C865F65E91D8A1E8C310C0EEA1BF002731658846E
310
D98AC1B77784ABF1D8FE5FBFBF75BBCE937A534CCEB38643598122B6FEE978D0B0485F9C41B54DDD7D022595594E1A469170414C76A4D9A4D207E29CF43ECE46F218070CC6BECC4078ACAA135ACF422C856C0E68EA1BF5669944DDD7BCDE7B1F8E415D77AECB980613C2E4AC91FC167A2B244592486606FC29C8FD7F045B9A
310
EF7053A7E60B504B0304140006080800CC70623BD9DDAED0EC0000007C01000008000000636F72652E786D6C8D90416EC3201045AF82665B61836D9CD8C2444DD39CA01740405C94182C03558F5F9C3852BBEB6A467FFE9B197D7EF89E6EE8CB2CC17A37002D0820E394D7D68D03A478C17B4007C117EFE32F1B20272733C0
310
2A83E0E3E2D3BC49CABB685CCCAAF3DA6CA20CC14440EA969B0182FA34932C648AD911AEC52CD5558EA6A0CF2EC329598D1E47ACCEFBECC59A050463A7EA5833865FEBDD0E37353BE3EE8DBDE3F6786A48D375FBF6CC78B9C282473B3DEFABC5C86834888A900E538A49F5419B9EB47DD5BC907D4F082F57FB1F28CDFA9F50
310
B22ED6D5F6EE030B20687EE43E10BC5CB3C8E51E54AE6B6EE207504B0304140006080800CC70623B55019EA25F0000007C00000007000000636E782E786D6C4DCB3B0E80201045D1AD90E915ED2CF8AC45050C11660C8261F98AB1B07AC9C97D42D718D865D3E909258CFD00CCE24AC6E326A164D74DC0B4128928FF326038
310
472BA13128B1252AC747C6BAB984FC68F0B87FE8960A5C09FE86CFB69FBA01504B0304140006080800CC70623BA24EB22D72010000D40300000C0000006662782F636F72652E786D6CC5535B6E833010BC8AE5DF0A6C5E49888CA3A6694ED00B38E05014B091B1518EDFE511A5A9D228FD2A1F60CDEC7A67C6986DCE4D8D7A
310
69BA4AAB0C073EC548AA5C17952A33ECECD15B61B4E1CC686DBF9561A44423333CC098B3D268D7CE50AE9595CA02AA74216750749DB418E5352C32DCE59FB211BE70162ABA93DF8AFC244AE9073ED050C759670D0840D390E18DF9F1706664C23973AE2A66B62A605A75ACA4C13C4976E1364A12EF355A2EBD384AF65EFA96
310
BC7B8BED2EA6719AAE16FB8491A199335B351775B991C2CA02F390D2D40B028F861F41BCA68B7518BFD0D59A524686F29B26D7164F36B94AD9289CE54E6D1DE6010819891F6E21228B3AD1831EC219194284CF98F06DD01008846CC5A1BEF83801D4CBDC6A1303536877A57A513B0953A94FC707FDBE6064EA84A9E3E6E0FA
310
EE8CF0E9198F7784A316AA0413C2C2F2E0ECA0934D1AE6D05A69BCDE9E91D2A611F573361E38FC1375157F5752AE6B6DFE4B11990F88CCBF0719EE23FF02504B0304140006080800CC70623B408A7D3B7C0000009D0000000B0000006662782F636E782E786D6C4DCCD10A83201886E15B91FFDC552A92A0064DBC8F581632
310
D3703A76F9ABD1C18E3E78F878E5F0D9027ABBFCF2292AE86E2D20171F69F6715550CB827B40839639A5F2770314A7CD293819B45C73AAFB45B35BA61ACAA1C1C7E7855C58C15BC331339661262CC762340413D68D77DA5B42298546CBE6573AF60CEB2F504B0304140006080800CC70623B449FB9BD290100001202000031
310
0000006662782F36394639363044362D344446342D343946362D394244322D3234314243333846323333332F636F72652E786D6C8D515B6EC32010BC0AE22B55850D98B871848994463E412FE002495162B07854397EA176A4F62F3F2C9A9D991D587EB84F37F0AD7D30CEF6905418026DA553C65E7A98E219ED203808EE9D
310
8B7F6810D871D23D2C3014FCE25D9A57483A1BB58D19B54EE9151C43D0110279CB971E06F9A5A7B11A53CC8C70ADE6515EC78BAE4895DB992778883E0700CB907242D17643D7E2538BD869608875438BBAE38922CAC8F1BDD90DB4691A5E2F42C153326A951B95E398B3D1FE599322163C9AE9115F7A3D46ADA0A018778810
310
84E907617BDCEE297BC5BB3DC6BC2EF47FA234AB2745C9D8D8D035EE220B50105E2F0DC1954B9FB747187D9F9D8FA0CCDB042D5FA0C015C65B42DF78BD10F3F3B363CB56C7109DCFDFBBB97E662ED92EB62D13BC2E1BCAE5777DB9966D8A1F504B0304140006080800CC70623BAD7543B64E01000033030000300000006662
310
782F36394639363044362D344446342D343946362D394244322D3234314243333846323333332F636E782E786D6CD593CD6EC32010845F0571AD6CE3D48AD20813A9873E410FBD12D82434182C7EAAE6EDBB2424CD25871E7B41D6EC30B3FA84F9E67BB2E40B4234DE8DB46F1925E094D7C6ED479AD3AE5951B2113C789FEE
310
6C943839C1488B4C05DF079FE72A69D8C96C13AAD6B8631503449F83828872B949AC57D26200B826A308D316B4064D6E46FCDA41C05550DC9E483A00797BFD207EFB092A45DE9514C1BBD22178396BD39D891265658C238DEA00936C654E5E433CB65A26D9F6EDB5EBC14EBF49A45CB856E66048291F6939A9A81BB5C89177
310
38143CA680F4AA299D66A042CEB3354A2684DC9D8D178FE0D9B8B41CAAD720F880EE7EF93C0C18769E099ECC04D5A102C8049A8A05632F4DDF376CF1DE0F6BB65C2F8627B65A33C6BB62177CEBBDAD973006829F89F22E814B54F4BC2BE347F8AA8F681390B50FA73F804400B5F542E796F19FF974E7F78DB802FE05E20750
310
4B0304140006080800CC70623B8D05915C650500003B100000340000006662782F36394639363044362D344446342D343946362D394244322D3234314243333846323333332F6F626A656374732E786D6CAD575B6FA33814FE2B887D06429276DA1565D4266D158D3A339A6846FB502932E050B66023DB74D2FDF5FB190C01
310
9276B2973C046C8ECFF53B17071F77456EBD502133CEAE6CDF9DD81665314F32965ED995DA3A17B6F5310C04E7AA47665B8C14F4CAD6DB7618A48257A5D94AE89654B91AEDDEDDFC61C998326A5B714EA4BCB265FC440BE2924AF184CA6737218AB8E976E7FA6E4338649B0A523E8D98964450A6A029F619B8588D52FE7039
310
B1BD30F0F4F730D0FF866AF6369557DB33949F31A9088B0F848DD8CCFCF9F2767A76E99CCDE733677E3EF59D9BBB9BA5E37F984D16E78BC5E5F5ED25044B25C0C96822E8D60EEFE11B91C581D77CEA34368A1F5329E68CD1B8B61F16D63A1B8E092D294B10C78C4A48EB593D192E7DED9BDEE7995E1B91FDEDD3ACEA9FE831
310
6A756F9F7D4D79F4274C90A7A04248AA51D5F8C718DAE06FB2F75AC4796EBE65D22A88A22223B995679120E2D50E41AA49C260C046A35368846B0BECD0DFF3EBEB8AD4F835768F69B9ADF25C43D30E6B646F807FAA64AD59F61715C7A54127C4AACA98BA3006A9D792DAE165E0D59B61A01FB3A9F9D838D2DAE62445C86166
310
F37564E842E7DE6A69879FEEA2DD5AE7E371E1A5E025154AC307D06A03D73EB5978C58FFA4C8E9033066E0F3BD53BEC1F39F91BE7B55103791EDE6BBB991A2046172CB4581D8B893FA674DDA17A77B3B7C413D1B511FD2743BFF8A38F03A658705E3ADF8015C3A3417FF3D7E439FF591DA0B5F18BC20C1B8981957AE6392A3
310
F43C640C01D1A0B4728E2DD4F26DB4B3C3152A252A3B4E913CEC1C72F012782FF88EFF8637AA552DBEF76408E8A8DE9E50F9E1CB3A2DA0DB1B6039A893B56063DC5B3E3FFB5F72E67AB9FEB4AEC496C4F4C1149625DD662C53E89D7BF0F6151A046260D1337DFDC94502430F83B0EE07A130A224BCAD7DAE1D9FB6CD422FF6
310
920702629C4BB9AE79C12F243C6432A6794E18E5552BA56B431AAB5D91317302B2B071E86C3A42B1A02F999E24061403B5D0EB639195DA655DD3EBEAB4FB862DDF579F014AD0E73C22F99E28DA57FB98E75C6CA2D74D53086D600F4786E0FE3144B771A8A7B900F03594DB8A633CBC49B2EDB69228BB479CF863B5E807AAAB
310
23872F6DFEB4129B949CA33823F58830E86D65621E10047D9DB34D862E8EAC3C2ABC2F7B2C40D67CDFE01F5545B92105AF983AC54D93D69E56FB8E797F88913F898A9FEC705D3F9D1B54EC8426FB500D40A03BD0119B06E1B95DDC7EB8F6975367793EBD70E66733DFB9BC982F9CE564727731999F5D4ECFCE3B8D6A4DC2A0
310
6D50FD148437D110834A64C6CDDF57FBACB5C307A2A477DFE4939736CFEF2B175371E0E10CF0DD1D5C15654E0BCA14D1E87DD02FF93782A162C0A3D95F1524A52770F972BF1EE9809D13CE7DD599467F8ECE9ADD85CE85A34CD45355448C64F9E8A031DC2D596ACC6E5DD93D9B82DE2EF5CAF81363A8E47996A0DE24564A79
310
4115AACE09C55E14540231FDA13C319787134EBF34E3A022514E5B4D9E0826E25C02D5805B15ABE1BEF51B26383D445DD9E875EE33FE4C22DA16427D65A3BCA92CA6D28DD01DF5DC53330704308475351050232CCD31583787BA75774AFB06E5070DD0C8EF484E19968C5D83BA5B90B244D31E54D55A372320FE4786B7EA58
310
44E135AA5467CB7EA333A61683CC6A8C3257034C10CF46F40EF9F5BE59BE5BD30C3C72D235E95D10345C1D45445A5F0BB47E46A5EBE5570F9380B5FA629579952296A773720405982B9DE04011506178964401AA8BDF1FBF0A8EAB6861DD6580C0E38217056766716DAEB2D6FA0917D3E4116581EADB879C4E7CFFB11EFACD
310
3D641311495D92C8676CB409A72D18610D803CE8A626049E8EC1887CB5B44CC39883690DDA8399B4B9855B481E7D71D4A9D22F96E5BB73BF5793020C02137BF837504B0304140006080000CC70623B000000000000000000000000350000006662782F36394639363044362D344446342D343946362D394244322D32343142
310
43333846323333332F76657274696365732E62696E504B0304140006080800CC70623BF270F1330600000004000000360000006662782F36394639363044362D344446342D343946362D394244322D3234314243333846323333332F747269616E676C65732E62696E636660600000504B0304140006080000CC70623B0000
310
00000000000000000000370000006662782F36394639363044362D344446342D343946362D394244322D3234314243333846323333332F617474726962757465732E62696E504B0304140006080800CC70623B08DA0BD19000000041010000360000006662782F36394639363044362D344446342D343946362D394244322D
310
3234314243333846323333332F6469726563746F72792E786D6C858F410AC3201045AF22B36F53E9A60B35CBEEBAE80D244E44489C6234F4F835464A48035D0DF398FF9F8AF63D0E6CC63039F212F8F9020C7D47C6792B21C5FE7403D62A1188E2E60C98D7234A5830286103A55745067B9D86B8A3CF9C7F90C11DE607FB14
310
4396D7B6A82D282E9A152AD114D5EF2CB866EEE831B8EEA07A7BB5A8D7D61A2BAAEB7FD5F70921FF497D00504B0304140006080800CC70623BCA768048FE000000A00100003B0000006662782F36394639363044362D344446342D343946362D394244322D3234314243333846323333332F7265736F75726365732F636F72
310
652E786D6C8D50596E833010BD0A9ADFCA60D600328E9AA639412F609909B1126CE4A5EAF16B0295DABFFECC8CDEA2797AECF8353F924FB44E193D409E5248504B332A3D0D10FC95B4901C39B3C6F85F3248B49871801506CE266BC2B243D2688FDA47549B11775038871E12F988C7004EDE7016A9083E2ADC3D5D84BC8B09
310
D33C8D74D471E6BC8D0192EDC93A815B742658898E651BCB59086ADC356A8C3FD555A1055ED7E7E254D615792D0F075295F585746FF53B694EE78A565DD736979A65AB9933AFE69F8CD2A2F038022F28ED489E135A7CE4554F9BBEA85E68DB53CAB255FEC71496F19FA6A0B42F8B3DEE6673C0F318E4497096AD7DC5F52C33
310
EEB55BFE0D504B010214000A0000080000CC70623B3DEE336E79000000790000001B00000000000000000000000000000000006175746F6465736B2D64657369676E2D7061636B6167652E786D6C504B01021400140006080800CC70623BD486FD9CA0000000F40000001300000000000000000000000000B20000005B436F
310
6E74656E745F54797065735D2E786D6C504B01021400140006080800CC70623BD9DDAED0EC0000007C010000080000000000000000000000000083010000636F72652E786D6C504B01021400140006080800CC70623B55019EA25F0000007C000000070000000000000000000000000095020000636E782E786D6C504B0102
310
1400140006080800CC70623BA24EB22D72010000D40300000C00000000000000000000000000190300006662782F636F72652E786D6C504B01021400140006080800CC70623B408A7D3B7C0000009D0000000B00000000000000000000000000B50400006662782F636E782E786D6C504B01021400140006080800CC70623B
310
449FB9BD290100001202000031000000000000000000000000005A0500006662782F36394639363044362D344446342D343946362D394244322D3234314243333846323333332F636F72652E786D6C504B01021400140006080800CC70623BAD7543B64E010000330300003000000000000000000000000000D20600006662
310
782F36394639363044362D344446342D343946362D394244322D3234314243333846323333332F636E782E786D6C504B01021400140006080800CC70623B8D05915C650500003B10000034000000000000000000000000006E0800006662782F36394639363044362D344446342D343946362D394244322D32343142433338
310
46323333332F6F626A656374732E786D6C504B01021400140006080000CC70623B0000000000000000000000003500000000000000000000000000250E00006662782F36394639363044362D344446342D343946362D394244322D3234314243333846323333332F76657274696365732E62696E504B010214001400060808
310
00CC70623BF270F13306000000040000003600000000000000000000000000780E00006662782F36394639363044362D344446342D343946362D394244322D3234314243333846323333332F747269616E676C65732E62696E504B01021400140006080000CC70623B00000000000000000000000037000000000000000000
310
00000000D20E00006662782F36394639363044362D344446342D343946362D394244322D3234314243333846323333332F617474726962757465732E62696E504B01021400140006080800CC70623B08DA0BD190000000410100003600000000000000000000000000270F00006662782F36394639363044362D344446342D
310
343946362D394244322D3234314243333846323333332F6469726563746F72792E786D6C504B01021400140006080800CC70623BCA768048FE000000A00100003B000000000000000000000000000B1000006662782F36394639363044362D344446342D343946362D394244322D3234314243333846323333332F7265736F
310
75726365732F636F72652E786D6C504B0506000000000E000E0080040000621100000000
  0
ACAD_PROXY_OBJECT
  5
959
330
93A
100
AcDbProxyObject
 90
      499
 91
      528
 93
       30
310
40A78BB0
330
936
330
0
330
0
360
95A
 94
        0
1001
ACAD
1000
AcadProxyRoundTripData
1071
      520
1071
 11403297
1070
     0
  0
ACAD_PROXY_OBJECT
  5
961
330
93A
100
AcDbProxyObject
 90
      499
 91
      528
 93
       94
310
40AB89CCAD1D006000101004
330
969
330
0
330
0
360
0
 94
        0
1001
ACAD
1000
AcadProxyRoundTripData
1071
      519
1071
 11403297
1070
     0
  0
ACAD_PROXY_OBJECT
  5
965
330
93A
100
AcDbProxyObject
 90
      499
 91
      528
 93
       77
310
40AF3C363FFFC9A52020
330
913
330
0
330
0
360
0
 94
        0
1001
ACAD
1000
AcadProxyRoundTripData
1071
      518
1071
 11403297
1070
     0
  0
ACAD_PROXY_OBJECT
  5
95D
330
93A
100
AcDbProxyObject
 90
      499
 91
      528
 93
       77
310
40AF3C363FFFC8DD2020
330
91A
330
0
330
0
360
0
 94
        0
1001
ACAD
1000
AcadProxyRoundTripData
1071
      518
1071
 11403297
1070
     0
  0
ACAD_PROXY_OBJECT
  5
954
330
93A
100
AcDbProxyObject
 90
      499
 91
      528
 93
       77
310
40AF3C363FFFCBA52020
330
92E
330
0
330
0
360
0
 94
        0
1001
ACAD
1000
AcadProxyRoundTripData
1071
      518
1071
 11403297
1070
     0
  0
ACAD_PROXY_OBJECT
  5
950
330
93A
100
AcDbProxyObject
 90
      499
 91
      528
 93
       77
310
40AF3C363FFFC9152020
330
91B
330
0
330
0
360
0
 94
        0
1001
ACAD
1000
AcadProxyRoundTripData
1071
      518
1071
 11403297
1070
     0
  0
ACAD_PROXY_OBJECT
  5
960
330
93A
100
AcDbProxyObject
 90
      499
 91
      528
 93
       70
310
40AB8A1CAD26501005
330
96B
330
0
330
0
360
0
 94
        0
1001
ACAD
1000
AcadProxyRoundTripData
1071
      519
1071
 11403297
1070
     0
  0
ACAD_PROXY_OBJECT
  5
958
330
93A
100
AcDbProxyObject
 90
      499
 91
      528
 93
       70
310
40AB891CAD22901007
330
966
330
0
330
0
360
0
 94
        0
1001
ACAD
1000
AcadProxyRoundTripData
1071
      519
1071
 11403297
1070
     0
  0
ACAD_PROXY_OBJECT
  5
962
330
93A
100
AcDbProxyObject
 90
      499
 91
      528
 93
       77
310
40AF3C363FFFC9952020
330
918
330
0
330
0
360
0
 94
        0
1001
ACAD
1000
AcadProxyRoundTripData
1071
      518
1071
 11403297
1070
     0
  0
ACAD_PROXY_OBJECT
  5
95E
330
93A
100
AcDbProxyObject
 90
      499
 91
      528
 93
       30
310
40A78920
330
92F
330
0
330
0
360
95F
 94
        0
1001
ACAD
1000
AcadProxyRoundTripData
1071
      520
1071
 11403297
1070
     0
  0
ACAD_PROXY_OBJECT
  5
93F
330
93A
100
AcDbProxyObject
 90
      499
 91
      528
 93
       30
310
40A78BA8
330
935
330
0
330
0
360
940
 94
        0
1001
ACAD
1000
AcadProxyRoundTripData
1071
      520
1071
 11403297
1070
     0
  0
ACAD_PROXY_OBJECT
  5
947
330
93A
100
AcDbProxyObject
 90
      499
 91
      528
 93
       30
310
40A789D0
330
932
330
0
330
0
360
948
 94
        0
1001
ACAD
1000
AcadProxyRoundTripData
1071
      520
1071
 11403297
1070
     0
  0
ACAD_PROXY_OBJECT
  5
943
330
93A
100
AcDbProxyObject
 90
      499
 91
      528
 93
       94
310
40AB894CAD1D006000101004
330
967
330
0
330
0
360
0
 94
        0
1001
ACAD
1000
AcadProxyRoundTripData
1071
      519
1071
 11403297
1070
     0
  0
ACAD_PROXY_OBJECT
  5
93B
330
93A
100
AcDbProxyObject
 90
      499
 91
      528
 93
       77
310
40AF3C363FFFC9452020
330
91D
330
0
330
0
360
0
 94
        0
1001
ACAD
1000
AcadProxyRoundTripData
1071
      518
1071
 11403297
1070
     0
  0
ACAD_PROXY_OBJECT
  5
94D
330
93A
100
AcDbProxyObject
 90
      499
 91
      528
 93
       70
310
40AB8B8CAD21301005
330
96E
330
0
330
0
360
0
 94
        0
1001
ACAD
1000
AcadProxyRoundTripData
1071
      519
1071
 11403297
1070
     0
  0
ACAD_PROXY_OBJECT
  5
955
330
93A
100
AcDbProxyObject
 90
      499
 91
      528
 93
       77
310
40AF3C363FFFCB7D2020
330
92A
330
0
330
0
360
0
 94
        0
1001
ACAD
1000
AcadProxyRoundTripData
1071
      518
1071
 11403297
1070
     0
  0
ACAD_PROXY_OBJECT
  5
951
330
93A
100
AcDbProxyObject
 90
      499
 91
      528
 93
       77
310
40AF3C363FFFCB852020
330
929
330
0
330
0
360
0
 94
        0
1001
ACAD
1000
AcadProxyRoundTripData
1071
      518
1071
 11403297
1070
     0
  0
ACAD_PROXY_OBJECT
  5
949
330
93A
100
AcDbProxyObject
 90
      499
 91
      528
 93
       30
310
40A78950
330
930
330
0
330
0
360
94A
 94
        0
1001
ACAD
1000
AcadProxyRoundTripData
1071
      520
1071
 11403297
1070
     0
  0
ACAD_PROXY_OBJECT
  5
941
330
93A
100
AcDbProxyObject
 90
      499
 91
      528
 93
       30
310
40A78B90
330
937
330
0
330
0
360
942
 94
        0
1001
ACAD
1000
AcadProxyRoundTripData
1071
      520
1071
 11403297
1070
     0
  0
ACAD_PROXY_OBJECT
  5
945
330
93A
100
AcDbProxyObject
 90
      499
 91
      528
 93
       77
310
40AF3C363FFFC9F52020
330
920
330
0
330
0
360
0
 94
        0
1001
ACAD
1000
AcadProxyRoundTripData
1071
      518
1071
 11403297
1070
     0
  0
ACAD_PROXY_OBJECT
  5
93D
330
93A
100
AcDbProxyObject
 90
      499
 91
      528
 93
       77
310
40AF3C363FFFC98D2020
330
912
330
0
330
0
360
0
 94
        0
1001
ACAD
1000
AcadProxyRoundTripData
1071
      518
1071
 11403297
1070
     0
  0
ACAD_PROXY_OBJECT
  5
944
330
93A
100
AcDbProxyObject
 90
      499
 91
      528
 93
      126
310
40AB8A049403F0BD6A3713C448101004
330
96A
330
0
330
0
360
0
 94
        0
1001
ACAD
1000
AcadProxyRoundTripData
1071
      519
1071
 11403297
1070
     0
  0
ACAD_PROXY_OBJECT
  5
93C
330
93A
100
AcDbProxyObject
 90
      499
 91
      528
 93
       77
310
40AF3C363FFFC99D2020
330
914
330
0
330
0
360
0
 94
        0
1001
ACAD
1000
AcadProxyRoundTripData
1071
      518
1071
 11403297
1070
     0
  0
ACAD_PROXY_OBJECT
  5
946
330
93A
100
AcDbProxyObject
 90
      499
 91
      528
 93
       70
310
40AB8B9CAD23301005
330
96D
330
0
330
0
360
0
 94
        0
1001
ACAD
1000
AcadProxyRoundTripData
1071
      519
1071
 11403297
1070
     0
  0
ACAD_PROXY_OBJECT
  5
93E
330
93A
100
AcDbProxyObject
 90
      499
 91
      528
 93
       77
310
40AF3C363FFFC9AD2020
330
915
330
0
330
0
360
0
 94
        0
1001
ACAD
1000
AcadProxyRoundTripData
1071
      518
1071
 11403297
1070
     0
  0
ACAD_PROXY_OBJECT
  5
953
330
93A
100
AcDbProxyObject
 90
      499
 91
      528
 93
       94
310
40AB8BC4AD0B004000101004
330
96C
330
0
330
0
360
0
 94
        0
1001
ACAD
1000
AcadProxyRoundTripData
1071
      519
1071
 11403297
1070
     0
  0
ACAD_PROXY_OBJECT
  5
957
330
93A
100
AcDbProxyObject
 90
      499
 91
      528
 93
       77
310
40AF3C363FFFCBBD2020
330
92D
330
0
330
0
360
0
 94
        0
1001
ACAD
1000
AcadProxyRoundTripData
1071
      518
1071
 11403297
1070
     0
  0
ACAD_PROXY_OBJECT
  5
94B
330
93A
100
AcDbProxyObject
 90
      499
 91
      528
 93
       30
310
40A789B8
330
931
330
0
330
0
360
94C
 94
        0
1001
ACAD
1000
AcadProxyRoundTripData
1071
      520
1071
 11403297
1070
     0
  0
ACAD_PROXY_OBJECT
  5
94F
330
93A
100
AcDbProxyObject
 90
      499
 91
      528
 93
       70
310
40AB89B4AD22901004
330
968
330
0
330
0
360
0
 94
        0
1001
ACAD
1000
AcadProxyRoundTripData
1071
      519
1071
 11403297
1070
     0
  0
ACAD_PROXY_OBJECT
  5
952
330
93A
100
AcDbProxyObject
 90
      499
 91
      528
 93
       77
310
40AF3C363FFFCA152020
330
922
330
0
330
0
360
0
 94
        0
1001
ACAD
1000
AcadProxyRoundTripData
1071
      518
1071
 11403297
1070
     0
  0
ACAD_PROXY_OBJECT
  5
94E
330
93A
100
AcDbProxyObject
 90
      499
 91
      528
 93
       77
310
40AF3C363FFFC9FD2020
330
91C
330
0
330
0
360
0
 94
        0
1001
ACAD
1000
AcadProxyRoundTripData
1071
      518
1071
 11403297
1070
     0
  0
ACAD_PROXY_OBJECT
  5
956
330
93A
100
AcDbProxyObject
 90
      499
 91
      528
 93
       77
310
40AF3C363FFFC9C52020
330
91F
330
0
330
0
360
0
 94
        0
1001
ACAD
1000
AcadProxyRoundTripData
1071
      518
1071
 11403297
1070
     0
  0
ACAD_PROXY_OBJECT
  5
95B
330
93A
100
AcDbProxyObject
 90
      499
 91
      528
 93
       30
310
40A78A20
330
934
330
0
330
0
360
95C
 94
        0
1001
ACAD
1000
AcadProxyRoundTripData
1071
      520
1071
 11403297
1070
     0
  0
ACAD_PROXY_OBJECT
  5
963
330
93A
100
AcDbProxyObject
 90
      499
 91
      528
 93
       30
310
40A78A08
330
933
330
0
330
0
360
964
 94
        0
1001
ACAD
1000
AcadProxyRoundTripData
1071
      520
1071
 11403297
1070
     0
  0
ACAD_PROXY_OBJECT
  5
95A
330
959
100
AcDbProxyObject
 90
      499
 91
      528
 93
      137
310
4050140505640033003D00320035005A0080
1001
ACAD
1000
AcadProxyRoundTripData
1071
      521
1071
 11403297
1070
     0
  0
ACAD_PROXY_OBJECT
  5
95F
330
95E
100
AcDbProxyObject
 90
      499
 91
      528
 93
      137
310
4050140505640032003D00320030005A0080
1001
ACAD
1000
AcadProxyRoundTripData
1071
      521
1071
 11403297
1070
     0
  0
ACAD_PROXY_OBJECT
  5
940
330
93F
100
AcDbProxyObject
 90
      499
 91
      528
 93
      169
310
40501405074A53845F32003D003600300030007A0080
1001
ACAD
1000
AcadProxyRoundTripData
1071
      521
1071
 11403297
1070
     0
  0
ACAD_PROXY_OBJECT
  5
948
330
947
100
AcDbProxyObject
 90
      499
 91
      528
 93
      185
310
40501405084A53845F33003D0031003000300030008A0080
1001
ACAD
1000
AcadProxyRoundTripData
1071
      521
1071
 11403297
1070
     0
  0
ACAD_PROXY_OBJECT
  5
94A
330
949
100
AcDbProxyObject
 90
      499
 91
      528
 93
      185
310
40501405084A53845F31003D0031003000300030008A0080
1001
ACAD
1000
AcadProxyRoundTripData
1071
      521
1071
 11403297
1070
     0
  0
ACAD_PROXY_OBJECT
  5
942
330
941
100
AcDbProxyObject
 90
      499
 91
      528
 93
      121
310
4050140504640036003D0039004A0080
1001
ACAD
1000
AcadProxyRoundTripData
1071
      521
1071
 11403297
1070
     0
  0
ACAD_PROXY_OBJECT
  5
94C
330
94B
100
AcDbProxyObject
 90
      499
 91
      528
 93
      137
310
4050140505640031003D00320030005A00B1
1001
ACAD
1000
AcadProxyRoundTripData
1071
      521
1071
 11403297
1070
     0
  0
ACAD_PROXY_OBJECT
  5
95C
330
95B
100
AcDbProxyObject
 90
      499
 91
      528
 93
      137
310
4050140505640035003D00350030005A0080
1001
ACAD
1000
AcadProxyRoundTripData
1071
      521
1071
 11403297
1070
     0
  0
ACAD_PROXY_OBJECT
  5
964
330
963
100
AcDbProxyObject
 90
      499
 91
      528
 93
      169
310
4050140507640034003D0039002E00330031007A00D0
1001
ACAD
1000
AcadProxyRoundTripData
1071
      521
1071
 11403297
1070
     0
  0
ENDSEC
  0
EOF
