  0
SECTION
  2
HEADER
  9
$ACADVER
  1
AC1014
  9
$ACADMAINTVER
 70
     9
  9
$DWGCODEPAGE
  3
ANSI_936
  9
$INSBASE
 10
0.0
 20
0.0
 30
0.0
  9
$EXTMIN
 10
0.0
 20
-11.89769486507453
 30
0.0
  9
$EXTMAX
 10
326.2405962275416
 20
210.0
 30
0.0
  9
$LIMMIN
 10
0.0
 20
0.0
  9
$LIMMAX
 10
420.0
 20
297.0
  9
$ORTHOMODE
 70
     0
  9
$REGENMODE
 70
     1
  9
$FILLMODE
 70
     1
  9
$QTEXTMODE
 70
     0
  9
$MIRRTEXT
 70
     0
  9
$DRAGMODE
 70
     2
  9
$LTSCALE
 40
1.0
  9
$OSMODE
 70
    37
  9
$ATTMODE
 70
     1
  9
$TEXTSIZE
 40
2.5
  9
$TRACEWID
 40
1.0
  9
$TEXTSTYLE
  7
STANDARD
  9
$CLAYER
  8
0
  9
$CELTYPE
  6
BYLAYER
  9
$CECOLOR
 62
   256
  9
$CELTSCALE
 40
1.0
  9
$DELOBJ
 70
     1
  9
$DISPSILH
 70
     0
  9
$DIMSCALE
 40
1.0
  9
$DIMASZ
 40
2.5
  9
$DIMEXO
 40
0.625
  9
$DIMDLI
 40
3.75
  9
$DIMRND
 40
0.0
  9
$DIMDLE
 40
0.0
  9
$DIMEXE
 40
1.25
  9
$DIMTP
 40
0.0
  9
$DIMTM
 40
0.0
  9
$DIMTXT
 40
2.5
  9
$DIMCEN
 40
2.5
  9
$DIMTSZ
 40
0.0
  9
$DIMTOL
 70
     0
  9
$DIMLIM
 70
     0
  9
$DIMTIH
 70
     0
  9
$DIMTOH
 70
     0
  9
$DIMSE1
 70
     0
  9
$DIMSE2
 70
     0
  9
$DIMTAD
 70
     1
  9
$DIMZIN
 70
     8
  9
$DIMBLK
  1

  9
$DIMASO
 70
     1
  9
$DIMSHO
 70
     1
  9
$DIMPOST
  1

  9
$DIMAPOST
  1

  9
$DIMALT
 70
     0
  9
$DIMALTD
 70
     3
  9
$DIMALTF
 40
0.03937007874016
  9
$DIMLFAC
 40
1.0
  9
$DIMTOFL
 70
     1
  9
$DIMTVP
 40
0.0
  9
$DIMTIX
 70
     0
  9
$DIMSOXD
 70
     0
  9
$DIMSAH
 70
     0
  9
$DIMBLK1
  1

  9
$DIMBLK2
  1

  9
$DIMSTYLE
  2
ISO-25
  9
$DIMCLRD
 70
     0
  9
$DIMCLRE
 70
     0
  9
$DIMCLRT
 70
     0
  9
$DIMTFAC
 40
1.0
  9
$DIMGAP
 40
0.625
  9
$DIMJUST
 70
     0
  9
$DIMSD1
 70
     0
  9
$DIMSD2
 70
     0
  9
$DIMTOLJ
 70
     0
  9
$DIMTZIN
 70
     8
  9
$DIMALTZ
 70
     0
  9
$DIMALTTZ
 70
     0
  9
$DIMFIT
 70
     3
  9
$DIMUPT
 70
     0
  9
$DIMUNIT
 70
     2
  9
$DIMDEC
 70
     2
  9
$DIMTDEC
 70
     2
  9
$DIMALTU
 70
     2
  9
$DIMALTTD
 70
     3
  9
$DIMTXSTY
  7
STANDARD
  9
$DIMAUNIT
 70
     0
  9
$LUNITS
 70
     2
  9
$LUPREC
 70
     4
  9
$SKETCHINC
 40
1.0
  9
$FILLETRAD
 40
0.0
  9
$AUNITS
 70
     0
  9
$AUPREC
 70
     0
  9
$MENU
  1
.
  9
$ELEVATION
 40
0.0
  9
$PELEVATION
 40
0.0
  9
$THICKNESS
 40
0.0
  9
$LIMCHECK
 70
     0
  9
$CHAMFERA
 40
0.0
  9
$CHAMFERB
 40
0.0
  9
$CHAMFERC
 40
0.0
  9
$CHAMFERD
 40
0.0
  9
$SKPOLY
 70
     0
  9
$TDCREATE
 40
2460229.481388889
  9
$TDUPDATE
 40
2460669.46243235
  9
$TDINDWG
 40
0.1798842593
  9
$TDUSRTIMER
 40
0.1798842593
  9
$USRTIMER
 70
     1
  9
$ANGBASE
 50
0.0
  9
$ANGDIR
 70
     0
  9
$PDMODE
 70
     0
  9
$PDSIZE
 40
0.0
  9
$PLINEWID
 40
0.0
  9
$COORDS
 70
     1
  9
$SPLFRAME
 70
     0
  9
$SPLINETYPE
 70
     6
  9
$SPLINESEGS
 70
     8
  9
$ATTDIA
 70
     0
  9
$ATTREQ
 70
     1
  9
$HANDLING
 70
     1
  9
$HANDSEED
  5
BB8
  9
$SURFTAB1
 70
     6
  9
$SURFTAB2
 70
     6
  9
$SURFTYPE
 70
     6
  9
$SURFU
 70
     6
  9
$SURFV
 70
     6
  9
$UCSNAME
  2

  9
$UCSORG
 10
0.0
 20
0.0
 30
0.0
  9
$UCSXDIR
 10
1.0
 20
0.0
 30
0.0
  9
$UCSYDIR
 10
0.0
 20
1.0
 30
0.0
  9
$PUCSNAME
  2

  9
$PUCSORG
 10
0.0
 20
0.0
 30
0.0
  9
$PUCSXDIR
 10
1.0
 20
0.0
 30
0.0
  9
$PUCSYDIR
 10
0.0
 20
1.0
 30
0.0
  9
$USERI1
 70
     0
  9
$USERI2
 70
     0
  9
$USERI3
 70
     0
  9
$USERI4
 70
     0
  9
$USERI5
 70
     0
  9
$USERR1
 40
0.0
  9
$USERR2
 40
0.0
  9
$USERR3
 40
0.0
  9
$USERR4
 40
0.0
  9
$USERR5
 40
0.0
  9
$WORLDVIEW
 70
     1
  9
$SHADEDGE
 70
     3
  9
$SHADEDIF
 70
    70
  9
$TILEMODE
 70
     1
  9
$MAXACTVP
 70
    64
  9
$PINSBASE
 10
0.0
 20
0.0
 30
0.0
  9
$PLIMCHECK
 70
     0
  9
$PEXTMIN
 10
0.0
 20
0.0
 30
0.0
  9
$PEXTMAX
 10
0.0
 20
0.0
 30
0.0
  9
$PLIMMIN
 10
0.0
 20
0.0
  9
$PLIMMAX
 10
12.0
 20
9.0
  9
$UNITMODE
 70
     0
  9
$VISRETAIN
 70
     1
  9
$PLINEGEN
 70
     0
  9
$PSLTSCALE
 70
     1
  9
$TREEDEPTH
 70
  3020
  9
$PICKSTYLE
 70
     1
  9
$CMLSTYLE
  2
STANDARD
  9
$CMLJUST
 70
     0
  9
$CMLSCALE
 40
20.0
  9
$PROXYGRAPHICS
 70
     1
  9
$MEASUREMENT
 70
     1
  0
ENDSEC
  0
SECTION
  2
CLASSES
  0
CLASS
  1
ACDBDICTIONARYWDFLT
  2
AcDbDictionaryWithDefault
  3
ObjectDBX Classes
 90
        0
280
     0
281
     0
  0
CLASS
  1
ACDBPLACEHOLDER
  2
AcDbPlaceHolder
  3
ObjectDBX Classes
 90
        0
280
     0
281
     0
  0
CLASS
  1
LAYOUT
  2
AcDbLayout
  3
ObjectDBX Classes
 90
        0
280
     0
281
     0
  0
CLASS
  1
DICTIONARYVAR
  2
AcDbDictionaryVar
  3
ObjectDBX Classes
 90
        0
280
     0
281
     0
  0
CLASS
  1
TABLESTYLE
  2
AcDbTableStyle
  3
ObjectDBX Classes
 90
     4095
280
     0
281
     0
  0
CLASS
  1
MATERIAL
  2
AcDbMaterial
  3
ObjectDBX Classes
 90
     1153
280
     0
281
     0
  0
CLASS
  1
VISUALSTYLE
  2
AcDbVisualStyle
  3
ObjectDBX Classes
 90
     4095
280
     0
281
     0
  0
CLASS
  1
SCALE
  2
AcDbScale
  3
ObjectDBX Classes
 90
     1153
280
     0
281
     0
  0
CLASS
  1
MLEADERSTYLE
  2
AcDbMLeaderStyle
  3
ACDB_MLEADERSTYLE_CLASS
 90
     4095
280
     0
281
     0
  0
CLASS
  1
CELLSTYLEMAP
  2
AcDbCellStyleMap
  3
ObjectDBX Classes
 90
     1152
280
     0
281
     0
  0
CLASS
  1
EXACXREFPANELOBJECT
  2
ExAcXREFPanelObject
  3
EXAC_ESW
 90
     1025
280
     1
281
     0
  0
CLASS
  1
NPOCOLLECTION
  2
AcDbImpNonPersistentObjectsCollection
  3
ObjectDBX Classes
 90
     1153
280
     1
281
     0
  0
CLASS
  1
LAYER_INDEX
  2
AcDbLayerIndex
  3
ObjectDBX Classes
 90
        0
280
     0
281
     0
  0
CLASS
  1
SPATIAL_INDEX
  2
AcDbSpatialIndex
  3
AutoCAD 2000
 90
        0
280
     0
281
     0
  0
CLASS
  1
IDBUFFER
  2
AcDbIdBuffer
  3
ObjectDBX Classes
 90
        0
280
     0
281
     0
  0
CLASS
  1
ACDBSECTIONVIEWSTYLE
  2
AcDbSectionViewStyle
  3
ObjectDBX Classes
 90
     1025
280
     0
281
     0
  0
CLASS
  1
ACDBDETAILVIEWSTYLE
  2
AcDbDetailViewStyle
  3
ObjectDBX Classes
 90
     1025
280
     0
281
     0
  0
CLASS
  1
SORTENTSTABLE
  2
AcDbSortentsTable
  3
ObjectDBX Classes
 90
        0
280
     0
281
     0
  0
CLASS
  1
ACDBASSOC2DCONSTRAINTGROUP
  2
AcDbAssoc2dConstraintGroup
  3
ObjectDBX Classes
 90
     1025
280
     1
281
     0
  0
CLASS
  1
ACDBASSOCVALUEDEPENDENCY
  2
AcDbAssocValueDependency
  3
ObjectDBX Classes
 90
     1025
280
     1
281
     0
  0
CLASS
  1
ACDBASSOCGEOMDEPENDENCY
  2
AcDbAssocGeomDependency
  3
ObjectDBX Classes
 90
     1025
280
     1
281
     0
  0
CLASS
  1
ACDBASSOCDEPENDENCY
  2
AcDbAssocDependency
  3
ObjectDBX Classes
 90
     1025
280
     1
281
     0
  0
CLASS
  1
ASSOCDIMDEPENDENCYBODY
  2
AcDbAssocDimDependencyBody
  3
ObjectDBX Classes
 90
     1025
280
     1
281
     0
  0
CLASS
  1
ACDBASSOCVARIABLE
  2
AcDbAssocVariable
  3
ObjectDBX Classes
 90
     1025
280
     1
281
     0
  0
CLASS
  1
ACDBASSOCNETWORK
  2
AcDbAssocNetwork
  3
ObjectDBX Classes
 90
     1025
280
     1
281
     0
  0
CLASS
  1
RAPIDRTRENDERSETTINGS
  2
AcDbRapidRTRenderSettings
  3
ObjectDBX Classes
 90
     1024
280
     0
281
     0
  0
CLASS
  1
ACAD_TABLE
  2
AcDbTable
  3
ObjectDBX Classes
 90
     1025
280
     0
281
     1
  0
CLASS
  1
TABLECONTENT
  2
AcDbTableContent
  3
ObjectDBX Classes
 90
     1152
280
     0
281
     0
  0
CLASS
  1
TABLEGEOMETRY
  2
AcDbTableGeometry
  3
ObjectDBX Classes
 90
     1152
280
     0
281
     0
  0
CLASS
  1
ACAD_PROXY_OBJECT_WRAPPER
  2
AcDbProxyObjectWrapper
  3
AutoCAD 2000
 90
        0
280
     0
281
     0
  0
CLASS
  1
XRECORD
  2
AcDbXrecord
  3
ObjectDBX Classes
 90
        0
280
     0
281
     0
  0
CLASS
  1
LWPOLYLINE
  2
AcDbPolyline
  3
ObjectDBX Classes
 90
        0
280
     0
281
     1
  0
CLASS
  1
HATCH
  2
AcDbHatch
  3
ObjectDBX Classes
 90
        0
280
     0
281
     1
  0
ENDSEC
  0
SECTION
  2
TABLES
  0
TABLE
  2
VPORT
  5
8
102
{ACAD_XDICTIONARY
360
BB1
102
}
330
0
100
AcDbSymbolTable
 70
     1
  0
VPORT
  5
EA
330
8
100
AcDbSymbolTableRecord
100
AcDbViewportTableRecord
  2
*ACTIVE
 70
     0
 10
0.0
 20
0.0
 11
1.0
 21
1.0
 12
185.9451341409197
 22
86.95213022158168
 13
0.0
 23
0.0
 14
10.0
 24
10.0
 15
10.0
 25
10.0
 16
0.0
 26
0.0
 36
1.0
 17
0.0
 27
0.0
 37
0.0
 40
111.5159187355739
 41
2.100765306122449
 42
50.0
 43
0.0
 44
0.0
 50
0.0
 51
0.0
 71
     0
 72
  1000
 73
     1
 74
     3
 75
     0
 76
     1
 77
     0
 78
     0
1001
ACAD_NAV_VCDISPLAY
1070
     3
  0
ENDTAB
  0
TABLE
  2
LTYPE
  5
5
330
0
100
AcDbSymbolTable
 70
     2
  0
LTYPE
  5
14
330
5
100
AcDbSymbolTableRecord
100
AcDbLinetypeTableRecord
  2
BYBLOCK
 70
     0
  3

 72
    65
 73
     0
 40
0.0
  0
LTYPE
  5
15
330
5
100
AcDbSymbolTableRecord
100
AcDbLinetypeTableRecord
  2
BYLAYER
 70
     0
  3

 72
    65
 73
     0
 40
0.0
  0
LTYPE
  5
16
330
5
100
AcDbSymbolTableRecord
100
AcDbLinetypeTableRecord
  2
CONTINUOUS
 70
     0
  3
Solid line
 72
    65
 73
     0
 40
0.0
  0
LTYPE
  5
2D3
330
5
100
AcDbSymbolTableRecord
100
AcDbLinetypeTableRecord
  2
CENTER
 70
     0
  3
Center ____ _ ____ _ ____ _ ____ _ ____ _ ____
 72
    65
 73
     4
 40
10.16
 49
6.35
 74
     0
 49
-1.27
 74
     0
 49
1.27
 74
     0
 49
-1.27
 74
     0
  0
ENDTAB
  0
TABLE
  2
LAYER
  5
2
102
{ACAD_XDICTIONARY
360
1FF
102
}
330
0
100
AcDbSymbolTable
 70
    10
  0
LAYER
  5
10
330
2
100
AcDbSymbolTableRecord
100
AcDbLayerTableRecord
  2
0
 70
     0
 62
     7
  6
CONTINUOUS
  0
LAYER
  5
2D4
330
2
100
AcDbSymbolTableRecord
100
AcDbLayerTableRecord
  2
粗实线层
 70
     0
 62
     7
  6
CONTINUOUS
  0
LAYER
  5
2D6
330
2
100
AcDbSymbolTableRecord
100
AcDbLayerTableRecord
  2
细实线层
 70
     0
 62
     7
  6
CONTINUOUS
  0
LAYER
  5
2D8
330
2
100
AcDbSymbolTableRecord
100
AcDbLayerTableRecord
  2
DEFPOINTS
 70
     0
 62
     7
  6
CONTINUOUS
  0
LAYER
  5
2D9
330
2
100
AcDbSymbolTableRecord
100
AcDbLayerTableRecord
  2
1轮廓实线层
 70
     0
 62
     7
  6
CONTINUOUS
  0
LAYER
  5
2DB
330
2
100
AcDbSymbolTableRecord
100
AcDbLayerTableRecord
  2
3中心线层
 70
     0
 62
     1
  6
CENTER
  0
LAYER
  5
2DD
330
2
100
AcDbSymbolTableRecord
100
AcDbLayerTableRecord
  2
6文字层
 70
     0
 62
     3
  6
CONTINUOUS
  0
LAYER
  5
2DF
330
2
100
AcDbSymbolTableRecord
100
AcDbLayerTableRecord
  2
7标注层
 70
     0
 62
     4
  6
CONTINUOUS
  0
LAYER
  5
2E1
330
2
100
AcDbSymbolTableRecord
100
AcDbLayerTableRecord
  2
2细线层
 70
     0
 62
     4
  6
CONTINUOUS
  0
LAYER
  5
2E3
330
2
100
AcDbSymbolTableRecord
100
AcDbLayerTableRecord
  2
ADSK_CONSTRAINTS
 70
     0
 62
     7
  6
CONTINUOUS
  0
ENDTAB
  0
TABLE
  2
STYLE
  5
3
330
0
100
AcDbSymbolTable
 70
     5
  0
STYLE
  5
11
330
3
100
AcDbSymbolTableRecord
100
AcDbTextStyleTableRecord
  2
STANDARD
 70
     0
 40
0.0
 41
1.0
 50
0.0
 71
     0
 42
2.5
  3
arial.ttf
  4

1001
ACAD
1000
Arial
1071
       34
  0
STYLE
  5
132
330
3
100
AcDbSymbolTableRecord
100
AcDbTextStyleTableRecord
  2
ANNOTATIVE
 70
     0
 40
0.0
 41
1.0
 50
0.0
 71
     0
 42
2.5
  3
arial.ttf
  4

1001
ACADANNOTATIVE
1000
AnnotativeData
1002
{
1070
     1
1070
     1
1002
}
1001
ACAD
1000
Arial
1071
       34
  0
STYLE
  5
2E4
330
3
100
AcDbSymbolTableRecord
100
AcDbTextStyleTableRecord
  2
标准
 70
     0
 40
9.59
 41
1.0
 50
0.0
 71
     0
 42
2.5
  3

  4

1001
ACAD
1000
SimSun
1071
       34
  0
STYLE
  5
2E5
330
3
100
AcDbSymbolTableRecord
100
AcDbTextStyleTableRecord
  2
TH-GBD2M
 70
     0
 40
2.5
 41
0.8
 50
0.0
 71
     0
 42
2.5
  3
calibri.ttf
  4

1001
ACADANNOTATIVE
1000
AnnotativeData
1002
{
1070
     1
1070
     1
1002
}
1001
ACAD
1000
Calibri
1071
       34
  0
STYLE
  5
2E6
330
3
100
AcDbSymbolTableRecord
100
AcDbTextStyleTableRecord
  2
TH_GBDIM
 70
     0
 40
1.5
 41
0.8
 50
0.0
 71
     0
 42
5.0
  3
calibri.ttf
  4

1001
ACAD
1000
Calibri
1071
       34
  0
ENDTAB
  0
TABLE
  2
VIEW
  5
6
330
0
100
AcDbSymbolTable
 70
     0
  0
ENDTAB
  0
TABLE
  2
UCS
  5
7
330
0
100
AcDbSymbolTable
 70
     0
  0
ENDTAB
  0
TABLE
  2
APPID
  5
9
330
0
100
AcDbSymbolTable
 70
    21
  0
APPID
  5
12
330
9
100
AcDbSymbolTableRecord
100
AcDbRegAppTableRecord
  2
ACAD
 70
     0
  0
APPID
  5
9E
330
9
100
AcDbSymbolTableRecord
100
AcDbRegAppTableRecord
  2
ACAD_PSEXT
 70
     0
  0
APPID
  5
133
330
9
100
AcDbSymbolTableRecord
100
AcDbRegAppTableRecord
  2
ACADANNOPO
 70
     0
  0
APPID
  5
134
330
9
100
AcDbSymbolTableRecord
100
AcDbRegAppTableRecord
  2
ACADANNOTATIVE
 70
     0
  0
APPID
  5
135
330
9
100
AcDbSymbolTableRecord
100
AcDbRegAppTableRecord
  2
ACAD_DSTYLE_DIMJAG
 70
     0
  0
APPID
  5
136
330
9
100
AcDbSymbolTableRecord
100
AcDbRegAppTableRecord
  2
ACAD_DSTYLE_DIMTALN
 70
     0
  0
APPID
  5
165
330
9
100
AcDbSymbolTableRecord
100
AcDbRegAppTableRecord
  2
ACAD_MLEADERVER
 70
     0
  0
APPID
  5
217
330
9
100
AcDbSymbolTableRecord
100
AcDbRegAppTableRecord
  2
ACAD_NAV_VCDISPLAY
 70
     0
  0
APPID
  5
2E9
330
9
100
AcDbSymbolTableRecord
100
AcDbRegAppTableRecord
  2
ACAD_DSTYLE_DIMBREAK
 70
     0
  0
APPID
  5
2EA
330
9
100
AcDbSymbolTableRecord
100
AcDbRegAppTableRecord
  2
ACAD_DSTYLE_DIMRADIAL_EXTE
 70
     0
  0
APPID
  5
2EB
330
9
100
AcDbSymbolTableRecord
100
AcDbRegAppTableRecord
  2
ACAD_DSTYLE_DIMINSPECT
 70
     0
  0
APPID
  5
2EC
330
9
100
AcDbSymbolTableRecord
100
AcDbRegAppTableRecord
  2
GENIUS_GENDTOL_13
 70
     0
  0
APPID
  5
2ED
330
9
100
AcDbSymbolTableRecord
100
AcDbRegAppTableRecord
  2
ACDBBLOCKREPETAG
 70
     0
  0
APPID
  5
2EE
330
9
100
AcDbSymbolTableRecord
100
AcDbRegAppTableRecord
  2
CAXA_DRAFT_PAPERFRAME
 70
     0
  0
APPID
  5
2EF
330
9
100
AcDbSymbolTableRecord
100
AcDbRegAppTableRecord
  2
CAXA_DRAFT_BLKHIDE
 70
     0
  0
APPID
  5
490
330
9
100
AcDbSymbolTableRecord
100
AcDbRegAppTableRecord
  2
ACAD_DSTYLE_DIMJAG_POSITIO
 70
     0
  0
APPID
  5
493
330
9
100
AcDbSymbolTableRecord
100
AcDbRegAppTableRecord
  2
ACADANNOMONITORALERTICONDI
 70
     0
  0
APPID
  5
494
330
9
100
AcDbSymbolTableRecord
100
AcDbRegAppTableRecord
  2
ACAD_EXEMPT_FROM_CAD_STAND
 70
     0
  0
APPID
  5
4F3
330
9
100
AcDbSymbolTableRecord
100
AcDbRegAppTableRecord
  2
ACAD_OBJECT_NAME
 70
     0
  0
APPID
  5
758
330
9
100
AcDbSymbolTableRecord
100
AcDbRegAppTableRecord
  2
GRADIENTCOLOR1ACI
 70
     0
  0
APPID
  5
759
330
9
100
AcDbSymbolTableRecord
100
AcDbRegAppTableRecord
  2
GRADIENTCOLOR2ACI
 70
     0
  0
ENDTAB
  0
TABLE
  2
DIMSTYLE
  5
A
330
0
100
AcDbSymbolTable
 70
     5
  0
DIMSTYLE
105
1B0
330
A
100
AcDbSymbolTableRecord
100
AcDbDimStyleTableRecord
  2
STANDARD
 70
     0
  3

  4

  5

  6

  7

 40
1.0
 41
0.18
 42
0.0625
 43
0.38
 44
0.18
 45
0.0
 46
0.0
 47
0.0
 48
0.0
140
0.18
141
0.09
142
0.0
143
25.4
144
1.0
145
0.0
146
1.0
147
0.09
 71
     0
 72
     0
 73
     1
 74
     1
 75
     0
 76
     0
 77
     0
 78
     0
170
     0
171
     2
172
     0
173
     0
174
     0
175
     0
176
     0
177
     0
178
     0
270
     2
271
     4
272
     4
273
     2
274
     2
340
11
275
     0
280
     0
281
     0
282
     0
283
     1
284
     0
285
     0
286
     0
287
     3
288
     0
  0
DIMSTYLE
105
137
330
A
100
AcDbSymbolTableRecord
100
AcDbDimStyleTableRecord
  2
ANNOTATIVE
 70
     0
  3

  4

  5

  6

  7

 40
0.0
 41
2.5
 42
0.625
 43
3.75
 44
1.25
 45
0.0
 46
0.0
 47
0.0
 48
0.0
140
2.5
141
2.5
142
0.0
143
0.03937007874016
144
1.0
145
0.0
146
1.0
147
0.625
 71
     0
 72
     0
 73
     0
 74
     0
 75
     0
 76
     0
 77
     1
 78
     8
170
     0
171
     3
172
     1
173
     0
174
     0
175
     0
176
     0
177
     0
178
     0
270
     2
271
     2
272
     2
273
     2
274
     3
340
11
275
     0
280
     0
281
     0
282
     0
283
     0
284
     8
285
     0
286
     0
287
     3
288
     0
1001
ACADANNOTATIVE
1000
AnnotativeData
1002
{
1070
     1
1070
     1
1002
}
1001
ACAD_DSTYLE_DIMJAG
1070
   388
1040
1.5
1001
ACAD_DSTYLE_DIMTALN
1070
   392
1070
     0
  0
DIMSTYLE
105
27
102
{ACAD_REACTORS
330
492
330
4F8
330
553
330
5C0
330
65D
330
664
102
}
330
A
100
AcDbSymbolTableRecord
100
AcDbDimStyleTableRecord
  2
ISO-25
 70
     0
  3

  4

  5

  6

  7

 40
1.0
 41
2.5
 42
0.625
 43
3.75
 44
1.25
 45
0.0
 46
0.0
 47
0.0
 48
0.0
140
2.5
141
2.5
142
0.0
143
0.03937007874016
144
1.0
145
0.0
146
1.0
147
0.625
 71
     0
 72
     0
 73
     0
 74
     0
 75
     0
 76
     0
 77
     1
 78
     8
170
     0
171
     3
172
     1
173
     0
174
     0
175
     0
176
     0
177
     0
178
     0
270
     2
271
     2
272
     2
273
     2
274
     3
340
11
275
     0
280
     0
281
     0
282
     0
283
     0
284
     8
285
     0
286
     0
287
     3
288
     0
  0
DIMSTYLE
105
2E7
102
{ACAD_REACTORS
330
AB4
330
AA3
330
AA4
330
AAE
330
AAF
330
AB0
330
589
330
600
330
399
330
39A
330
3D9
330
3DA
330
3DB
330
3DC
102
}
330
A
100
AcDbSymbolTableRecord
100
AcDbDimStyleTableRecord
  2
TH-GBD2M
 70
     0
  3

  4

  5

  6

  7

 40
1.0
 41
4.0
 42
0.0
 43
0.38
 44
2.0
 45
0.0
 46
0.0
 47
0.0
 48
0.0
140
2.5
141
0.0
142
0.0
143
25.4
144
1.0
145
0.0
146
1.0
147
1.5
 71
     0
 72
     0
 73
     0
 74
     0
 75
     0
 76
     0
 77
     1
 78
     1
170
     0
171
     2
172
     0
173
     0
174
     0
175
     0
176
     0
177
     0
178
     3
270
     2
271
     2
272
     2
273
     2
274
     2
340
2E5
275
     0
280
     0
281
     0
282
     0
283
     1
284
     0
285
     0
286
     0
287
     3
288
     0
1001
ACAD_DSTYLE_DIMBREAK
1070
   391
1040
3.75
1001
ACAD_DSTYLE_DIMJAG
1070
   388
1040
1.5
1001
ACAD_DSTYLE_DIMTALN
1070
   392
1070
     0
  0
DIMSTYLE
105
2E8
102
{ACAD_REACTORS
330
AA9
330
AAA
330
39F
330
3A0
102
}
330
A
100
AcDbSymbolTableRecord
100
AcDbDimStyleTableRecord
  2
透镜标注
 70
     0
  3

  4

  5

  6

  7

 40
1.0
 41
4.0
 42
0.625
 43
3.75
 44
1.25
 45
0.0
 46
0.0
 47
0.0
 48
0.000000001
140
2.5
141
2.5
142
0.0
143
0.03937007874016
144
1.0
145
0.0
146
1.0
147
0.625
 71
     0
 72
     0
 73
     0
 74
     1
 75
     0
 76
     0
 77
     1
 78
     1
170
     0
171
     3
172
     1
173
     0
174
     0
175
     0
176
     0
177
     0
178
   256
270
     2
271
     2
272
     2
273
     2
274
     3
340
2E5
275
     0
280
     0
281
     0
282
     0
283
     0
284
     0
285
     0
286
     0
287
     3
288
     0
1001
ACAD_DSTYLE_DIMBREAK
1070
   391
1040
3.75
1001
ACAD_DSTYLE_DIMJAG
1070
   388
1040
1.5
1001
ACAD_DSTYLE_DIMTALN
1070
   392
1070
     0
  0
ENDTAB
  0
TABLE
  2
BLOCK_RECORD
  5
1
330
0
100
AcDbSymbolTable
 70
    20
  0
BLOCK_RECORD
  5
1F
102
{ACAD_XDICTIONARY
360
1CE
102
}
330
1
100
AcDbSymbolTableRecord
100
AcDbBlockTableRecord
  2
*MODEL_SPACE
  0
BLOCK_RECORD
  5
D2
330
1
100
AcDbSymbolTableRecord
100
AcDbBlockTableRecord
  2
*PAPER_SPACE
  0
BLOCK_RECORD
  5
36F
330
1
100
AcDbSymbolTableRecord
100
AcDbBlockTableRecord
  2
_CLOSEDBLANK
  0
BLOCK_RECORD
  5
3FE
330
1
100
AcDbSymbolTableRecord
100
AcDbBlockTableRecord
  2
*D3
  0
BLOCK_RECORD
  5
40B
330
1
100
AcDbSymbolTableRecord
100
AcDbBlockTableRecord
  2
*D4
  0
BLOCK_RECORD
  5
418
330
1
100
AcDbSymbolTableRecord
100
AcDbBlockTableRecord
  2
*D5
  0
BLOCK_RECORD
  5
424
330
1
100
AcDbSymbolTableRecord
100
AcDbBlockTableRecord
  2
*D6
  0
BLOCK_RECORD
  5
430
330
1
100
AcDbSymbolTableRecord
100
AcDbBlockTableRecord
  2
*D7
  0
BLOCK_RECORD
  5
43C
330
1
100
AcDbSymbolTableRecord
100
AcDbBlockTableRecord
  2
*D8
  0
BLOCK_RECORD
  5
58A
330
1
100
AcDbSymbolTableRecord
100
AcDbBlockTableRecord
  2
*D9
  0
BLOCK_RECORD
  5
601
330
1
100
AcDbSymbolTableRecord
100
AcDbBlockTableRecord
  2
*D10
  0
BLOCK_RECORD
  5
72D
330
1
100
AcDbSymbolTableRecord
100
AcDbBlockTableRecord
  2
*X11
  0
BLOCK_RECORD
  5
7A9
330
1
100
AcDbSymbolTableRecord
100
AcDbBlockTableRecord
  2
*T13
  0
BLOCK_RECORD
  5
A22
330
1
100
AcDbSymbolTableRecord
100
AcDbBlockTableRecord
  2
*D14
  0
BLOCK_RECORD
  5
A2F
330
1
100
AcDbSymbolTableRecord
100
AcDbBlockTableRecord
  2
*D15
  0
BLOCK_RECORD
  5
A3C
330
1
100
AcDbSymbolTableRecord
100
AcDbBlockTableRecord
  2
*D16
  0
BLOCK_RECORD
  5
A48
330
1
100
AcDbSymbolTableRecord
100
AcDbBlockTableRecord
  2
*D17
  0
BLOCK_RECORD
  5
A54
330
1
100
AcDbSymbolTableRecord
100
AcDbBlockTableRecord
  2
*D18
  0
BLOCK_RECORD
  5
A61
330
1
100
AcDbSymbolTableRecord
100
AcDbBlockTableRecord
  2
*D19
  0
BLOCK_RECORD
  5
A6E
330
1
100
AcDbSymbolTableRecord
100
AcDbBlockTableRecord
  2
*X20
  0
BLOCK_RECORD
  5
A7D
330
1
100
AcDbSymbolTableRecord
100
AcDbBlockTableRecord
  2
*T21
  0
BLOCK_RECORD
  5
A99
102
{ACAD_XDICTIONARY
360
ADA
102
}
330
1
100
AcDbSymbolTableRecord
100
AcDbBlockTableRecord
  2
A$C1F974BA8
1001
ACAD
1000
DesignCenter Data
1002
{
1070
     1
1070
     4
1002
}
  0
ENDTAB
  0
ENDSEC
  0
SECTION
  2
BLOCKS
  0
BLOCK
  5
20
330
1F
100
AcDbEntity
  8
0
100
AcDbBlockBegin
  2
*MODEL_SPACE
 70
     0
 10
0.0
 20
0.0
 30
0.0
  3
*MODEL_SPACE
  1

  0
ENDBLK
  5
21
330
1F
100
AcDbEntity
  8
0
100
AcDbBlockEnd
  0
BLOCK
  5
D4
330
D2
100
AcDbEntity
 67
     1
  8
0
100
AcDbBlockBegin
  2
*PAPER_SPACE
 70
     0
 10
0.0
 20
0.0
 30
0.0
  3
*PAPER_SPACE
  1

  0
ENDBLK
  5
D5
330
D2
100
AcDbEntity
 67
     1
  8
0
100
AcDbBlockEnd
  0
BLOCK
  5
373
330
36F
100
AcDbEntity
  8
0
100
AcDbBlockBegin
  2
_CLOSEDBLANK
 70
     0
 10
0.0
 20
0.0
 30
0.0
  3
_CLOSEDBLANK
  1

  0
LINE
  5
370
330
36F
100
AcDbEntity
  8
0
  6
BYBLOCK
 62
     0
100
AcDbLine
 10
-1.0
 20
0.1666666666666667
 30
0.0
 11
0.0
 21
0.0
 31
0.0
  0
LINE
  5
371
330
36F
100
AcDbEntity
  8
0
  6
BYBLOCK
 62
     0
100
AcDbLine
 10
0.0
 20
0.0
 30
0.0
 11
-1.0
 21
-0.1666666666666667
 31
0.0
  0
LINE
  5
372
330
36F
100
AcDbEntity
  8
0
  6
BYBLOCK
 62
     0
100
AcDbLine
 10
-1.0
 20
0.1666666666666667
 30
0.0
 11
-1.0
 21
-0.1666666666666667
 31
0.0
  0
ENDBLK
  5
374
330
36F
100
AcDbEntity
  8
0
100
AcDbBlockEnd
  0
BLOCK
  5
3FF
330
3FE
100
AcDbEntity
  8
0
100
AcDbBlockBegin
  2
*D3
 70
     1
 10
0.0
 20
0.0
 30
0.0
  3
*D3
  1

  0
LINE
  5
7C5
330
3FE
100
AcDbEntity
  8
7标注层
 62
     0
100
AcDbLine
 10
217.2542975618167
 20
138.7720594048858
 30
0.0
 11
217.2542975618167
 21
160.5656774572869
 31
0.0
  0
LINE
  5
7C6
330
3FE
100
AcDbEntity
  8
7标注层
 62
     0
100
AcDbLine
 10
226.2543668850726
 20
138.7720594048858
 30
0.0
 11
226.2543668850726
 21
160.5656774572869
 31
0.0
  0
LINE
  5
7C7
330
3FE
100
AcDbEntity
  8
7标注层
 62
     0
100
AcDbLine
 10
213.2542975618167
 20
158.5656774572869
 30
0.0
 11
209.2542975618167
 21
158.5656774572869
 31
0.0
  0
LINE
  5
7C8
330
3FE
100
AcDbEntity
  8
7标注层
 62
     0
100
AcDbLine
 10
230.2543668850726
 20
158.5656774572869
 30
0.0
 11
249.7605207312266
 21
158.5656774572869
 31
0.0
  0
SOLID
  5
7C9
330
3FE
100
AcDbEntity
  8
7标注层
 62
     0
100
AcDbTrace
 10
213.2542975618167
 20
159.2323441239536
 30
0.0
 11
213.2542975618167
 21
157.8990107906203
 31
0.0
 12
217.2542975618167
 22
158.5656774572869
 32
0.0
 13
217.2542975618167
 23
158.5656774572869
 33
0.0
  0
SOLID
  5
7CA
330
3FE
100
AcDbEntity
  8
7标注层
 62
     0
100
AcDbTrace
 10
230.2543668850726
 20
159.2323441239536
 30
0.0
 11
230.2543668850726
 21
157.8990107906203
 31
0.0
 12
226.2543668850726
 22
158.5656774572869
 32
0.0
 13
226.2543668850726
 23
158.5656774572869
 33
0.0
  0
MTEXT
  5
7CB
330
3FE
100
AcDbEntity
  8
7标注层
 62
     3
100
AcDbMText
 10
242.0074438081497
 20
161.3464466880562
 30
0.0
 40
2.5
 41
0.0
 71
     5
 72
     1
  1
\A1;9.00%%p0.20
  7
TH-GBD2M
  0
POINT
  5
7CC
330
3FE
100
AcDbEntity
  8
DEFPOINTS
 62
     0
100
AcDbPoint
 10
217.2542975618167
 20
138.7720594048858
 30
0.0
  0
POINT
  5
7CD
330
3FE
100
AcDbEntity
  8
DEFPOINTS
 62
     0
100
AcDbPoint
 10
226.2543668850726
 20
138.7720594048858
 30
0.0
  0
POINT
  5
7CE
330
3FE
100
AcDbEntity
  8
DEFPOINTS
 62
     0
100
AcDbPoint
 10
226.2543668850726
 20
158.5656774572869
 30
0.0
  0
ENDBLK
  5
400
330
3FE
100
AcDbEntity
  8
0
100
AcDbBlockEnd
  0
BLOCK
  5
40C
330
40B
100
AcDbEntity
  8
0
100
AcDbBlockBegin
  2
*D4
 70
     1
 10
0.0
 20
0.0
 30
0.0
  3
*D4
  1

  0
LINE
  5
7CF
330
40B
100
AcDbEntity
  8
7标注层
 62
     0
100
AcDbLine
 10
217.2542975618167
 20
126.2720594048858
 30
0.0
 11
217.2542975618167
 21
119.1675406300722
 31
0.0
  0
LINE
  5
7D0
330
40B
100
AcDbEntity
  8
7标注层
 62
     0
100
AcDbLine
 10
227.0249220625933
 20
126.2720594048858
 30
0.0
 11
227.0249220625933
 21
119.1675406300722
 31
0.0
  0
LINE
  5
7D1
330
40B
100
AcDbEntity
  8
7标注层
 62
     0
100
AcDbLine
 10
213.2542975618167
 20
121.1675406300722
 30
0.0
 11
209.2542975618167
 21
121.1675406300722
 31
0.0
  0
LINE
  5
7D2
330
40B
100
AcDbEntity
  8
7标注层
 62
     0
100
AcDbLine
 10
231.0249220625933
 20
121.1675406300722
 30
0.0
 11
235.0249220625933
 21
121.1675406300722
 31
0.0
  0
SOLID
  5
7D3
330
40B
100
AcDbEntity
  8
7标注层
 62
     0
100
AcDbTrace
 10
213.2542975618167
 20
121.8342072967388
 30
0.0
 11
213.2542975618167
 21
120.5008739634055
 31
0.0
 12
217.2542975618167
 22
121.1675406300722
 32
0.0
 13
217.2542975618167
 23
121.1675406300722
 33
0.0
  0
SOLID
  5
7D4
330
40B
100
AcDbEntity
  8
7标注层
 62
     0
100
AcDbTrace
 10
231.0249220625933
 20
121.8342072967388
 30
0.0
 11
231.0249220625933
 21
120.5008739634055
 31
0.0
 12
227.0249220625933
 22
121.1675406300722
 32
0.0
 13
227.0249220625933
 23
121.1675406300722
 33
0.0
  0
MTEXT
  5
7D5
330
40B
100
AcDbEntity
  8
7标注层
 62
     3
100
AcDbMText
 10
222.139609812205
 20
123.9483098608414
 30
0.0
 40
2.5
 41
0.0
 71
     5
 72
     1
  1
\A1;9.77
  7
TH-GBD2M
  0
POINT
  5
7D6
330
40B
100
AcDbEntity
  8
DEFPOINTS
 62
     0
100
AcDbPoint
 10
217.2542975618167
 20
126.2720594048858
 30
0.0
  0
POINT
  5
7D7
330
40B
100
AcDbEntity
  8
DEFPOINTS
 62
     0
100
AcDbPoint
 10
227.0249220625933
 20
126.2720594048858
 30
0.0
  0
POINT
  5
7D8
330
40B
100
AcDbEntity
  8
DEFPOINTS
 62
     0
100
AcDbPoint
 10
227.0249220625933
 20
121.1675406300722
 30
0.0
  0
ENDBLK
  5
40D
330
40B
100
AcDbEntity
  8
0
100
AcDbBlockEnd
  0
BLOCK
  5
419
330
418
100
AcDbEntity
  8
0
100
AcDbBlockBegin
  2
*D5
 70
     1
 10
0.0
 20
0.0
 30
0.0
  3
*D5
  1

  0
LINE
  5
7D9
330
418
100
AcDbEntity
  8
7标注层
 62
     0
100
AcDbLine
 10
157.0119210117168
 20
151.8970594048858
 30
0.0
 11
157.0119210117168
 21
160.1248291602503
 31
0.0
  0
LINE
  5
7DA
330
418
100
AcDbEntity
  8
7标注层
 62
     0
100
AcDbLine
 10
177.0119210117168
 20
151.8970594048858
 30
0.0
 11
177.0119210117168
 21
160.1248291602503
 31
0.0
  0
LINE
  5
7DB
330
418
100
AcDbEntity
  8
7标注层
 62
     0
100
AcDbLine
 10
161.0119210117168
 20
158.8748291602503
 30
0.0
 11
173.0119210117168
 21
158.8748291602503
 31
0.0
  0
LINE
  5
7DC
330
418
100
AcDbEntity
  8
7标注层
 62
     0
100
AcDbLine
 10
177.0119210117168
 20
158.8748291602503
 30
0.0
 11
193.7677363963324
 21
158.8748291602503
 31
0.0
  0
SOLID
  5
7DD
330
418
100
AcDbEntity
  8
7标注层
 62
     0
100
AcDbTrace
 10
161.0119210117168
 20
159.541495826917
 30
0.0
 11
161.0119210117168
 21
158.2081624935837
 31
0.0
 12
157.0119210117168
 22
158.8748291602503
 32
0.0
 13
157.0119210117168
 23
158.8748291602503
 33
0.0
  0
SOLID
  5
7DE
330
418
100
AcDbEntity
  8
7标注层
 62
     0
100
AcDbTrace
 10
173.0119210117168
 20
159.541495826917
 30
0.0
 11
173.0119210117168
 21
158.2081624935837
 31
0.0
 12
177.0119210117168
 22
158.8748291602503
 32
0.0
 13
177.0119210117168
 23
158.8748291602503
 33
0.0
  0
MTEXT
  5
7DF
330
418
100
AcDbEntity
  8
7标注层
100
AcDbMText
 10
187.3898287040247
 20
161.6326240320452
 30
0.0
 40
2.5
 41
0.0
 71
     5
 72
     1
  1
20.00{}{\H0.71x;\C3;\S 0.00^ -0.10;}
  7
TH-GBD2M
  0
POINT
  5
7E0
330
418
100
AcDbEntity
  8
DEFPOINTS
 62
     0
100
AcDbPoint
 10
157.0119210117168
 20
151.2720594048858
 30
0.0
  0
POINT
  5
7E1
330
418
100
AcDbEntity
  8
DEFPOINTS
 62
     0
100
AcDbPoint
 10
177.0119210117168
 20
151.2720594048858
 30
0.0
  0
POINT
  5
7E2
330
418
100
AcDbEntity
  8
DEFPOINTS
 62
     0
100
AcDbPoint
 10
177.0119210117168
 20
158.8748291602503
 30
0.0
  0
ENDBLK
  5
41A
330
418
100
AcDbEntity
  8
0
100
AcDbBlockEnd
  0
BLOCK
  5
425
330
424
100
AcDbEntity
  8
0
100
AcDbBlockBegin
  2
*D6
 70
     1
 10
0.0
 20
0.0
 30
0.0
  3
*D6
  1

  0
LINE
  5
7E3
330
424
100
AcDbEntity
  8
7标注层
 62
     0
100
AcDbLine
 10
156.3869210117169
 20
126.2720594048859
 30
0.0
 11
151.125432659961
 21
126.2720594048859
 31
0.0
  0
LINE
  5
7E4
330
424
100
AcDbEntity
  8
7标注层
 62
     0
100
AcDbLine
 10
156.3869210117169
 20
151.2720594048859
 30
0.0
 11
151.125432659961
 21
151.2720594048859
 31
0.0
  0
LINE
  5
7E5
330
424
100
AcDbEntity
  8
7标注层
 62
     0
100
AcDbLine
 10
152.375432659961
 20
130.2720594048859
 30
0.0
 11
152.375432659961
 21
147.2720594048859
 31
0.0
  0
SOLID
  5
7E6
330
424
100
AcDbEntity
  8
7标注层
 62
     0
100
AcDbTrace
 10
151.7087659932943
 20
130.2720594048859
 30
0.0
 11
153.0420993266277
 21
130.2720594048859
 31
0.0
 12
152.375432659961
 22
126.2720594048859
 32
0.0
 13
152.375432659961
 23
126.2720594048859
 33
0.0
  0
SOLID
  5
7E7
330
424
100
AcDbEntity
  8
7标注层
 62
     0
100
AcDbTrace
 10
151.7087659932943
 20
147.2720594048859
 30
0.0
 11
153.0420993266277
 21
147.2720594048859
 31
0.0
 12
152.375432659961
 22
151.2720594048859
 32
0.0
 13
152.375432659961
 23
151.2720594048859
 33
0.0
  0
MTEXT
  5
7E8
330
424
100
AcDbEntity
  8
7标注层
100
AcDbMText
 10
149.6176377881661
 20
138.7720594048858
 30
0.0
 40
2.5
 41
0.0
 71
     5
 72
     1
  1
25.00{}{\H0.71x;\C3;\S 0.00^ -0.10;}
  7
TH-GBD2M
 11
6.123233995736766E-17
 21
1.0
 31
0.0
  0
POINT
  5
7E9
330
424
100
AcDbEntity
  8
DEFPOINTS
 62
     0
100
AcDbPoint
 10
157.0119210117169
 20
126.2720594048859
 30
0.0
  0
POINT
  5
7EA
330
424
100
AcDbEntity
  8
DEFPOINTS
 62
     0
100
AcDbPoint
 10
157.0119210117169
 20
151.2720594048859
 30
0.0
  0
POINT
  5
7EB
330
424
100
AcDbEntity
  8
DEFPOINTS
 62
     0
100
AcDbPoint
 10
152.375432659961
 20
151.2720594048859
 30
0.0
  0
ENDBLK
  5
426
330
424
100
AcDbEntity
  8
0
100
AcDbBlockEnd
  0
BLOCK
  5
431
330
430
100
AcDbEntity
  8
0
100
AcDbBlockBegin
  2
*D7
 70
     1
 10
0.0
 20
0.0
 30
0.0
  3
*D7
  1

  0
LINE
  5
7EC
330
430
100
AcDbEntity
  8
7标注层
 62
     0
100
AcDbLine
 10
157.3652388894407
 20
97.14924146180562
 30
0.0
 11
143.465849555259
 21
97.14924146180562
 31
0.0
  0
LINE
  5
7ED
330
430
100
AcDbEntity
  8
7标注层
 62
     0
100
AcDbLine
 10
157.3652388894407
 20
84.9738251169911
 30
0.0
 11
143.465849555259
 21
84.9738251169911
 31
0.0
  0
LINE
  5
7EE
330
430
100
AcDbEntity
  8
7标注层
 62
     0
100
AcDbLine
 10
145.465849555259
 20
93.1492414618056
 30
0.0
 11
145.465849555259
 21
88.9738251169911
 31
0.0
  0
LINE
  5
7EF
330
430
100
AcDbEntity
  8
7标注层
 62
     0
100
AcDbLine
 10
145.465849555259
 20
84.9738251169911
 30
0.0
 11
145.465849555259
 21
71.18767127083657
 31
0.0
  0
SOLID
  5
7F0
330
430
100
AcDbEntity
  8
7标注层
 62
     0
100
AcDbTrace
 10
144.7991828885923
 20
93.1492414618056
 30
0.0
 11
146.1325162219256
 21
93.1492414618056
 31
0.0
 12
145.465849555259
 22
97.14924146180562
 32
0.0
 13
145.465849555259
 23
97.14924146180562
 33
0.0
  0
SOLID
  5
7F1
330
430
100
AcDbEntity
  8
7标注层
 62
     0
100
AcDbTrace
 10
144.7991828885923
 20
88.9738251169911
 30
0.0
 11
146.1325162219256
 21
88.9738251169911
 31
0.0
 12
145.465849555259
 22
84.9738251169911
 32
0.0
 13
145.465849555259
 23
84.9738251169911
 33
0.0
  0
MTEXT
  5
7F2
330
430
100
AcDbEntity
  8
7标注层
 62
     3
100
AcDbMText
 10
142.6850803244897
 20
76.08074819391345
 30
0.0
 40
2.5
 41
0.0
 71
     5
 72
     1
  1
\A1;12.18
  7
TH-GBD2M
 11
6.123233995736766E-17
 21
1.0
 31
0.0
  0
POINT
  5
7F3
330
430
100
AcDbEntity
  8
DEFPOINTS
 62
     0
100
AcDbPoint
 10
157.3652388894407
 20
97.14924146180562
 30
0.0
  0
POINT
  5
7F4
330
430
100
AcDbEntity
  8
DEFPOINTS
 62
     0
100
AcDbPoint
 10
157.3652388894407
 20
84.9738251169911
 30
0.0
  0
POINT
  5
7F5
330
430
100
AcDbEntity
  8
DEFPOINTS
 62
     0
100
AcDbPoint
 10
145.465849555259
 20
84.9738251169911
 30
0.0
  0
ENDBLK
  5
432
330
430
100
AcDbEntity
  8
0
100
AcDbBlockEnd
  0
BLOCK
  5
43D
330
43C
100
AcDbEntity
  8
0
100
AcDbBlockBegin
  2
*D8
 70
     1
 10
0.0
 20
0.0
 30
0.0
  3
*D8
  1

  0
LINE
  5
7F6
330
43C
100
AcDbEntity
  8
7标注层
 62
     0
100
AcDbLine
 10
157.3652388894407
 20
97.14924146180562
 30
0.0
 11
136.5481559650102
 21
97.14924146180562
 31
0.0
  0
LINE
  5
7F7
330
43C
100
AcDbEntity
  8
7标注层
 62
     0
100
AcDbLine
 10
157.0119210117169
 20
88.15382511699184
 30
0.0
 11
136.5481559650102
 21
88.15382511699184
 31
0.0
  0
LINE
  5
7F8
330
43C
100
AcDbEntity
  8
7标注层
 62
     0
100
AcDbLine
 10
138.5481559650102
 20
101.1492414618056
 30
0.0
 11
138.5481559650102
 21
105.1492414618056
 31
0.0
  0
LINE
  5
7F9
330
43C
100
AcDbEntity
  8
7标注层
 62
     0
100
AcDbLine
 10
138.5481559650102
 20
84.15382511699184
 30
0.0
 11
138.5481559650102
 21
80.15382511699184
 31
0.0
  0
SOLID
  5
7FA
330
43C
100
AcDbEntity
  8
7标注层
 62
     0
100
AcDbTrace
 10
137.8814892983436
 20
101.1492414618056
 30
0.0
 11
139.2148226316769
 21
101.1492414618056
 31
0.0
 12
138.5481559650102
 22
97.14924146180562
 32
0.0
 13
138.5481559650102
 23
97.14924146180562
 33
0.0
  0
SOLID
  5
7FB
330
43C
100
AcDbEntity
  8
7标注层
 62
     0
100
AcDbTrace
 10
137.8814892983436
 20
84.15382511699184
 30
0.0
 11
139.2148226316769
 21
84.15382511699184
 31
0.0
 12
138.5481559650102
 22
88.15382511699184
 32
0.0
 13
138.5481559650102
 23
88.15382511699184
 33
0.0
  0
MTEXT
  5
7FC
330
43C
100
AcDbEntity
  8
7标注层
 62
     3
100
AcDbMText
 10
135.767386734241
 20
92.65153328939867
 30
0.0
 40
2.5
 41
0.0
 71
     5
 72
     1
  1
\A1;9.00
  7
TH-GBD2M
 11
6.123233995736766E-17
 21
1.0
 31
0.0
  0
POINT
  5
7FD
330
43C
100
AcDbEntity
  8
DEFPOINTS
 62
     0
100
AcDbPoint
 10
157.3652388894407
 20
97.14924146180562
 30
0.0
  0
POINT
  5
7FE
330
43C
100
AcDbEntity
  8
DEFPOINTS
 62
     0
100
AcDbPoint
 10
157.0119210117169
 20
88.15382511699184
 30
0.0
  0
POINT
  5
7FF
330
43C
100
AcDbEntity
  8
DEFPOINTS
 62
     0
100
AcDbPoint
 10
138.5481559650102
 20
88.15382511699184
 30
0.0
  0
ENDBLK
  5
43E
330
43C
100
AcDbEntity
  8
0
100
AcDbBlockEnd
  0
BLOCK
  5
58B
330
58A
100
AcDbEntity
  8
0
100
AcDbBlockBegin
  2
*D9
 70
     1
 10
0.0
 20
0.0
 30
0.0
  3
*D9
  1

  0
LINE
  5
800
330
58A
100
AcDbEntity
  8
7标注层
 62
     0
100
AcDbLine
 10
177.0119210117169
 20
97.15382511699141
 30
0.0
 11
173.463907324724
 21
97.15382511699141
 31
0.0
  0
LINE
  5
801
330
58A
100
AcDbEntity
  8
7标注层
 62
     0
100
AcDbLine
 10
177.0119210117169
 20
88.0287468941822
 30
0.0
 11
173.463907324724
 21
88.0287468941822
 31
0.0
  0
LINE
  5
802
330
58A
100
AcDbEntity
  8
7标注层
 62
     0
100
AcDbLine
 10
175.463907324724
 20
101.1538251169914
 30
0.0
 11
175.463907324724
 21
105.1538251169914
 31
0.0
  0
LINE
  5
803
330
58A
100
AcDbEntity
  8
7标注层
 62
     0
100
AcDbLine
 10
175.463907324724
 20
84.0287468941822
 30
0.0
 11
175.463907324724
 21
71.75951612495071
 31
0.0
  0
SOLID
  5
804
330
58A
100
AcDbEntity
  8
7标注层
 62
     0
100
AcDbTrace
 10
174.7972406580573
 20
101.1538251169914
 30
0.0
 11
176.1305739913907
 21
101.1538251169914
 31
0.0
 12
175.463907324724
 22
97.15382511699141
 32
0.0
 13
175.463907324724
 23
97.15382511699141
 33
0.0
  0
SOLID
  5
805
330
58A
100
AcDbEntity
  8
7标注层
 62
     0
100
AcDbTrace
 10
174.7972406580573
 20
84.0287468941822
 30
0.0
 11
176.1305739913907
 21
84.0287468941822
 31
0.0
 12
175.463907324724
 22
88.0287468941822
 32
0.0
 13
175.463907324724
 23
88.0287468941822
 33
0.0
  0
MTEXT
  5
806
330
58A
100
AcDbEntity
  8
7标注层
 62
     3
100
AcDbMText
 10
172.6831380939548
 20
75.89413150956602
 30
0.0
 40
2.5
 41
0.0
 71
     5
 72
     1
  1
\A1;9.13
  7
TH-GBD2M
 11
6.123233995736766E-17
 21
1.0
 31
0.0
  0
POINT
  5
807
330
58A
100
AcDbEntity
  8
DEFPOINTS
 62
     0
100
AcDbPoint
 10
177.0119210117169
 20
97.15382511699141
 30
0.0
  0
POINT
  5
808
330
58A
100
AcDbEntity
  8
DEFPOINTS
 62
     0
100
AcDbPoint
 10
177.0119210117169
 20
88.0287468941822
 30
0.0
  0
POINT
  5
809
330
58A
100
AcDbEntity
  8
DEFPOINTS
 62
     0
100
AcDbPoint
 10
175.463907324724
 20
88.0287468941822
 30
0.0
  0
ENDBLK
  5
58C
330
58A
100
AcDbEntity
  8
0
100
AcDbBlockEnd
  0
BLOCK
  5
602
330
601
100
AcDbEntity
  8
0
100
AcDbBlockBegin
  2
*D10
 70
     1
 10
0.0
 20
0.0
 30
0.0
  3
*D10
  1

  0
LINE
  5
80A
330
601
100
AcDbEntity
  8
7标注层
 62
     0
100
AcDbLine
 10
177.3652388894407
 20
97.15382511699136
 30
0.0
 11
177.3652388894407
 21
110.854331502474
 31
0.0
  0
LINE
  5
80B
330
601
100
AcDbEntity
  8
7标注层
 62
     0
100
AcDbLine
 10
182.3652388894407
 20
97.20506810494112
 30
0.0
 11
182.3652388894407
 21
110.854331502474
 31
0.0
  0
LINE
  5
80C
330
601
100
AcDbEntity
  8
7标注层
 62
     0
100
AcDbLine
 10
173.3652388894407
 20
108.854331502474
 30
0.0
 11
169.3652388894407
 21
108.854331502474
 31
0.0
  0
LINE
  5
80D
330
601
100
AcDbEntity
  8
7标注层
 62
     0
100
AcDbLine
 10
186.3652388894407
 20
108.854331502474
 30
0.0
 11
199.6348400370715
 21
108.854331502474
 31
0.0
  0
SOLID
  5
80E
330
601
100
AcDbEntity
  8
7标注层
 62
     0
100
AcDbTrace
 10
173.3652388894407
 20
109.5209981691407
 30
0.0
 11
173.3652388894407
 21
108.1876648358073
 31
0.0
 12
177.3652388894407
 22
108.854331502474
 32
0.0
 13
177.3652388894407
 23
108.854331502474
 33
0.0
  0
SOLID
  5
80F
330
601
100
AcDbEntity
  8
7标注层
 62
     0
100
AcDbTrace
 10
186.3652388894407
 20
109.5209981691407
 30
0.0
 11
186.3652388894407
 21
108.1876648358073
 31
0.0
 12
182.3652388894407
 22
108.854331502474
 32
0.0
 13
182.3652388894407
 23
108.854331502474
 33
0.0
  0
MTEXT
  5
810
330
601
100
AcDbEntity
  8
7标注层
 62
     3
100
AcDbMText
 10
195.4740708063023
 20
111.6351007332432
 30
0.0
 40
2.5
 41
0.0
 71
     5
 72
     1
  1
\A1;5.00
  7
TH-GBD2M
  0
POINT
  5
811
330
601
100
AcDbEntity
  8
DEFPOINTS
 62
     0
100
AcDbPoint
 10
177.3652388894407
 20
97.15382511699136
 30
0.0
  0
POINT
  5
812
330
601
100
AcDbEntity
  8
DEFPOINTS
 62
     0
100
AcDbPoint
 10
182.3652388894407
 20
97.20506810494112
 30
0.0
  0
POINT
  5
813
330
601
100
AcDbEntity
  8
DEFPOINTS
 62
     0
100
AcDbPoint
 10
182.3652388894407
 20
108.854331502474
 30
0.0
  0
ENDBLK
  5
603
330
601
100
AcDbEntity
  8
0
100
AcDbBlockEnd
  0
BLOCK
  5
72E
330
72D
100
AcDbEntity
  8
0
100
AcDbBlockBegin
  2
*X11
 70
     1
 10
0.0
 20
0.0
 30
0.0
  3
*X11
  1

  0
LINE
  5
72F
330
72D
100
AcDbEntity
  8
细实线层
100
AcDbLine
 10
-148.5
 20
-105.0
 30
0.0
 11
148.5
 21
-105.0
 31
0.0
  0
LINE
  5
730
330
72D
100
AcDbEntity
  8
细实线层
100
AcDbLine
 10
148.5
 20
-105.0
 30
0.0
 11
148.5
 21
105.0
 31
0.0
  0
LINE
  5
731
330
72D
100
AcDbEntity
  8
细实线层
100
AcDbLine
 10
148.5
 20
105.0
 30
0.0
 11
-148.5
 21
105.0
 31
0.0
  0
LINE
  5
732
330
72D
100
AcDbEntity
  8
细实线层
100
AcDbLine
 10
-148.5
 20
105.0
 30
0.0
 11
-148.5
 21
-105.0
 31
0.0
  0
LINE
  5
733
330
72D
100
AcDbEntity
  8
粗实线层
100
AcDbLine
 10
-138.5
 20
95.0
 30
0.0
 11
-138.5
 21
-95.0
 31
0.0
  0
LINE
  5
734
330
72D
100
AcDbEntity
  8
粗实线层
100
AcDbLine
 10
-138.5
 20
-95.0
 30
0.0
 11
138.5
 21
-95.0
 31
0.0
  0
LINE
  5
735
330
72D
100
AcDbEntity
  8
粗实线层
100
AcDbLine
 10
138.5
 20
-95.0
 30
0.0
 11
138.5
 21
95.0
 31
0.0
  0
LINE
  5
736
330
72D
100
AcDbEntity
  8
粗实线层
100
AcDbLine
 10
138.5
 20
95.0
 30
0.0
 11
-138.5
 21
95.0
 31
0.0
  0
LINE
  5
737
330
72D
100
AcDbEntity
  8
粗实线层
100
AcDbLine
 10
-148.5
 20
0.0
 30
0.0
 11
-133.5
 21
0.0
 31
0.0
  0
LINE
  5
738
330
72D
100
AcDbEntity
  8
粗实线层
100
AcDbLine
 10
148.5
 20
0.0
 30
0.0
 11
133.5
 21
0.0
 31
0.0
  0
LINE
  5
739
330
72D
100
AcDbEntity
  8
粗实线层
100
AcDbLine
 10
0.0
 20
105.0
 30
0.0
 11
0.0
 21
90.0
 31
0.0
  0
LINE
  5
73A
330
72D
100
AcDbEntity
  8
粗实线层
100
AcDbLine
 10
0.0
 20
-105.0
 30
0.0
 11
0.0
 21
-95.0
 31
0.0
  0
ENDBLK
  5
73B
330
72D
100
AcDbEntity
  8
0
100
AcDbBlockEnd
  0
BLOCK
  5
7C3
330
7A9
100
AcDbEntity
  8
0
100
AcDbBlockBegin
  2
*T13
 70
     1
 10
0.0
 20
0.0
 30
0.0
  3
*T13
  1

  0
MTEXT
  5
7AA
330
7A9
100
AcDbEntity
  8
2细线层
 62
     3
100
AcDbMText
 10
60.65000000000001
 20
-3.166666666666671
 30
0.0
 40
2.5
 41
33.0
 71
     5
 72
     5
  1
{\fSimSun|b1|i0|c134|p34;S1}
  0
MTEXT
  5
7AB
330
7A9
100
AcDbEntity
  8
2细线层
 62
     3
100
AcDbMText
 10
96.65
 20
-3.166666666666671
 30
0.0
 40
2.5
 41
33.0
 71
     5
 72
     5
  1
{\fSimSun|b1|i0|c134|p34;S2}
  0
MTEXT
  5
7AC
330
7A9
100
AcDbEntity
  8
2细线层
 62
     3
100
AcDbMText
 10
21.325
 20
-9.5
 30
0.0
 40
2.5
 41
39.65
 71
     5
 72
     5
  1
{\fSimSun|b1|i0|c134|p34;形状}
  0
MTEXT
  5
7AD
330
7A9
100
AcDbEntity
  8
2细线层
 62
     3
100
AcDbMText
 10
60.65000000000001
 20
-9.5
 30
0.0
 40
2.5
 41
33.0
 71
     5
 72
     5
  1
{\fSimSun|b1|i0|c134|p34;平面}
  0
MTEXT
  5
7AE
330
7A9
100
AcDbEntity
  8
2细线层
 62
     3
100
AcDbMText
 10
96.65
 20
-9.5
 30
0.0
 40
2.5
 41
33.0
 71
     5
 72
     5
  1
{\fSimSun|b1|i0|c134|p34;凹面}
  0
MTEXT
  5
7AF
330
7A9
100
AcDbEntity
  8
2细线层
 62
     3
100
AcDbMText
 10
21.325
 20
-15.83333333333334
 30
0.0
 40
2.5
 41
39.65
 71
     5
 72
     5
  1
{\fSimSun|b1|i0|c134|p34;曲率半径}
  0
MTEXT
  5
7B0
330
7A9
100
AcDbEntity
  8
2细线层
 62
     3
100
AcDbMText
 10
60.65000000000001
 20
-15.83333333333334
 30
0.0
 40
2.5
 41
33.0
 71
     5
 72
     5
  1
{\fSimSun|b1|i0|c134|p34;无穷}
  0
MTEXT
  5
7B1
330
7A9
100
AcDbEntity
  8
2细线层
 62
     3
100
AcDbMText
 10
96.65
 20
-15.83333333333334
 30
0.0
 40
2.5
 41
33.0
 71
     5
 72
     5
  1
{\fSimSun|b1|i0|c134|p34;100.00}
  0
MTEXT
  5
7B2
330
7A9
100
AcDbEntity
  8
2细线层
 62
     3
100
AcDbMText
 10
21.325
 20
-22.16666666666667
 30
0.0
 40
2.5
 41
39.65
 71
     5
 72
     5
  1
{\fSimSun|b1|i0|c134|p34;通光孔径}
  0
MTEXT
  5
7B3
330
7A9
100
AcDbEntity
  8
2细线层
 62
     3
100
AcDbMText
 10
60.65000000000001
 20
-22.16666666666667
 30
0.0
 40
2.5
 41
33.0
 71
     5
 72
     5
  1
{\fSimSun|b1|i0|c134|p34;/}
  0
MTEXT
  5
7B4
330
7A9
100
AcDbEntity
  8
2细线层
 62
     3
100
AcDbMText
 10
96.65
 20
-22.16666666666667
 30
0.0
 40
2.5
 41
33.0
 71
     5
 72
     5
  1
{\fSimSun|b1|i0|c134|p34;>90%}
  0
MTEXT
  5
7B5
330
7A9
100
AcDbEntity
  8
2细线层
 62
     3
100
AcDbMText
 10
21.325
 20
-28.50000000000001
 30
0.0
 40
2.5
 41
39.65
 71
     5
 72
     5
  1
{\fSimSun|b1|i0|c134|p34;光洁度}
  0
MTEXT
  5
7B6
330
7A9
100
AcDbEntity
  8
2细线层
 62
     3
100
AcDbMText
 10
60.65000000000001
 20
-28.50000000000001
 30
0.0
 40
2.5
 41
33.0
 71
     5
 72
     5
  1
{\fSimSun|b1|i0|c134|p34;细磨或检验性抛光}
  0
MTEXT
  5
7B7
330
7A9
100
AcDbEntity
  8
2细线层
 62
     3
100
AcDbMText
 10
96.65
 20
-28.50000000000001
 30
0.0
 40
2.5
 41
33.0
 71
     5
 72
     5
  1
{\fSimSun|b1|i0|c134|p34;60-40}
  0
LINE
  5
7B8
330
7A9
100
AcDbEntity
  8
2细线层
  6
BYBLOCK
 62
     0
100
AcDbLine
 10
0.0
 20
0.0
 30
0.0
 11
114.65
 21
0.0
 31
0.0
  0
LINE
  5
7B9
330
7A9
100
AcDbEntity
  8
2细线层
  6
BYBLOCK
 62
     0
100
AcDbLine
 10
0.0
 20
-6.333333333333336
 30
0.0
 11
114.65
 21
-6.333333333333336
 31
0.0
  0
LINE
  5
7BA
330
7A9
100
AcDbEntity
  8
2细线层
  6
BYBLOCK
 62
     0
100
AcDbLine
 10
0.0
 20
-12.66666666666667
 30
0.0
 11
114.65
 21
-12.66666666666667
 31
0.0
  0
LINE
  5
7BB
330
7A9
100
AcDbEntity
  8
2细线层
  6
BYBLOCK
 62
     0
100
AcDbLine
 10
0.0
 20
-19.00000000000001
 30
0.0
 11
114.65
 21
-19.00000000000001
 31
0.0
  0
LINE
  5
7BC
330
7A9
100
AcDbEntity
  8
2细线层
  6
BYBLOCK
 62
     0
100
AcDbLine
 10
0.0
 20
-25.33333333333334
 30
0.0
 11
114.65
 21
-25.33333333333334
 31
0.0
  0
LINE
  5
7BD
330
7A9
100
AcDbEntity
  8
2细线层
  6
BYBLOCK
 62
     0
100
AcDbLine
 10
0.0
 20
-31.66666666666668
 30
0.0
 11
114.65
 21
-31.66666666666668
 31
0.0
  0
LINE
  5
7BE
330
7A9
100
AcDbEntity
  8
2细线层
  6
BYBLOCK
 62
     0
100
AcDbLine
 10
0.0
 20
0.0
 30
0.0
 11
0.0
 21
-31.66666666666668
 31
0.0
  0
LINE
  5
7BF
330
7A9
100
AcDbEntity
  8
2细线层
  6
BYBLOCK
 62
     0
100
AcDbLine
 10
42.65
 20
0.0
 30
0.0
 11
42.65
 21
-31.66666666666668
 31
0.0
  0
LINE
  5
7C0
330
7A9
100
AcDbEntity
  8
2细线层
  6
BYBLOCK
 62
     0
100
AcDbLine
 10
78.65
 20
0.0
 30
0.0
 11
78.65
 21
-31.66666666666668
 31
0.0
  0
LINE
  5
7C1
330
7A9
100
AcDbEntity
  8
2细线层
  6
BYBLOCK
 62
     0
100
AcDbLine
 10
114.65
 20
0.0
 30
0.0
 11
114.65
 21
-31.66666666666668
 31
0.0
  0
LINE
  5
7C2
330
7A9
100
AcDbEntity
  8
DEFPOINTS
 62
     8
 60
     1
100
AcDbLine
 10
0.0
 20
0.0
 30
0.0
 11
0.0
 21
0.0
 31
0.0
  0
ENDBLK
  5
7C4
330
7A9
100
AcDbEntity
  8
0
100
AcDbBlockEnd
  0
BLOCK
  5
A23
330
A22
100
AcDbEntity
  8
0
100
AcDbBlockBegin
  2
*D14
 70
     1
 10
0.0
 20
0.0
 30
0.0
  3
*D14
  1

  0
LINE
  5
A24
330
A22
100
AcDbEntity
  8
7标注层
 62
     0
100
AcDbLine
 10
230.185241746583
 20
138.7560422467449
 30
0.0
 11
230.185241746583
 21
160.5496602991462
 31
0.0
  0
LINE
  5
A25
330
A22
100
AcDbEntity
  8
7标注层
 62
     0
100
AcDbLine
 10
239.185311069839
 20
138.7560422467449
 30
0.0
 11
239.185311069839
 21
160.5496602991462
 31
0.0
  0
LINE
  5
A26
330
A22
100
AcDbEntity
  8
7标注层
 62
     0
100
AcDbLine
 10
226.185241746583
 20
158.5496602991462
 30
0.0
 11
222.185241746583
 21
158.5496602991462
 31
0.0
  0
LINE
  5
A27
330
A22
100
AcDbEntity
  8
7标注层
 62
     0
100
AcDbLine
 10
243.185311069839
 20
158.5496602991462
 30
0.0
 11
262.6914649159929
 21
158.5496602991462
 31
0.0
  0
SOLID
  5
A28
330
A22
100
AcDbEntity
  8
7标注层
 62
     0
100
AcDbTrace
 10
226.185241746583
 20
159.2163269658129
 30
0.0
 11
226.185241746583
 21
157.8829936324796
 31
0.0
 12
230.185241746583
 22
158.5496602991462
 32
0.0
 13
230.185241746583
 23
158.5496602991462
 33
0.0
  0
SOLID
  5
A29
330
A22
100
AcDbEntity
  8
7标注层
 62
     0
100
AcDbTrace
 10
243.185311069839
 20
159.2163269658129
 30
0.0
 11
243.185311069839
 21
157.8829936324796
 31
0.0
 12
239.185311069839
 22
158.5496602991462
 32
0.0
 13
239.185311069839
 23
158.5496602991462
 33
0.0
  0
MTEXT
  5
A2A
330
A22
100
AcDbEntity
  8
7标注层
 62
     3
100
AcDbMText
 10
254.9383879929159
 20
161.3304295299155
 30
0.0
 40
2.5
 41
0.0
 71
     5
 72
     1
  1
\A1;9.00%%p0.20
  7
TH-GBD2M
  0
POINT
  5
A2B
330
A22
100
AcDbEntity
  8
DEFPOINTS
 62
     0
100
AcDbPoint
 10
230.185241746583
 20
138.7560422467449
 30
0.0
  0
POINT
  5
A2C
330
A22
100
AcDbEntity
  8
DEFPOINTS
 62
     0
100
AcDbPoint
 10
239.185311069839
 20
138.7560422467449
 30
0.0
  0
POINT
  5
A2D
330
A22
100
AcDbEntity
  8
DEFPOINTS
 62
     0
100
AcDbPoint
 10
239.185311069839
 20
158.5496602991462
 30
0.0
  0
ENDBLK
  5
A2E
330
A22
100
AcDbEntity
  8
0
100
AcDbBlockEnd
  0
BLOCK
  5
A30
330
A2F
100
AcDbEntity
  8
0
100
AcDbBlockBegin
  2
*D15
 70
     1
 10
0.0
 20
0.0
 30
0.0
  3
*D15
  1

  0
LINE
  5
A31
330
A2F
100
AcDbEntity
  8
7标注层
 62
     0
100
AcDbLine
 10
230.185241746583
 20
126.2560422467449
 30
0.0
 11
230.185241746583
 21
119.1515234719312
 31
0.0
  0
LINE
  5
A32
330
A2F
100
AcDbEntity
  8
7标注层
 62
     0
100
AcDbLine
 10
239.2634391218352
 20
126.2560422467449
 30
0.0
 11
239.2634391218352
 21
119.1515234719312
 31
0.0
  0
LINE
  5
A33
330
A2F
100
AcDbEntity
  8
7标注层
 62
     0
100
AcDbLine
 10
226.185241746583
 20
121.1515234719312
 30
0.0
 11
222.185241746583
 21
121.1515234719312
 31
0.0
  0
LINE
  5
A34
330
A2F
100
AcDbEntity
  8
7标注层
 62
     0
100
AcDbLine
 10
243.2634391218352
 20
121.1515234719312
 30
0.0
 11
247.2634391218352
 21
121.1515234719312
 31
0.0
  0
SOLID
  5
A35
330
A2F
100
AcDbEntity
  8
7标注层
 62
     0
100
AcDbTrace
 10
226.185241746583
 20
121.8181901385979
 30
0.0
 11
226.185241746583
 21
120.4848568052646
 31
0.0
 12
230.185241746583
 22
121.1515234719312
 32
0.0
 13
230.185241746583
 23
121.1515234719312
 33
0.0
  0
SOLID
  5
A36
330
A2F
100
AcDbEntity
  8
7标注层
 62
     0
100
AcDbTrace
 10
243.2634391218352
 20
121.8181901385979
 30
0.0
 11
243.2634391218352
 21
120.4848568052646
 31
0.0
 12
239.2634391218352
 22
121.1515234719312
 32
0.0
 13
239.2634391218352
 23
121.1515234719312
 33
0.0
  0
MTEXT
  5
A37
330
A2F
100
AcDbEntity
  8
7标注层
 62
     3
100
AcDbMText
 10
234.7243404342091
 20
123.9322927027005
 30
0.0
 40
2.5
 41
0.0
 71
     5
 72
     1
  1
\A1;9.08
  7
TH-GBD2M
  0
POINT
  5
A38
330
A2F
100
AcDbEntity
  8
DEFPOINTS
 62
     0
100
AcDbPoint
 10
230.185241746583
 20
126.2560422467449
 30
0.0
  0
POINT
  5
A39
330
A2F
100
AcDbEntity
  8
DEFPOINTS
 62
     0
100
AcDbPoint
 10
239.2634391218352
 20
126.2560422467449
 30
0.0
  0
POINT
  5
A3A
330
A2F
100
AcDbEntity
  8
DEFPOINTS
 62
     0
100
AcDbPoint
 10
239.2634391218352
 20
121.1515234719312
 30
0.0
  0
ENDBLK
  5
A3B
330
A2F
100
AcDbEntity
  8
0
100
AcDbBlockEnd
  0
BLOCK
  5
A3D
330
A3C
100
AcDbEntity
  8
0
100
AcDbBlockBegin
  2
*D16
 70
     1
 10
0.0
 20
0.0
 30
0.0
  3
*D16
  1

  0
LINE
  5
A3E
330
A3C
100
AcDbEntity
  8
7标注层
 62
     0
100
AcDbLine
 10
137.8545450713209
 20
151.2560422467449
 30
0.0
 11
137.8545450713209
 21
160.1088120021094
 31
0.0
  0
LINE
  5
A3F
330
A3C
100
AcDbEntity
  8
7标注层
 62
     0
100
AcDbLine
 10
187.8545450713209
 20
151.2560422467449
 30
0.0
 11
187.8545450713209
 21
160.1088120021094
 31
0.0
  0
LINE
  5
A40
330
A3C
100
AcDbEntity
  8
7标注层
 62
     0
100
AcDbLine
 10
141.8545450713209
 20
158.8588120021094
 30
0.0
 11
183.8545450713209
 21
158.8588120021094
 31
0.0
  0
SOLID
  5
A41
330
A3C
100
AcDbEntity
  8
7标注层
 62
     0
100
AcDbTrace
 10
141.8545450713209
 20
159.5254786687761
 30
0.0
 11
141.8545450713209
 21
158.1921453354427
 31
0.0
 12
137.8545450713209
 22
158.8588120021094
 32
0.0
 13
137.8545450713209
 23
158.8588120021094
 33
0.0
  0
SOLID
  5
A42
330
A3C
100
AcDbEntity
  8
7标注层
 62
     0
100
AcDbTrace
 10
183.8545450713209
 20
159.5254786687761
 30
0.0
 11
183.8545450713209
 21
158.1921453354427
 31
0.0
 12
187.8545450713209
 22
158.8588120021094
 32
0.0
 13
187.8545450713209
 23
158.8588120021094
 33
0.0
  0
MTEXT
  5
A43
330
A3C
100
AcDbEntity
  8
7标注层
100
AcDbMText
 10
162.8639069092162
 20
161.6166068739043
 30
0.0
 40
2.5
 41
0.0
 71
     5
 72
     1
  1
50.00{}{\H0.71x;\C3;\S 0.00^ -0.10;}
  7
TH-GBD2M
  0
POINT
  5
A44
330
A3C
100
AcDbEntity
  8
DEFPOINTS
 62
     0
100
AcDbPoint
 10
137.8545450713209
 20
151.2560422467449
 30
0.0
  0
POINT
  5
A45
330
A3C
100
AcDbEntity
  8
DEFPOINTS
 62
     0
100
AcDbPoint
 10
187.8545450713209
 20
151.2560422467449
 30
0.0
  0
POINT
  5
A46
330
A3C
100
AcDbEntity
  8
DEFPOINTS
 62
     0
100
AcDbPoint
 10
187.8545450713209
 20
158.8588120021094
 30
0.0
  0
ENDBLK
  5
A47
330
A3C
100
AcDbEntity
  8
0
100
AcDbBlockEnd
  0
BLOCK
  5
A49
330
A48
100
AcDbEntity
  8
0
100
AcDbBlockBegin
  2
*D17
 70
     1
 10
0.0
 20
0.0
 30
0.0
  3
*D17
  1

  0
LINE
  5
A4A
330
A48
100
AcDbEntity
  8
7标注层
 62
     0
100
AcDbLine
 10
137.854545071321
 20
126.2560422467449
 30
0.0
 11
131.9680567195654
 21
126.2560422467449
 31
0.0
  0
LINE
  5
A4B
330
A48
100
AcDbEntity
  8
7标注层
 62
     0
100
AcDbLine
 10
137.854545071321
 20
151.2560422467449
 30
0.0
 11
131.9680567195654
 21
151.2560422467449
 31
0.0
  0
LINE
  5
A4C
330
A48
100
AcDbEntity
  8
7标注层
 62
     0
100
AcDbLine
 10
133.2180567195654
 20
130.2560422467449
 30
0.0
 11
133.2180567195654
 21
147.2560422467449
 31
0.0
  0
SOLID
  5
A4D
330
A48
100
AcDbEntity
  8
7标注层
 62
     0
100
AcDbTrace
 10
132.5513900528988
 20
130.2560422467449
 30
0.0
 11
133.8847233862321
 21
130.2560422467449
 31
0.0
 12
133.2180567195654
 22
126.2560422467449
 32
0.0
 13
133.2180567195654
 23
126.2560422467449
 33
0.0
  0
SOLID
  5
A4E
330
A48
100
AcDbEntity
  8
7标注层
 62
     0
100
AcDbTrace
 10
132.5513900528988
 20
147.2560422467449
 30
0.0
 11
133.8847233862321
 21
147.2560422467449
 31
0.0
 12
133.2180567195654
 22
151.2560422467449
 32
0.0
 13
133.2180567195654
 23
151.2560422467449
 33
0.0
  0
MTEXT
  5
A4F
330
A48
100
AcDbEntity
  8
7标注层
100
AcDbMText
 10
130.4602618477705
 20
138.7560422467449
 30
0.0
 40
2.5
 41
0.0
 71
     5
 72
     1
  1
25.00{}{\H0.71x;\C3;\S 0.00^ -0.10;}
  7
TH-GBD2M
 11
6.123233995736766E-17
 21
1.0
 31
0.0
  0
POINT
  5
A50
330
A48
100
AcDbEntity
  8
DEFPOINTS
 62
     0
100
AcDbPoint
 10
137.854545071321
 20
126.2560422467449
 30
0.0
  0
POINT
  5
A51
330
A48
100
AcDbEntity
  8
DEFPOINTS
 62
     0
100
AcDbPoint
 10
137.854545071321
 20
151.2560422467449
 30
0.0
  0
POINT
  5
A52
330
A48
100
AcDbEntity
  8
DEFPOINTS
 62
     0
100
AcDbPoint
 10
133.2180567195654
 20
151.2560422467449
 30
0.0
  0
ENDBLK
  5
A53
330
A48
100
AcDbEntity
  8
0
100
AcDbBlockEnd
  0
BLOCK
  5
A55
330
A54
100
AcDbEntity
  8
0
100
AcDbBlockBegin
  2
*D18
 70
     1
 10
0.0
 20
0.0
 30
0.0
  3
*D18
  1

  0
LINE
  5
A56
330
A54
100
AcDbEntity
  8
7标注层
 62
     0
100
AcDbLine
 10
137.854545071321
 20
97.13780795885057
 30
0.0
 11
127.1091482270027
 21
97.13780795885057
 31
0.0
  0
LINE
  5
A57
330
A54
100
AcDbEntity
  8
7标注层
 62
     0
100
AcDbLine
 10
137.854545071321
 20
87.8252591154608
 30
0.0
 11
127.1091482270027
 21
87.8252591154608
 31
0.0
  0
LINE
  5
A58
330
A54
100
AcDbEntity
  8
7标注层
 62
     0
100
AcDbLine
 10
129.1091482270027
 20
101.1378079588506
 30
0.0
 11
129.1091482270027
 21
105.1378079588506
 31
0.0
  0
LINE
  5
A59
330
A54
100
AcDbEntity
  8
7标注层
 62
     0
100
AcDbLine
 10
129.1091482270027
 20
83.8252591154608
 30
0.0
 11
129.1091482270027
 21
79.8252591154608
 31
0.0
  0
SOLID
  5
A5A
330
A54
100
AcDbEntity
  8
7标注层
 62
     0
100
AcDbTrace
 10
128.4424815603361
 20
101.1378079588506
 30
0.0
 11
129.7758148936694
 21
101.1378079588506
 31
0.0
 12
129.1091482270027
 22
97.13780795885057
 32
0.0
 13
129.1091482270027
 23
97.13780795885057
 33
0.0
  0
SOLID
  5
A5B
330
A54
100
AcDbEntity
  8
7标注层
 62
     0
100
AcDbTrace
 10
128.4424815603361
 20
83.8252591154608
 30
0.0
 11
129.7758148936694
 21
83.8252591154608
 31
0.0
 12
129.1091482270027
 22
87.8252591154608
 32
0.0
 13
129.1091482270027
 23
87.8252591154608
 33
0.0
  0
MTEXT
  5
A5C
330
A54
100
AcDbEntity
  8
7标注层
 62
     3
100
AcDbMText
 10
126.3283789962335
 20
92.48153353715561
 30
0.0
 40
2.5
 41
0.0
 71
     5
 72
     1
  1
\A1;9.31
  7
TH-GBD2M
 11
6.123233995736766E-17
 21
1.0
 31
0.0
  0
POINT
  5
A5D
330
A54
100
AcDbEntity
  8
DEFPOINTS
 62
     0
100
AcDbPoint
 10
137.854545071321
 20
97.13780795885057
 30
0.0
  0
POINT
  5
A5E
330
A54
100
AcDbEntity
  8
DEFPOINTS
 62
     0
100
AcDbPoint
 10
137.854545071321
 20
87.8252591154608
 30
0.0
  0
POINT
  5
A5F
330
A54
100
AcDbEntity
  8
DEFPOINTS
 62
     0
100
AcDbPoint
 10
129.1091482270027
 20
87.8252591154608
 30
0.0
  0
ENDBLK
  5
A60
330
A54
100
AcDbEntity
  8
0
100
AcDbBlockEnd
  0
BLOCK
  5
A62
330
A61
100
AcDbEntity
  8
0
100
AcDbBlockBegin
  2
*D19
 70
     1
 10
0.0
 20
0.0
 30
0.0
  3
*D19
  1

  0
LINE
  5
A63
330
A61
100
AcDbEntity
  8
7标注层
 62
     0
100
AcDbLine
 10
162.854545071321
 20
97.1378079588506
 30
0.0
 11
202.1467972612821
 21
97.1378079588506
 31
0.0
  0
LINE
  5
A64
330
A61
100
AcDbEntity
  8
7标注层
 62
     0
100
AcDbLine
 10
162.854545071321
 20
88.1378079588506
 30
0.0
 11
202.1467972612821
 21
88.1378079588506
 31
0.0
  0
LINE
  5
A65
330
A61
100
AcDbEntity
  8
7标注层
 62
     0
100
AcDbLine
 10
200.1467972612821
 20
101.1378079588506
 30
0.0
 11
200.1467972612821
 21
105.1378079588506
 31
0.0
  0
LINE
  5
A66
330
A61
100
AcDbEntity
  8
7标注层
 62
     0
100
AcDbLine
 10
200.1467972612821
 20
84.1378079588506
 30
0.0
 11
200.1467972612821
 21
80.1378079588506
 31
0.0
  0
SOLID
  5
A67
330
A61
100
AcDbEntity
  8
7标注层
 62
     0
100
AcDbTrace
 10
199.4801305946154
 20
101.1378079588506
 30
0.0
 11
200.8134639279487
 21
101.1378079588506
 31
0.0
 12
200.1467972612821
 22
97.1378079588506
 32
0.0
 13
200.1467972612821
 23
97.1378079588506
 33
0.0
  0
SOLID
  5
A68
330
A61
100
AcDbEntity
  8
7标注层
 62
     0
100
AcDbTrace
 10
199.4801305946154
 20
84.1378079588506
 30
0.0
 11
200.8134639279487
 21
84.1378079588506
 31
0.0
 12
200.1467972612821
 22
88.1378079588506
 32
0.0
 13
200.1467972612821
 23
88.1378079588506
 33
0.0
  0
MTEXT
  5
A69
330
A61
100
AcDbEntity
  8
7标注层
 62
     3
100
AcDbMText
 10
197.3660280305128
 20
92.63780795885053
 30
0.0
 40
2.5
 41
0.0
 71
     5
 72
     1
  1
\A1;9.00
  7
TH-GBD2M
 11
6.123233995736766E-17
 21
1.0
 31
0.0
  0
POINT
  5
A6A
330
A61
100
AcDbEntity
  8
DEFPOINTS
 62
     0
100
AcDbPoint
 10
162.854545071321
 20
97.1378079588506
 30
0.0
  0
POINT
  5
A6B
330
A61
100
AcDbEntity
  8
DEFPOINTS
 62
     0
100
AcDbPoint
 10
162.854545071321
 20
88.1378079588506
 30
0.0
  0
POINT
  5
A6C
330
A61
100
AcDbEntity
  8
DEFPOINTS
 62
     0
100
AcDbPoint
 10
200.1467972612821
 20
88.1378079588506
 30
0.0
  0
ENDBLK
  5
A6D
330
A61
100
AcDbEntity
  8
0
100
AcDbBlockEnd
  0
BLOCK
  5
A6F
330
A6E
100
AcDbEntity
  8
0
100
AcDbBlockBegin
  2
*X20
 70
     1
 10
0.0
 20
0.0
 30
0.0
  3
*X20
  1

  0
LINE
  5
A70
330
A6E
100
AcDbEntity
  8
细实线层
100
AcDbLine
 10
-148.5
 20
-105.0
 30
0.0
 11
148.5
 21
-105.0
 31
0.0
  0
LINE
  5
A71
330
A6E
100
AcDbEntity
  8
细实线层
100
AcDbLine
 10
148.5
 20
-105.0
 30
0.0
 11
148.5
 21
105.0
 31
0.0
  0
LINE
  5
A72
330
A6E
100
AcDbEntity
  8
细实线层
100
AcDbLine
 10
148.5
 20
105.0
 30
0.0
 11
-148.5
 21
105.0
 31
0.0
  0
LINE
  5
A73
330
A6E
100
AcDbEntity
  8
细实线层
100
AcDbLine
 10
-148.5
 20
105.0
 30
0.0
 11
-148.5
 21
-105.0
 31
0.0
  0
LINE
  5
A74
330
A6E
100
AcDbEntity
  8
粗实线层
100
AcDbLine
 10
-138.5
 20
95.0
 30
0.0
 11
-138.5
 21
-95.0
 31
0.0
  0
LINE
  5
A75
330
A6E
100
AcDbEntity
  8
粗实线层
100
AcDbLine
 10
-138.5
 20
-95.0
 30
0.0
 11
138.5
 21
-95.0
 31
0.0
  0
LINE
  5
A76
330
A6E
100
AcDbEntity
  8
粗实线层
100
AcDbLine
 10
138.5
 20
-95.0
 30
0.0
 11
138.5
 21
95.0
 31
0.0
  0
LINE
  5
A77
330
A6E
100
AcDbEntity
  8
粗实线层
100
AcDbLine
 10
138.5
 20
95.0
 30
0.0
 11
-138.5
 21
95.0
 31
0.0
  0
LINE
  5
A78
330
A6E
100
AcDbEntity
  8
粗实线层
100
AcDbLine
 10
-148.5
 20
0.0
 30
0.0
 11
-133.5
 21
0.0
 31
0.0
  0
LINE
  5
A79
330
A6E
100
AcDbEntity
  8
粗实线层
100
AcDbLine
 10
148.5
 20
0.0
 30
0.0
 11
133.5
 21
0.0
 31
0.0
  0
LINE
  5
A7A
330
A6E
100
AcDbEntity
  8
粗实线层
100
AcDbLine
 10
0.0
 20
105.0
 30
0.0
 11
0.0
 21
90.0
 31
0.0
  0
LINE
  5
A7B
330
A6E
100
AcDbEntity
  8
粗实线层
100
AcDbLine
 10
0.0
 20
-105.0
 30
0.0
 11
0.0
 21
-95.0
 31
0.0
  0
ENDBLK
  5
A7C
330
A6E
100
AcDbEntity
  8
0
100
AcDbBlockEnd
  0
BLOCK
  5
A7E
330
A7D
100
AcDbEntity
  8
0
100
AcDbBlockBegin
  2
*T21
 70
     1
 10
0.0
 20
0.0
 30
0.0
  3
*T21
  1

  0
MTEXT
  5
A7F
330
A7D
100
AcDbEntity
  8
2细线层
 62
     3
100
AcDbMText
 10
60.65000000000001
 20
-3.166666666666671
 30
0.0
 40
2.5
 41
33.0
 71
     5
 72
     5
  1
{\fSimSun|b1|i0|c134|p34;S1}
  0
MTEXT
  5
A80
330
A7D
100
AcDbEntity
  8
2细线层
 62
     3
100
AcDbMText
 10
96.65
 20
-3.166666666666671
 30
0.0
 40
2.5
 41
33.0
 71
     5
 72
     5
  1
{\fSimSun|b1|i0|c134|p34;S2}
  0
MTEXT
  5
A81
330
A7D
100
AcDbEntity
  8
2细线层
 62
     3
100
AcDbMText
 10
21.325
 20
-9.5
 30
0.0
 40
2.5
 41
39.65
 71
     5
 72
     5
  1
{\fSimSun|b1|i0|c134|p34;形状}
  0
MTEXT
  5
A82
330
A7D
100
AcDbEntity
  8
2细线层
 62
     3
100
AcDbMText
 10
60.65000000000001
 20
-9.5
 30
0.0
 40
2.5
 41
33.0
 71
     5
 72
     5
  1
{\fSimSun|b1|i0|c134|p34;平面}
  0
MTEXT
  5
A83
330
A7D
100
AcDbEntity
  8
2细线层
 62
     3
100
AcDbMText
 10
96.65
 20
-9.5
 30
0.0
 40
2.5
 41
33.0
 71
     5
 72
     5
  1
{\fSimSun|b1|i0|c134|p34;凹面}
  0
MTEXT
  5
A84
330
A7D
100
AcDbEntity
  8
2细线层
 62
     3
100
AcDbMText
 10
21.325
 20
-15.83333333333334
 30
0.0
 40
2.5
 41
39.65
 71
     5
 72
     5
  1
{\fSimSun|b1|i0|c134|p34;曲率半径}
  0
MTEXT
  5
A85
330
A7D
100
AcDbEntity
  8
2细线层
 62
     3
100
AcDbMText
 10
60.65000000000001
 20
-15.83333333333334
 30
0.0
 40
2.5
 41
33.0
 71
     5
 72
     5
  1
{\fSimSun|b1|i0|c134|p34;无穷}
  0
MTEXT
  5
A86
330
A7D
100
AcDbEntity
  8
2细线层
 62
     3
100
AcDbMText
 10
96.65
 20
-15.83333333333334
 30
0.0
 40
2.5
 41
33.0
 71
     5
 72
     5
  1
{\fSimSun|b1|i0|c134|p34;1000.00}
  0
MTEXT
  5
A87
330
A7D
100
AcDbEntity
  8
2细线层
 62
     3
100
AcDbMText
 10
21.325
 20
-22.16666666666667
 30
0.0
 40
2.5
 41
39.65
 71
     5
 72
     5
  1
{\fSimSun|b1|i0|c134|p34;通光孔径}
  0
MTEXT
  5
A88
330
A7D
100
AcDbEntity
  8
2细线层
 62
     3
100
AcDbMText
 10
60.65000000000001
 20
-22.16666666666667
 30
0.0
 40
2.5
 41
33.0
 71
     5
 72
     5
  1
{\fSimSun|b1|i0|c134|p34;/}
  0
MTEXT
  5
A89
330
A7D
100
AcDbEntity
  8
2细线层
 62
     3
100
AcDbMText
 10
96.65
 20
-22.16666666666667
 30
0.0
 40
2.5
 41
33.0
 71
     5
 72
     5
  1
{\fSimSun|b1|i0|c134|p34;>90%}
  0
MTEXT
  5
A8A
330
A7D
100
AcDbEntity
  8
2细线层
 62
     3
100
AcDbMText
 10
21.325
 20
-28.50000000000001
 30
0.0
 40
2.5
 41
39.65
 71
     5
 72
     5
  1
{\fSimSun|b1|i0|c134|p34;光洁度}
  0
MTEXT
  5
A8B
330
A7D
100
AcDbEntity
  8
2细线层
 62
     3
100
AcDbMText
 10
60.65000000000001
 20
-28.50000000000001
 30
0.0
 40
2.5
 41
33.0
 71
     5
 72
     5
  1
{\fSimSun|b1|i0|c134|p34;细磨或检验性抛光}
  0
MTEXT
  5
A8C
330
A7D
100
AcDbEntity
  8
2细线层
 62
     3
100
AcDbMText
 10
96.65
 20
-28.50000000000001
 30
0.0
 40
2.5
 41
33.0
 71
     5
 72
     5
  1
{\fSimSun|b1|i0|c134|p34;60-40}
  0
LINE
  5
A8D
330
A7D
100
AcDbEntity
  8
2细线层
  6
BYBLOCK
 62
     0
100
AcDbLine
 10
0.0
 20
0.0
 30
0.0
 11
114.65
 21
0.0
 31
0.0
  0
LINE
  5
A8E
330
A7D
100
AcDbEntity
  8
2细线层
  6
BYBLOCK
 62
     0
100
AcDbLine
 10
0.0
 20
-6.333333333333336
 30
0.0
 11
114.65
 21
-6.333333333333336
 31
0.0
  0
LINE
  5
A8F
330
A7D
100
AcDbEntity
  8
2细线层
  6
BYBLOCK
 62
     0
100
AcDbLine
 10
0.0
 20
-12.66666666666667
 30
0.0
 11
114.65
 21
-12.66666666666667
 31
0.0
  0
LINE
  5
A90
330
A7D
100
AcDbEntity
  8
2细线层
  6
BYBLOCK
 62
     0
100
AcDbLine
 10
0.0
 20
-19.00000000000001
 30
0.0
 11
114.65
 21
-19.00000000000001
 31
0.0
  0
LINE
  5
A91
330
A7D
100
AcDbEntity
  8
2细线层
  6
BYBLOCK
 62
     0
100
AcDbLine
 10
0.0
 20
-25.33333333333334
 30
0.0
 11
114.65
 21
-25.33333333333334
 31
0.0
  0
LINE
  5
A92
330
A7D
100
AcDbEntity
  8
2细线层
  6
BYBLOCK
 62
     0
100
AcDbLine
 10
0.0
 20
-31.66666666666668
 30
0.0
 11
114.65
 21
-31.66666666666668
 31
0.0
  0
LINE
  5
A93
330
A7D
100
AcDbEntity
  8
2细线层
  6
BYBLOCK
 62
     0
100
AcDbLine
 10
0.0
 20
0.0
 30
0.0
 11
0.0
 21
-31.66666666666668
 31
0.0
  0
LINE
  5
A94
330
A7D
100
AcDbEntity
  8
2细线层
  6
BYBLOCK
 62
     0
100
AcDbLine
 10
42.65
 20
0.0
 30
0.0
 11
42.65
 21
-31.66666666666668
 31
0.0
  0
LINE
  5
A95
330
A7D
100
AcDbEntity
  8
2细线层
  6
BYBLOCK
 62
     0
100
AcDbLine
 10
78.65
 20
0.0
 30
0.0
 11
78.65
 21
-31.66666666666668
 31
0.0
  0
LINE
  5
A96
330
A7D
100
AcDbEntity
  8
2细线层
  6
BYBLOCK
 62
     0
100
AcDbLine
 10
114.65
 20
0.0
 30
0.0
 11
114.65
 21
-31.66666666666668
 31
0.0
  0
LINE
  5
A97
330
A7D
100
AcDbEntity
  8
DEFPOINTS
 62
     8
 60
     1
100
AcDbLine
 10
0.0
 20
0.0
 30
0.0
 11
0.0
 21
0.0
 31
0.0
  0
ENDBLK
  5
A98
330
A7D
100
AcDbEntity
  8
0
100
AcDbBlockEnd
  0
BLOCK
  5
ADC
330
A99
100
AcDbEntity
  8
0
100
AcDbBlockBegin
  2
A$C1F974BA8
 70
     0
 10
0.0
 20
0.0
 30
0.0
  3
A$C1F974BA8
  1

  0
LINE
  5
A9A
330
A99
100
AcDbEntity
  8
3中心线层
100
AcDbLine
 10
134.7982629352626
 20
138.7248843588269
 30
0.0
 11
190.9108272073792
 21
138.7248843588269
 31
0.0
  0
HATCH
  5
A9B
330
A99
100
AcDbEntity
  8
1轮廓实线层
 62
     2
100
AcDbHatch
 10
0.0
 20
0.0
 30
0.0
210
0.0
220
0.0
230
1.0
  2
ANSI31
 70
     0
 71
     1
 91
        4
 92
        7
 72
     1
 73
     1
 93
        4
 10
239.2634391218354
 20
151.2560422467449
 42
0.0
 10
230.185241746583
 20
151.2560422467449
 42
0.0
 10
230.185241746583
 20
138.7560422467449
 42
0.0
 10
239.1853110698389
 20
138.7560422467449
 42
-0.0031250915592915
 97
        4
330
AAD
330
AA2
330
A9C
330
AB5
 92
        7
 72
     1
 73
     1
 93
        4
 10
239.1853110698389
 20
138.7560422467449
 42
0.0
 10
230.185241746583
 20
138.7560422467449
 42
0.0
 10
230.185241746583
 20
126.2560422467449
 42
0.0
 10
239.2634391218352
 20
126.2560422467449
 42
-0.0031250915592915
 97
        3
330
AA2
330
AAC
330
AB5
 92
        7
 72
     1
 73
     1
 93
        4
 10
187.8545450713209
 20
97.13780795885054
 42
0.0
 10
162.8545450713209
 20
97.13780795885054
 42
0.0
 10
162.8545450713209
 20
88.13780795885089
 42
-0.006250732631762
 10
187.8545450713209
 20
87.82525911546111
 42
0.0
 97
        4
330
AB1
330
A9D
330
AB6
330
AB3
 92
        7
 72
     1
 73
     1
 93
        4
 10
162.8545450713209
 20
97.13780795885054
 42
0.0
 10
137.8545450713209
 20
97.13780795885054
 42
0.0
 10
137.8545450713209
 20
87.82525911546111
 42
-0.006250732631762
 10
162.8545450713209
 20
88.13780795885089
 42
0.0
 97
        3
330
AB1
330
AB2
330
AB6
 75
     1
 76
     1
 52
0.0
 41
1.0
 77
     0
 78
     1
 53
45.0
 43
0.0
 44
0.0
 45
-2.245064030267288
 46
2.245064030267288
 79
     0
 47
0.1749497699837224
 98
        4
 10
233.9764360039389
 20
144.7728773570225
 10
234.6766179618317
 20
135.150638771649
 10
169.034935895128
 20
93.86249198405767
 10
151.5304927708275
 20
92.46289576100935
1001
GRADIENTCOLOR1ACI
1070
     5
1001
GRADIENTCOLOR2ACI
1070
     2
1001
ACAD
1010
0.0
1020
0.0
1030
0.0
  0
LINE
  5
A9C
102
{ACAD_REACTORS
330
A9B
102
}
330
A99
100
AcDbEntity
  8
3中心线层
100
AcDbLine
 10
217.9702860043302
 20
138.7560422467449
 30
0.0
 11
249.3037459857289
 21
138.7560422467449
 31
0.0
  0
LINE
  5
A9D
102
{ACAD_REACTORS
330
A9B
102
}
330
A99
100
AcDbEntity
  8
3中心线层
100
AcDbLine
 10
162.8545450713209
 20
113.2268194772121
 30
0.0
 11
162.8545450713209
 21
77.87878439055623
 31
0.0
  0
LEADER
  5
A9E
330
A99
100
AcDbEntity
  8
7标注层
100
AcDbLeader
  3
TH-GBD2M
 76
     3
 10
239.198971674344
 20
138.767822139293
 30
0.0
 10
243.764885861204
 20
147.568306471263
 30
0.0
 10
248.7901978505199
 20
147.568306471263
 30
0.0
1001
ACAD
1000
DSTYLE
1002
{
1070
     5
1000

1070
   340
1005
2E5
1070
   147
1040
1.5
1070
    77
1070
     0
1002
}
  0
MTEXT
  5
A9F
330
A99
100
AcDbEntity
  8
7标注层
 62
     3
100
AcDbMText
 10
246.3309246863654
 20
150.2639447761178
 30
0.0
 40
2.5
 41
0.0
 71
     5
 72
     1
  1
\A1;S2
  7
TH-GBD2M
  0
LEADER
  5
AA0
330
A99
100
AcDbEntity
  8
7标注层
100
AcDbLeader
  3
TH-GBD2M
 76
     3
 10
230.1852419174951
 20
138.7560419173237
 30
0.0
 10
225.6193277306351
 20
147.5565262492937
 30
0.0
 10
220.5940157413191
 20
147.5565262492937
 30
0.0
211
-1.0
221
0.0
231
0.0
1001
ACAD
1000
DSTYLE
1002
{
1070
     5
1000

1070
   340
1005
2E5
1070
   147
1040
1.5
1070
    77
1070
     0
1002
}
  0
MTEXT
  5
AA1
330
A99
100
AcDbEntity
  8
7标注层
 62
     3
100
AcDbMText
 10
223.2179507350556
 20
149.8800898214704
 30
0.0
 40
2.5
 41
0.0
 71
     5
 72
     1
  1
\A1;S1
  7
TH-GBD2M
  0
LINE
  5
AA2
102
{ACAD_REACTORS
330
AE9
330
A9B
102
}
330
A99
100
AcDbEntity
  8
1轮廓实线层
100
AcDbLine
 10
230.185241746583
 20
151.2560422467449
 30
0.0
 11
230.185241746583
 21
126.2560422467449
 31
0.0
  0
DIMENSION
  5
AA3
330
A99
100
AcDbEntity
  8
7标注层
100
AcDbDimension
  2
*D14
 10
239.185311069839
 20
158.5496602991462
 30
0.0
 11
254.9383879929159
 21
158.5496602991462
 31
0.0
 70
   128
  1
<>%%p0.20
  3
TH-GBD2M
100
AcDbAlignedDimension
 13
230.185241746583
 23
138.7560422467449
 33
0.0
 14
239.185311069839
 24
138.7560422467449
 34
0.0
100
AcDbRotatedDimension
1001
ACAD_DSTYLE_DIMINSPECT
1070
   396
1000
100%
1070
   395
1000

1070
   394
1070
    33
1070
   393
1070
     0
  0
DIMENSION
  5
AA4
330
A99
100
AcDbEntity
  8
7标注层
100
AcDbDimension
  2
*D15
 10
239.2634391218352
 20
121.1515234719312
 30
0.0
 11
234.7243404342091
 21
121.1515234719312
 31
0.0
 70
   128
  3
TH-GBD2M
100
AcDbAlignedDimension
 13
230.185241746583
 23
126.2560422467449
 33
0.0
 14
239.2634391218352
 24
126.2560422467449
 34
0.0
100
AcDbRotatedDimension
  0
LINE
  5
AA5
330
A99
100
AcDbEntity
  8
1轮廓实线层
100
AcDbLine
 10
137.8545450713209
 20
126.2560422467449
 30
0.0
 11
137.8545450713209
 21
151.2560422467449
 31
0.0
  0
LINE
  5
AA6
330
A99
100
AcDbEntity
  8
1轮廓实线层
100
AcDbLine
 10
137.8545450713209
 20
151.2560422467449
 30
0.0
 11
187.8545450713209
 21
151.2560422467449
 31
0.0
  0
LINE
  5
AA7
330
A99
100
AcDbEntity
  8
1轮廓实线层
100
AcDbLine
 10
187.8545450713209
 20
151.2560422467449
 30
0.0
 11
187.8545450713209
 21
126.2560422467449
 31
0.0
  0
LINE
  5
AA8
330
A99
100
AcDbEntity
  8
1轮廓实线层
100
AcDbLine
 10
187.8545450713209
 20
126.2560422467449
 30
0.0
 11
187.8545450712664
 21
126.2560422467449
 31
0.0
  0
DIMENSION
  5
AA9
330
A99
100
AcDbEntity
  8
7标注层
100
AcDbDimension
  2
*D16
 10
187.8545450713209
 20
158.8588120021094
 30
0.0
 11
162.8639069092162
 21
158.8588120021094
 31
0.0
 70
   128
  1
<>{}{\H0.71x;\C3;\S 0.00^ -0.10;}
  3
透镜标注
100
AcDbAlignedDimension
 13
137.8545450713209
 23
151.2560422467449
 33
0.0
 14
187.8545450713209
 24
151.2560422467449
 34
0.0
100
AcDbRotatedDimension
1001
GENIUS_GENDTOL_13
1000
TolSmNrm
1000

1000
{\H0.71x;$2\S$+$P^ $-$M;}
1040
50.0
1001
ACAD_DSTYLE_DIMINSPECT
1070
   396
1000
100%
1070
   395
1000

1070
   394
1070
    33
1070
   393
1070
     0
1001
ACAD
1000
DSTYLE
1002
{
1070
    42
1040
0.0
1070
    48
1040
0.1
1070
   288
1070
     1
1002
}
  0
DIMENSION
  5
AAA
330
A99
100
AcDbEntity
  8
7标注层
100
AcDbDimension
  2
*D17
 10
133.2180567195654
 20
151.2560422467449
 30
0.0
 11
133.2180567195654
 21
138.7560422467449
 31
0.0
 70
   128
  1
<>{}{\H0.71x;\C3;\S 0.00^ -0.10;}
  3
透镜标注
100
AcDbAlignedDimension
 13
137.8545450713209
 23
126.2560422467449
 33
0.0
 14
137.8545450713209
 24
151.2560422467449
 34
0.0
 50
90.0
100
AcDbRotatedDimension
1001
GENIUS_GENDTOL_13
1000
TolSmNrm
1000

1000
{\H0.71x;$2\S$+$P^ $-$M;}
1040
50.0
1001
ACAD_DSTYLE_DIMINSPECT
1070
   396
1000
100%
1070
   395
1000

1070
   394
1070
    33
1070
   393
1070
     0
1001
ACAD
1000
DSTYLE
1002
{
1070
    42
1040
0.0
1070
    48
1040
0.1
1070
   288
1070
     1
1002
}
  0
LINE
  5
AAB
330
A99
100
AcDbEntity
  8
1轮廓实线层
100
AcDbLine
 10
137.8545450713209
 20
126.2560422467449
 30
0.0
 11
187.8545450713209
 21
126.2560422467449
 31
0.0
  0
LINE
  5
AAC
102
{ACAD_REACTORS
330
AEB
330
A9B
102
}
330
A99
100
AcDbEntity
  8
1轮廓实线层
100
AcDbLine
 10
230.185241746583
 20
126.2560422467449
 30
0.0
 11
239.2634391218352
 21
126.2560422467449
 31
0.0
  0
LINE
  5
AAD
102
{ACAD_REACTORS
330
AE8
330
A9B
102
}
330
A99
100
AcDbEntity
  8
1轮廓实线层
100
AcDbLine
 10
230.185241746583
 20
151.2560422467449
 30
0.0
 11
239.2634391218352
 21
151.2560422467449
 31
0.0
  0
DIMENSION
  5
AAE
330
A99
100
AcDbEntity
  8
7标注层
100
AcDbDimension
  2
*D18
 10
129.1091482270027
 20
87.8252591154608
 30
0.0
 11
126.3283789962335
 21
92.48153353715561
 31
0.0
  3
TH-GBD2M
100
AcDbAlignedDimension
 13
137.8545450713209
 23
97.13780795885052
 33
0.0
 14
137.8545450713209
 24
87.82525911546077
 34
0.0
 50
90.0
100
AcDbRotatedDimension
  0
DIMENSION
  5
AAF
102
{ACAD_REACTORS
330
AE3
102
}
102
{ACAD_XDICTIONARY
360
BAC
102
}
330
A99
100
AcDbEntity
  8
ADSK_CONSTRAINTS
 60
     1
100
AcDbDimension
 10
224.3533890548559
 20
129.3880299917748
 30
0.0
 11
224.3533890548559
 21
129.3880299917748
 31
0.0
 70
   128
  1
25
  3
TH-GBD2M
100
AcDbAlignedDimension
 13
234.7243404342091
 23
151.2560422467449
 33
0.0
 14
234.7243404342091
 24
126.2560422467449
 34
0.0
 50
90.0
100
AcDbRotatedDimension
  0
DIMENSION
  5
AB0
330
A99
100
AcDbEntity
  8
7标注层
100
AcDbDimension
  2
*D19
 10
200.1467972612821
 20
88.1378079588506
 30
0.0
 11
197.3660280305128
 21
92.63780795885053
 31
0.0
  3
TH-GBD2M
100
AcDbAlignedDimension
 13
162.8545450713209
 23
97.13780795885054
 33
0.0
 14
162.8545450713209
 24
88.13780795885057
 34
0.0
 50
90.0
100
AcDbRotatedDimension
  0
LINE
  5
AB1
102
{ACAD_REACTORS
330
AEA
330
A9B
102
}
330
A99
100
AcDbEntity
  8
1轮廓实线层
100
AcDbLine
 10
137.8545450713209
 20
97.13780795885054
 30
0.0
 11
187.8545450713209
 21
97.13780795885054
 31
0.0
  0
LINE
  5
AB2
102
{ACAD_REACTORS
330
AEC
330
A9B
102
}
330
A99
100
AcDbEntity
  8
7标注层
 62
     0
100
AcDbLine
 10
137.8545450713209
 20
97.13780795885054
 30
0.0
 11
137.8545450713209
 21
87.82525911546077
 31
0.0
  0
LINE
  5
AB3
102
{ACAD_REACTORS
330
AE7
330
A9B
102
}
330
A99
100
AcDbEntity
  8
7标注层
 62
     0
100
AcDbLine
 10
187.8545450713209
 20
97.13780795885054
 30
0.0
 11
187.8545450713209
 21
87.82525911546077
 31
0.0
  0
DIMENSION
  5
AB4
102
{ACAD_REACTORS
330
AE1
102
}
102
{ACAD_XDICTIONARY
360
BAE
102
}
330
A99
100
AcDbEntity
  8
ADSK_CONSTRAINTS
 60
     1
100
AcDbDimension
 10
187.8545450713209
 20
102.0872530571109
 30
0.0
 11
187.8545450713209
 21
102.0872530571109
 31
0.0
 70
   128
  1
50
  3
TH-GBD2M
100
AcDbAlignedDimension
 13
137.8545450713209
 23
97.13780795885054
 33
0.0
 14
187.8545450713209
 24
97.13780795885054
 34
0.0
100
AcDbRotatedDimension
  0
ARC
  5
AB5
102
{ACAD_REACTORS
330
A9B
102
}
330
A99
100
AcDbEntity
  8
1轮廓实线层
100
AcDbCircle
 10
1239.185311069839
 20
138.7560422467449
 30
0.0
 40
1000.0
100
AcDbArc
 50
179.2837841038051
 51
180.7162158961949
  0
ARC
  5
AB6
102
{ACAD_REACTORS
330
A9B
102
}
330
A99
100
AcDbEntity
  8
1轮廓实线层
100
AcDbCircle
 10
162.8545450713209
 20
-911.8621920411495
 30
0.0
 40
1000.0
100
AcDbArc
 50
88.5674562624335
 51
91.43254373756652
  0
LINE
  5
AB7
330
A99
100
AcDbEntity
  8
6文字层
 62
     0
100
AcDbLine
 10
147.0
 20
9.999999999998181
 30
0.0
 11
26.99999999994907
 21
9.999999999998181
 31
0.0
  0
INSERT
  5
AB8
330
A99
100
AcDbEntity
  8
6文字层
100
AcDbBlockReference
  2
*X20
 10
148.5
 20
105.0
 30
0.0
1001
CAXA_DRAFT_PAPERFRAME
1071
        2
1041
138.5
1041
-95.0
1041
0.0
1000
A4A-D-Sighted(CHS)
1070
     1
1001
CAXA_DRAFT_BLKHIDE
1070
     0
  0
LINE
  5
AB9
330
A99
100
AcDbEntity
  8
1轮廓实线层
100
AcDbLine
 10
147.0
 20
9.999999999998181
 30
0.0
 11
287.0
 21
9.999999999998181
 31
0.0
  0
LINE
  5
ABA
330
A99
100
AcDbEntity
  8
粗实线层
100
AcDbLine
 10
182.0003469713993
 20
15.84100763374863
 30
0.0
 11
287.0
 21
15.841007633755
 31
0.0
  0
LINE
  5
ABB
330
A99
100
AcDbEntity
  8
细实线层
100
AcDbLine
 10
276.7561453540075
 20
15.841007633755
 30
0.0
 11
276.7561453540075
 21
9.999999999998181
 31
0.0
  0
LINE
  5
ABC
330
A99
100
AcDbEntity
  8
细实线层
100
AcDbLine
 10
273.8686453540085
 20
12.92050381687659
 30
0.0
 11
280.4311453540085
 21
12.92050381687659
 31
0.0
  0
CIRCLE
  5
ABD
330
A99
100
AcDbEntity
  8
细实线层
100
AcDbCircle
 10
276.7561453540075
 20
12.92050381687659
 30
0.0
 40
2.187499999999943
  0
CIRCLE
  5
ABE
330
A99
100
AcDbEntity
  8
细实线层
100
AcDbCircle
 10
276.7561453540075
 20
12.92050381687659
 30
0.0
 40
0.6562499999999829
  0
LINE
  5
ABF
330
A99
100
AcDbEntity
  8
3中心线层
 62
     7
 48
0.1
100
AcDbLine
 10
265.144564142629
 20
12.92050381687659
 30
0.0
 11
273.8686453540085
 21
12.92050381687659
 31
0.0
  0
LINE
  5
AC0
330
A99
100
AcDbEntity
  8
3中心线层
 62
     7
100
AcDbLine
 10
266.2950959920181
 20
12.59237881687659
 30
0.0
 11
266.2950959920181
 21
13.24862881687386
 31
0.0
  0
LINE
  5
AC1
330
A99
100
AcDbEntity
  8
3中心线层
 62
     7
100
AcDbLine
 10
272.4200959920181
 20
10.73300381687659
 30
0.0
 11
272.4200959920181
 21
15.10800381687477
 31
0.0
  0
LINE
  5
AC2
330
A99
100
AcDbEntity
  8
细实线层
100
AcDbLine
 10
266.2950959920181
 20
13.24862881687386
 30
0.0
 11
272.4200959920181
 21
15.10800381687477
 31
0.0
  0
LINE
  5
AC3
330
A99
100
AcDbEntity
  8
细实线层
100
AcDbLine
 10
266.2950959920181
 20
12.59237881687659
 30
0.0
 11
272.4200959920181
 21
10.73300381687659
 31
0.0
  0
LINE
  5
AC4
330
A99
100
AcDbEntity
  8
粗实线层
100
AcDbLine
 10
182.0003469713993
 20
26.33333333332939
 30
0.0
 11
287.0
 21
26.33333333333303
 31
0.0
  0
LINE
  5
AC5
330
A99
100
AcDbEntity
  8
粗实线层
100
AcDbLine
 10
182.0003469713993
 20
39.99999999999909
 30
0.0
 11
287.0
 21
40.0
 31
0.0
  0
MTEXT
  5
AC6
330
A99
100
AcDbEntity
  8
6文字层
100
AcDbMText
 10
194.1794353788573
 20
21.13543729905632
 30
0.0
 40
2.5
 41
17.84855769230755
 71
     5
 72
     5
  1
{\fSimHei|b1|i0|c134|p49;名称 }
1001
ACDBBLOCKREPETAG
1000

1001
ACAD
1000
ACAD_MTEXT_DEFINED_HEIGHT_BEGIN
1070
    46
1040
4.283653846153733
1000
ACAD_MTEXT_DEFINED_HEIGHT_END
  0
MTEXT
  5
AC7
330
A99
100
AcDbEntity
  8
6文字层
100
AcDbMText
 10
258.4247746021283
 20
33.3388339475614
 30
0.0
 40
3.0
 41
63.12269194006068
 71
     5
 72
     5
  1
{\fSimHei|b1|i0|c134|p49;联合光科技（北京）有限公司}
1001
ACDBBLOCKREPETAG
1000

1001
ACAD
1000
ACAD_MTEXT_DEFINED_HEIGHT_BEGIN
1070
    46
1040
3.808394365490182
1000
ACAD_MTEXT_DEFINED_HEIGHT_END
  0
MTEXT
  5
AC8
330
A99
100
AcDbEntity
  8
6文字层
100
AcDbMText
 10
194.3732816028787
 20
12.98934071260373
 30
0.0
 40
2.5
 41
17.84855769230755
 71
     5
 72
     5
  1
{\fSimHei|b1|i0|c134|p49;产品编号} 
1001
ACDBBLOCKREPETAG
1000

1001
ACAD
1000
ACAD_MTEXT_DEFINED_HEIGHT_BEGIN
1070
    46
1040
4.283653846153733
1000
ACAD_MTEXT_DEFINED_HEIGHT_END
  0
MTEXT
  5
AC9
330
A99
100
AcDbEntity
  8
6文字层
100
AcDbMText
 10
253.431637469479
 20
13.14343400566213
 30
0.0
 40
2.5
 41
17.84855769230755
 71
     5
 72
     5
  1
{\fSimHei|b1|i0|c134|p49;mm }
1001
ACDBBLOCKREPETAG
1000

1001
ACAD
1000
ACAD_MTEXT_DEFINED_HEIGHT_BEGIN
1070
    46
1040
4.283653846153733
1000
ACAD_MTEXT_DEFINED_HEIGHT_END
  0
LINE
  5
ACA
330
A99
100
AcDbEntity
  8
粗实线层
100
AcDbLine
 10
182.0003469713993
 20
9.941096743267735
 30
0.0
 11
182.0003469713993
 21
39.94109674325682
 31
0.0
  0
LINE
  5
ACB
330
A99
100
AcDbEntity
  8
粗实线层
100
AcDbLine
 10
206.7603328645291
 20
9.999999999998181
 30
0.0
 11
206.7603328645291
 21
26.33333333332394
 31
0.0
  0
LINE
  5
ACC
330
A99
100
AcDbEntity
  8
粗实线层
100
AcDbLine
 10
229.6358957687498
 20
26.42852234707152
 30
0.0
 11
229.6358957687498
 21
40.0
 31
0.0
  0
LINE
  5
ACD
330
A99
100
AcDbEntity
  8
粗实线层
100
AcDbLine
 10
229.6358957687498
 20
9.999999999991815
 30
0.0
 11
229.6358957687389
 21
15.84100763374499
 31
0.0
  0
MTEXT
  5
ACE
330
A99
100
AcDbEntity
  8
6文字层
100
AcDbMText
 10
238.1972593395403
 20
12.82885780604101
 30
0.0
 40
2.5
 41
17.84855769230755
 71
     5
 72
     5
  1
{\fSimHei|b1|i0|c134|p49;单位}
1001
ACAD
1000
ACAD_MTEXT_DEFINED_HEIGHT_BEGIN
1070
    46
1040
3.291666666666666
1000
ACAD_MTEXT_DEFINED_HEIGHT_END
  0
LINE
  5
ACF
330
A99
100
AcDbEntity
  8
粗实线层
100
AcDbLine
 10
246.7401531749383
 20
9.999999999998181
 30
0.0
 11
246.7401531749383
 21
15.84100763375227
 31
0.0
  0
LINE
  5
AD0
330
A99
100
AcDbEntity
  8
粗实线层
100
AcDbLine
 10
259.3051658955483
 20
9.999999999998181
 30
0.0
 11
259.3051658955483
 21
15.84100763375227
 31
0.0
  0
LINE
  5
AD1
330
A99
100
AcDbEntity
  8
0
100
AcDbLine
 10
287.0
 20
9.999999999998181
 30
0.0
 11
187.0
 21
9.999999999998181
 31
0.0
  0
HATCH
  5
AD2
330
A99
100
AcDbEntity
  8
3中心线层
 62
     0
100
AcDbHatch
 10
0.0
 20
0.0
 30
0.0
210
0.0
220
0.0
230
1.0
  2
SOLID
 70
     1
 71
     0
 91
       14
 92
        5
 93
        5
 72
     4
 94
        3
 73
     0
 74
     0
 95
        8
 96
        4
 40
7.0
 40
7.0
 40
7.0
 40
7.0
 40
8.0
 40
8.0
 40
8.0
 40
8.0
 10
192.6618587974899
 20
36.25070197904824
 10
192.6618587974899
 20
37.06457350248093
 10
192.0020850279489
 20
37.72435081693493
 10
191.1882099595987
 20
37.72435081693493
 72
     4
 94
        3
 73
     0
 74
     0
 95
        8
 96
        4
 40
0.0
 40
0.0
 40
0.0
 40
0.0
 40
1.0
 40
1.0
 40
1.0
 40
1.0
 10
191.1882099595987
 20
37.72435081693493
 10
191.1882099595987
 20
37.72435081693493
 10
185.5392245201383
 20
37.72435081693493
 10
185.5392245201383
 20
37.72435081693493
 72
     4
 94
        3
 73
     0
 74
     0
 95
       11
 96
        7
 40
1.0
 40
1.0
 40
1.0
 40
1.0
 40
2.0
 40
2.0
 40
2.0
 40
3.0
 40
3.0
 40
3.0
 40
3.0
 10
185.5392245201383
 20
37.72435081693493
 10
184.7253529966983
 20
37.72435081693493
 10
184.0655792271573
 20
37.06457350248093
 10
184.0655792271573
 20
36.25070197904824
 10
184.0655792271573
 20
36.25070197904824
 10
184.0655792271573
 20
30.60171653959333
 10
184.0655792271573
 20
30.60171653959333
 72
     4
 94
        3
 73
     0
 74
     0
 95
       11
 96
        7
 40
3.0
 40
3.0
 40
3.0
 40
3.0
 40
4.0
 40
4.0
 40
4.0
 40
5.0
 40
5.0
 40
5.0
 40
5.0
 10
184.0655792271573
 20
30.60171653959333
 10
184.0655792271573
 20
29.78784147123315
 10
184.7253529966983
 20
29.128067701703
 10
185.5392245201383
 20
29.128067701703
 10
185.5392245201383
 20
29.128067701703
 10
191.1882099595987
 20
29.128067701703
 10
191.1882099595987
 20
29.128067701703
 72
     4
 94
        3
 73
     0
 74
     0
 95
       11
 96
        7
 40
5.0
 40
5.0
 40
5.0
 40
5.0
 40
6.0
 40
6.0
 40
6.0
 40
7.0
 40
7.0
 40
7.0
 40
7.0
 10
191.1882099595987
 20
29.128067701703
 10
192.0020850279489
 20
29.128067701703
 10
192.6618587974899
 20
29.78784147123315
 10
192.6618587974899
 20
30.60171653959333
 10
192.6618587974899
 20
30.60171653959333
 10
192.6618587974899
 20
36.25070197904824
 10
192.6618587974899
 20
36.25070197904824
 97
        0
 92
       20
 93
       12
 72
     4
 94
        3
 73
     0
 74
     0
 95
        8
 96
        4
 40
10.0
 40
10.0
 40
10.0
 40
10.0
 40
11.0
 40
11.0
 40
11.0
 40
11.0
 10
184.9252050572486
 20
33.4262074868584
 10
184.9252050572486
 20
35.32524340482541
 10
186.4647043638888
 20
36.86472144193522
 10
188.3637367369411
 20
36.86472144193522
 72
     4
 94
        3
 73
     0
 74
     0
 95
        8
 96
        4
 40
11.0
 40
11.0
 40
11.0
 40
11.0
 40
12.0
 40
12.0
 40
12.0
 40
12.0
 10
188.3637367369411
 20
36.86472144193522
 10
190.2627655650576
 20
36.86472144193522
 10
191.8022294224902
 20
35.32524340482541
 10
191.8022294224902
 20
33.4262074868584
 72
     4
 94
        3
 73
     0
 74
     0
 95
        8
 96
        4
 40
12.0
 40
12.0
 40
12.0
 40
12.0
 40
13.0
 40
13.0
 40
13.0
 40
13.0
 10
191.8022294224902
 20
33.4262074868584
 10
191.8022294224902
 20
31.52716802397026
 10
190.2627655650576
 20
29.98769353177613
 10
188.3637367369411
 20
29.98769353177613
 72
     4
 94
        3
 73
     0
 74
     0
 95
        8
 96
        4
 40
0.0
 40
0.0
 40
0.0
 40
0.0
 40
1.0
 40
1.0
 40
1.0
 40
1.0
 10
188.3637367369411
 20
29.98769353177613
 10
188.0946452623284
 20
29.98769353177613
 10
187.8332285435681
 20
30.01972899076281
 10
187.5820318345995
 20
30.07842580717261
 72
     4
 94
        3
 73
     0
 74
     0
 95
        8
 96
        4
 40
1.0
 40
1.0
 40
1.0
 40
1.0
 40
2.0
 40
2.0
 40
2.0
 40
2.0
 10
187.5820318345995
 20
30.07842580717261
 10
187.9056371177994
 20
30.29957575834487
 10
188.11810910022
 20
30.67139197904726
 10
188.11810910022
 20
31.09293281888768
 72
     4
 94
        3
 73
     0
 74
     0
 95
        8
 96
        4
 40
2.0
 40
2.0
 40
2.0
 40
2.0
 40
3.0
 40
3.0
 40
3.0
 40
3.0
 10
188.11810910022
 20
31.09293281888768
 10
188.11810910022
 20
31.183693453655
 10
188.1079706236596
 20
31.27204354154401
 10
188.0892888853687
 20
31.357196109906
 72
     4
 94
        3
 73
     0
 74
     0
 95
        8
 96
        4
 40
3.0
 40
3.0
 40
3.0
 40
3.0
 40
4.0
 40
4.0
 40
4.0
 40
4.0
 10
188.0892888853687
 20
31.357196109906
 10
188.1791420201389
 20
31.34529226225004
 10
188.2706222740489
 20
31.33853918607656
 10
188.3637296470988
 20
31.33853918607656
 72
     4
 94
        3
 73
     0
 74
     0
 95
        8
 96
        4
 40
4.0
 40
4.0
 40
4.0
 40
4.0
 40
5.0
 40
5.0
 40
5.0
 40
5.0
 10
188.3637296470988
 20
31.33853918607656
 10
189.5167119420094
 20
31.33853918607656
 10
190.4513873131073
 20
32.27321810209014
 10
190.4513873131073
 20
33.4262074868584
 72
     4
 94
        3
 73
     0
 74
     0
 95
       11
 96
        7
 40
5.0
 40
5.0
 40
5.0
 40
5.0
 40
6.0
 40
6.0
 40
6.0
 40
7.0
 40
7.0
 40
7.0
 40
7.0
 10
190.4513873131073
 20
33.4262074868584
 10
190.4513873131073
 20
34.57919332670099
 10
189.5167119420094
 20
35.51387578763661
 10
188.3637296470988
 20
35.51387578763661
 10
187.2107473521701
 20
35.51387578763661
 10
186.2760507115399
 20
34.57919332670099
 10
186.2760507115399
 20
33.4262074868584
 72
     4
 94
        3
 73
     0
 74
     0
 95
        8
 96
        4
 40
7.0
 40
7.0
 40
7.0
 40
7.0
 40
8.0
 40
8.0
 40
8.0
 40
8.0
 10
186.2760507115399
 20
33.4262074868584
 10
186.2760507115399
 20
33.0067297915466
 10
186.4001158873289
 20
32.61639135404675
 10
186.6130664341981
 20
32.28921278959024
 72
     4
 94
        3
 73
     0
 74
     0
 95
        8
 96
        4
 40
8.0
 40
8.0
 40
8.0
 40
8.0
 40
9.0
 40
9.0
 40
9.0
 40
9.0
 10
186.6130664341981
 20
32.28921278959024
 10
186.1285606920083
 20
32.1774449477989
 10
185.7536143053003
 20
31.77934667631143
 10
185.6766292369284
 20
31.2824620669353
 72
     4
 94
        3
 73
     0
 74
     0
 95
        8
 96
        4
 40
9.0
 40
9.0
 40
9.0
 40
9.0
 40
10.0
 40
10.0
 40
10.0
 40
10.0
 10
185.6766292369284
 20
31.2824620669353
 10
185.2068420103788
 20
31.87036609037659
 10
184.9252050572486
 20
32.61513645170271
 10
184.9252050572486
 20
33.4262074868584
 97
        0
 92
       20
 93
        1
 72
     4
 94
        3
 73
     0
 74
     0
 95
       17
 96
       13
 40
0.0
 40
0.0
 40
0.0
 40
0.0
 40
1.0
 40
1.0
 40
1.0
 40
2.0
 40
2.0
 40
2.0
 40
3.0
 40
3.0
 40
3.0
 40
4.0
 40
4.0
 40
4.0
 40
4.0
 10
186.7672669908388
 20
33.4262074868584
 10
186.7672669908388
 20
34.30790400053138
 10
187.4820331334267
 20
35.02266305326521
 10
188.3637261021777
 20
35.02266305326521
 10
189.2454190709195
 20
35.02266305326521
 10
189.9601710338084
 20
34.30790400053138
 10
189.9601710338084
 20
33.4262074868584
 10
189.9601710338084
 20
32.54451097318542
 10
189.2454190709195
 20
31.82975546537637
 10
188.3637261021777
 20
31.82975546537637
 10
187.4820331334267
 20
31.82975546537637
 10
186.7672669908388
 20
32.54451097318542
 10
186.7672669908388
 20
33.4262074868584
 97
        0
 92
       20
 93
        3
 72
     4
 94
        3
 73
     0
 74
     0
 95
       11
 96
        7
 40
1.0
 40
1.0
 40
1.0
 40
1.0
 40
2.0
 40
2.0
 40
2.0
 40
3.0
 40
3.0
 40
3.0
 40
3.0
 10
186.0304407994408
 20
31.09293281888768
 10
186.0304407994408
 20
31.56769002592137
 10
186.415316512328
 20
31.95255864897081
 10
186.890073719358
 20
31.95255864897081
 10
187.364830926399
 20
31.95255864897081
 10
187.7496960045082
 20
31.56769002592137
 10
187.7496960045082
 20
31.09293281888768
 72
     4
 94
        3
 73
     0
 74
     0
 95
        8
 96
        4
 40
3.0
 40
3.0
 40
3.0
 40
3.0
 40
4.0
 40
4.0
 40
4.0
 40
4.0
 10
187.7496960045082
 20
31.09293281888768
 10
187.7496960045082
 20
30.61817206693831
 10
187.364830926399
 20
30.2333034438916
 10
186.890073719358
 20
30.2333034438916
 72
     4
 94
        3
 73
     0
 74
     0
 95
        8
 96
        4
 40
0.0
 40
0.0
 40
0.0
 40
0.0
 40
1.0
 40
1.0
 40
1.0
 40
1.0
 10
186.890073719358
 20
30.2333034438916
 10
186.415316512328
 20
30.2333034438916
 10
186.0304407994408
 20
30.61817206693831
 10
186.0304407994408
 20
31.09293281888768
 97
        0
 92
        5
 93
       33
 72
     4
 94
        3
 73
     0
 74
     0
 95
       11
 96
        7
 40
5.0
 40
5.0
 40
5.0
 40
5.0
 40
6.0
 40
6.0
 40
6.0
 40
7.0
 40
7.0
 40
7.0
 40
7.0
 10
197.4327506761892
 20
34.32502693008155
 10
197.4327506761892
 20
34.32502693008155
 10
198.2561444363273
 20
34.32502693008155
 10
198.2561444363273
 20
34.32502693008155
 10
198.1278935863393
 20
35.43518281976503
 10
197.2437450432899
 20
36.0075006624802
 10
196.1908979454383
 20
36.0075006624802
 72
     4
 94
        3
 73
     0
 74
     0
 95
        8
 96
        4
 40
4.0
 40
4.0
 40
4.0
 40
4.0
 40
5.0
 40
5.0
 40
5.0
 40
5.0
 10
196.1908979454383
 20
36.0075006624802
 10
194.746598626356
 20
36.0075006624802
 10
193.8827155485687
 20
34.83527263742235
 10
193.8827155485687
 20
33.42861601341701
 72
     4
 94
        3
 73
     0
 74
     0
 95
        8
 96
        4
 40
3.0
 40
3.0
 40
3.0
 40
3.0
 40
4.0
 40
4.0
 40
4.0
 40
4.0
 10
193.8827155485687
 20
33.42861601341701
 10
193.8827155485687
 20
32.02193813182384
 10
194.746598626356
 20
30.84973136434746
 10
196.1908979454383
 20
30.84973136434746
 72
     4
 94
        3
 73
     0
 74
     0
 95
        8
 96
        4
 40
2.0
 40
2.0
 40
2.0
 40
2.0
 40
3.0
 40
3.0
 40
3.0
 40
3.0
 10
196.1908979454383
 20
30.84973136434746
 10
196.7780554708497
 20
30.84973136434746
 10
197.1897731573572
 20
31.02210908549841
 10
197.6419385486497
 20
31.54617222023535
 72
     4
 94
        3
 73
     0
 74
     0
 95
       11
 96
        7
 40
0.5
 40
0.5
 40
0.5
 40
0.5
 40
1.5
 40
1.5
 40
1.5
 40
2.0
 40
2.0
 40
2.0
 40
2.0
 10
197.6419385486497
 20
31.54617222023535
 10
197.6419385486497
 20
31.54617222023535
 10
197.7701893986396
 20
30.96694566382303
 10
197.7701893986396
 20
30.96694566382303
 10
197.7701893986396
 20
30.96694566382303
 10
197.9051711295469
 20
30.96694566382303
 10
198.040152860458
 20
30.96694566382303
 72
     4
 94
        3
 73
     0
 74
     0
 95
       11
 96
        7
 40
14.749965
 40
14.749965
 40
14.749965
 40
14.749965
 40
15.249965
 40
15.249965
 40
15.249965
 40
15.5
 40
15.5
 40
15.5
 40
15.5
 10
198.040152860458
 20
30.96694566382303
 10
198.175134591349
 20
30.96694566382303
 10
198.3101163222473
 20
30.96694566382303
 10
198.3101163222473
 20
30.96694566382303
 10
198.3101163222473
 20
30.96694566382303
 10
198.3101163222473
 20
31.12903359009397
 10
198.3101163222473
 20
31.37215413333979
 72
     4
 94
        3
 73
     0
 74
     0
 95
        8
 96
        4
 40
14.49997
 40
14.49997
 40
14.49997
 40
14.49997
 40
14.749965
 40
14.749965
 40
14.749965
 40
14.749965
 10
198.3101163222473
 20
31.37215413333979
 10
198.3101163222473
 20
31.61523578275319
 10
198.3101163222473
 20
31.93932412440699
 10
198.3101163222473
 20
32.26340274389622
 72
     4
 94
        3
 73
     0
 74
     0
 95
        8
 96
        4
 40
14.3749725
 40
14.3749725
 40
14.3749725
 40
14.3749725
 40
14.49997
 40
14.49997
 40
14.49997
 40
14.49997
 10
198.3101163222473
 20
32.26340274389622
 10
198.3101163222473
 20
32.42544205364266
 10
198.3101163222473
 20
32.58747893285272
 10
198.3101163222473
 20
32.73938632971203
 72
     4
 94
        3
 73
     0
 74
     0
 95
        8
 96
        4
 40
14.18747625
 40
14.18747625
 40
14.18747625
 40
14.18747625
 40
14.3749725
 40
14.3749725
 40
14.3749725
 40
14.3749725
 10
198.3101163222473
 20
32.73938632971203
 10
198.3101163222473
 20
32.96724742500464
 10
198.3101163222473
 20
33.17231718502717
 10
198.3101163222473
 20
33.32041680994917
 72
     4
 94
        3
 73
     0
 74
     0
 95
        8
 96
        4
 40
14.1249775
 40
14.1249775
 40
14.1249775
 40
14.1249775
 40
14.18747625
 40
14.18747625
 40
14.18747625
 40
14.18747625
 10
198.3101163222473
 20
33.32041680994917
 10
198.3101163222473
 20
33.36978335159347
 10
198.3101163222473
 20
33.41281987822549
 10
198.3101163222473
 20
33.44826050836582
 72
     4
 94
        3
 73
     0
 74
     0
 95
        8
 96
        4
 40
14.093728125
 40
14.093728125
 40
14.093728125
 40
14.093728125
 40
14.1249775
 40
14.1249775
 40
14.1249775
 40
14.1249775
 10
198.3101163222473
 20
33.44826050836582
 10
198.3101163222473
 20
33.46598082344099
 10
198.3101163222473
 20
33.48180216438595
 10
198.3101163222473
 20
33.49556629603558
 72
     4
 94
        3
 73
     0
 74
     0
 95
        8
 96
        4
 40
14.06247875
 40
14.06247875
 40
14.06247875
 40
14.06247875
 40
14.093728125
 40
14.093728125
 40
14.093728125
 40
14.093728125
 10
198.3101163222473
 20
33.49556629603558
 10
198.3101163222473
 20
33.5093304276761
 10
198.3101163222473
 20
33.52103735001583
 10
198.3101163222473
 20
33.53052882786415
 72
     4
 94
        3
 73
     0
 74
     0
 95
       11
 96
        7
 40
13.99997958222998
 40
13.99997958222998
 40
13.99997958222998
 40
13.99997958222998
 40
14.0
 40
14.0
 40
14.0
 40
14.00071240722656
 40
14.00071240722656
 40
14.00071240722656
 40
14.00071240722656
 10
198.3101163196898
 20
33.55962648270179
 10
198.3101163213978
 20
33.55962648270179
 10
198.3101163222473
 20
33.55962648270179
 10
198.3101163222473
 20
33.55962648270179
 10
198.3101163222473
 20
33.55962648270179
 10
198.3101163222473
 20
33.5596251668585
 10
198.3101163222473
 20
33.55962253703728
 72
     4
 94
        3
 73
     0
 74
     0
 95
        8
 96
        4
 40
13.49999
 40
13.49999
 40
13.49999
 40
13.49999
 40
13.99997958222998
 40
13.99997958222998
 40
13.99997958222998
 40
13.99997958222998
 10
198.3101163196898
 20
33.55962648270179
 10
198.310074429819
 20
33.55962648270179
 10
197.7971442815888
 20
33.55962648270179
 10
197.2842243915402
 20
33.55962648270179
 72
     4
 94
        3
 73
     0
 74
     0
 95
       11
 96
        7
 40
12.99902343580856
 40
12.99902343580856
 40
12.99902343580856
 40
12.99902343580856
 40
13.49901343580856
 40
13.49901343580856
 40
13.49901343580856
 40
13.49999
 40
13.49999
 40
13.49999
 40
13.49999
 10
197.2842243915402
 20
33.55962648270179
 10
196.7713040729195
 20
33.55962648270179
 10
196.2583940124987
 20
33.55962648270179
 10
196.2583940124987
 20
33.55962648270179
 10
196.2583940124987
 20
33.55962648270179
 10
196.2583940124987
 20
33.55962585797351
 10
196.2583940124987
 20
33.55962460973387
 72
     4
 94
        3
 73
     0
 74
     0
 95
        8
 96
        4
 40
12.906251875
 40
12.906251875
 40
12.906251875
 40
12.906251875
 40
12.93750125
 40
12.93750125
 40
12.93750125
 40
12.93750125
 10
196.2583940124987
 20
33.55226998693524
 10
196.2583940124987
 20
33.54987112850631
 10
196.2583940124987
 20
33.54691253559486
 10
196.2583940124987
 20
33.54343418830922
 72
     4
 94
        3
 73
     0
 74
     0
 95
        8
 96
        4
 40
12.81250375
 40
12.81250375
 40
12.81250375
 40
12.81250375
 40
12.8750024998249
 40
12.8750024998249
 40
12.8750024998249
 40
12.8750024998249
 10
196.2583940124987
 20
33.53147986342901
 10
196.2583940124987
 20
33.52252411166319
 10
196.2583940124987
 20
33.5116492629295
 10
196.2583940124987
 20
33.49917515820289
 72
     4
 94
        3
 73
     0
 74
     0
 95
        8
 96
        4
 40
12.75000499991749
 40
12.75000499991749
 40
12.75000499991749
 40
12.75000499991749
 40
12.81250375
 40
12.81250375
 40
12.81250375
 40
12.81250375
 10
196.2583940124987
 20
33.49917515820289
 10
196.2583940124987
 20
33.48670105341716
 10
196.2583940124987
 20
33.47262769262124
 10
196.2583940124987
 20
33.45727491677917
 72
     4
 94
        3
 73
     0
 74
     0
 95
        8
 96
        4
 40
12.6250075
 40
12.6250075
 40
12.6250075
 40
12.6250075
 40
12.75000499991749
 40
12.75000499991749
 40
12.75000499991749
 40
12.75000499991749
 10
196.2583940124987
 20
33.45727491677917
 10
196.2583940124987
 20
33.42656936515232
 10
196.2583940124987
 20
33.39074615335994
 10
196.2583940124987
 20
33.35236400913072
 72
     4
 94
        3
 73
     0
 74
     0
 95
        8
 96
        4
 40
12.50000999999212
 40
12.50000999999212
 40
12.50000999999212
 40
12.50000999999212
 40
12.6250075
 40
12.6250075
 40
12.6250075
 40
12.6250075
 10
196.2583940124987
 20
33.35236400913072
 10
196.2583940124987
 20
33.31398186487695
 10
196.2583940124987
 20
33.27304078819088
 10
196.2583940124987
 20
33.23209950678574
 72
     4
 94
        3
 73
     0
 74
     0
 95
        8
 96
        4
 40
12.250015
 40
12.250015
 40
12.250015
 40
12.250015
 40
12.50000999999212
 40
12.50000999999212
 40
12.50000999999212
 40
12.50000999999212
 10
196.2583940124987
 20
33.23209950678574
 10
196.2583940124987
 20
33.15021694400366
 10
196.2583940124987
 20
33.06833356241077
 10
196.2583940124987
 20
33.00691918389657
 72
     4
 94
        3
 73
     0
 74
     0
 95
       11
 96
        7
 40
11.99928759277344
 40
11.99928759277344
 40
11.99928759277344
 40
11.99928759277344
 40
12.24930259277344
 40
12.24930259277344
 40
12.24930259277344
 40
12.250015
 40
12.250015
 40
12.250015
 40
12.250015
 10
196.2583940124987
 20
33.00691918389657
 10
196.2583940124987
 20
32.94549989213374
 10
196.2583940124987
 20
32.9045528786819
 10
196.2583940124987
 20
32.9045528786819
 10
196.2583940124987
 20
32.9045528786819
 10
196.2583946633076
 20
32.9045528786819
 10
196.2583959640269
 20
32.9045528786819
 72
     4
 94
        3
 73
     0
 74
     0
 95
        8
 96
        4
 40
11.906271875
 40
11.906271875
 40
11.906271875
 40
11.906271875
 40
11.93752124974706
 40
11.93752124974706
 40
11.93752124974706
 40
11.93752124974706
 10
196.2727857364407
 20
32.9045528786819
 10
196.2774802290987
 20
32.9045528786819
 10
196.2832704823995
 20
32.9045528786819
 10
196.290078233098
 20
32.9045528786819
 72
     4
 94
        3
 73
     0
 74
     0
 95
        8
 96
        4
 40
11.8750225
 40
11.8750225
 40
11.8750225
 40
11.8750225
 40
11.906271875
 40
11.906271875
 40
11.906271875
 40
11.906271875
 10
196.290078233098
 20
32.9045528786819
 10
196.2968859838275
 20
32.9045528786819
 10
196.30471123198
 20
32.9045528786819
 10
196.3134757142689
 20
32.9045528786819
 72
     4
 94
        3
 73
     0
 74
     0
 95
        8
 96
        4
 40
11.81252375
 40
11.81252375
 40
11.81252375
 40
11.81252375
 40
11.8750225
 40
11.8750225
 40
11.8750225
 40
11.8750225
 10
196.3134757142689
 20
32.9045528786819
 10
196.3310046788501
 20
32.9045528786819
 10
196.3522905800291
 20
32.9045528786819
 10
196.3767073118088
 20
32.9045528786819
 72
     4
 94
        3
 73
     0
 74
     0
 95
        8
 96
        4
 40
11.75002499995332
 40
11.75002499995332
 40
11.75002499995332
 40
11.75002499995332
 40
11.81252375
 40
11.81252375
 40
11.81252375
 40
11.81252375
 10
196.3767073118088
 20
32.9045528786819
 10
196.4011240436084
 20
32.9045528786819
 10
196.4286716059978
 20
32.9045528786819
 10
196.4587238929689
 20
32.9045528786819
 72
     4
 94
        3
 73
     0
 74
     0
 95
        8
 96
        4
 40
11.6250275
 40
11.6250275
 40
11.6250275
 40
11.6250275
 40
11.75002499995332
 40
11.75002499995332
 40
11.75002499995332
 40
11.75002499995332
 10
196.4587238929689
 20
32.9045528786819
 10
196.5188284668402
 20
32.9045528786819
 10
196.5889519390075
 20
32.9045528786819
 10
196.6640854614179
 20
32.9045528786819
 72
     4
 94
        3
 73
     0
 74
     0
 95
        8
 96
        4
 40
11.50003
 40
11.50003
 40
11.50003
 40
11.50003
 40
11.6250275
 40
11.6250275
 40
11.6250275
 40
11.6250275
 10
196.6640854614179
 20
32.9045528786819
 10
196.7392189838502
 20
32.9045528786819
 10
196.8193625565091
 20
32.9045528786819
 10
196.8995073313272
 20
32.9045528786819
 72
     4
 94
        3
 73
     0
 74
     0
 95
        8
 96
        4
 40
11.250035
 40
11.250035
 40
11.250035
 40
11.250035
 40
11.50003
 40
11.50003
 40
11.50003
 40
11.50003
 10
196.8995073313272
 20
32.9045528786819
 10
197.0597968809398
 20
32.9045528786819
 10
197.220091239149
 20
32.9045528786819
 10
197.3403196212785
 20
32.9045528786819
 72
     4
 94
        3
 73
     0
 74
     0
 95
       11
 96
        7
 40
10.0
 40
10.0
 40
10.0
 40
10.0
 40
10.250035
 40
10.250035
 40
10.250035
 40
11.250035
 40
11.250035
 40
11.250035
 40
11.250035
 10
197.3403196212785
 20
32.9045528786819
 10
197.4605672403395
 20
32.9045528786819
 10
197.5407360609206
 20
32.9045528786819
 10
197.5407360609206
 20
32.9045528786819
 10
197.5272118797893
 20
32.07021409738627
 10
197.0547810232383
 20
31.53926350653728
 10
196.1908979454383
 20
31.55305967635013
 72
     4
 94
        3
 73
     0
 74
     0
 95
        8
 96
        4
 40
9.0
 40
9.0
 40
9.0
 40
9.0
 40
10.0
 40
10.0
 40
10.0
 40
10.0
 10
196.1908979454383
 20
31.55305967635013
 10
195.1583163128489
 20
31.55305967635013
 10
194.7263747739689
 20
32.48392913118823
 10
194.7263747739689
 20
33.42861601341701
 72
     4
 94
        3
 73
     0
 74
     0
 95
        8
 96
        4
 40
8.0
 40
8.0
 40
8.0
 40
8.0
 40
9.0
 40
9.0
 40
9.0
 40
9.0
 10
194.7263747739689
 20
33.42861601341701
 10
194.7263747739689
 20
34.37328163806797
 10
195.1583163128489
 20
35.30417235047662
 10
196.1908979454383
 20
35.30417235047662
 72
     4
 94
        3
 73
     0
 74
     0
 95
        8
 96
        4
 40
7.0
 40
7.0
 40
7.0
 40
7.0
 40
8.0
 40
8.0
 40
8.0
 40
8.0
 10
196.1908979454383
 20
35.30417235047662
 10
196.7983209361282
 20
35.30417235047662
 10
197.3517304280067
 20
34.97319182040883
 10
197.4327506761892
 20
34.32502693008155
 97
        0
 92
        5
 93
        8
 72
     4
 94
        3
 73
     0
 74
     0
 95
       11
 96
        7
 40
0.5
 40
0.5
 40
0.5
 40
0.5
 40
1.5
 40
1.5
 40
1.5
 40
2.0
 40
2.0
 40
2.0
 40
2.0
 10
199.5447570417182
 20
33.01937972961241
 10
199.5447570417182
 20
33.01937972961241
 10
199.5447570417182
 20
35.88469663157503
 10
199.5447570417182
 20
35.88469663157503
 10
199.5447570417182
 20
35.88469663157503
 10
199.3283343781968
 20
35.88469663157503
 10
199.1119117146773
 20
35.88469663157503
 72
     4
 94
        3
 73
     0
 74
     0
 95
       11
 96
        7
 40
9.5
 40
9.5
 40
9.5
 40
9.5
 40
10.0
 40
10.0
 40
10.0
 40
10.5
 40
10.5
 40
10.5
 40
10.5
 10
199.1119117146773
 20
35.88469663157503
 10
198.8954890511486
 20
35.88469663157503
 10
198.6790663876382
 20
35.88469663157503
 10
198.6790663876382
 20
35.88469663157503
 10
198.6790663876382
 20
35.88469663157503
 10
198.6790663876382
 20
35.0977643328697
 10
198.6790663876382
 20
34.31083203416983
 72
     4
 94
        3
 73
     0
 74
     0
 95
       11
 96
        7
 40
8.0
 40
8.0
 40
8.0
 40
8.0
 40
8.5
 40
8.5
 40
8.5
 40
9.5
 40
9.5
 40
9.5
 40
9.5
 10
198.6790663876382
 20
34.31083203416983
 10
198.6790663876382
 20
33.52389973546906
 10
198.6790663876382
 20
32.73696743676646
 10
198.6790663876382
 20
32.73696743676646
 10
198.6790663876382
 20
31.47651678240345
 10
199.4893729950381
 20
30.84973136434746
 10
200.7082917402076
 20
30.84973136434746
 72
     4
 94
        3
 73
     0
 74
     0
 95
        8
 96
        4
 40
7.0
 40
7.0
 40
7.0
 40
7.0
 40
8.0
 40
8.0
 40
8.0
 40
8.0
 10
200.7082917402076
 20
30.84973136434746
 10
201.9272104853681
 20
30.84973136434746
 10
202.737517092768
 20
31.47651678240345
 10
202.737517092768
 20
32.73696743676646
 72
     4
 94
        3
 73
     0
 74
     0
 95
       11
 96
        7
 40
5.5
 40
5.5
 40
5.5
 40
5.5
 40
6.5
 40
6.5
 40
6.5
 40
7.0
 40
7.0
 40
7.0
 40
7.0
 10
202.737517092768
 20
32.73696743676646
 10
202.737517092768
 20
32.73696743676646
 10
202.737517092768
 20
35.88469663157503
 10
202.737517092768
 20
35.88469663157503
 10
202.737517092768
 20
35.88469663157503
 10
202.521083753827
 20
35.88469663157503
 10
202.3046504148988
 20
35.88469663157503
 72
     4
 94
        3
 73
     0
 74
     0
 95
       11
 96
        7
 40
4.5
 40
4.5
 40
4.5
 40
4.5
 40
5.0
 40
5.0
 40
5.0
 40
5.5
 40
5.5
 40
5.5
 40
5.5
 10
202.3046504148988
 20
35.88469663157503
 10
202.0882170759596
 20
35.88469663157503
 10
201.8717837370277
 20
35.88469663157503
 10
201.8717837370277
 20
35.88469663157503
 10
201.8717837370277
 20
35.88469663157503
 10
201.8717837370277
 20
35.16836740608323
 10
201.8717837370277
 20
34.45203818059144
 72
     4
 94
        3
 73
     0
 74
     0
 95
       11
 96
        7
 40
3.0
 40
3.0
 40
3.0
 40
3.0
 40
3.5
 40
3.5
 40
3.5
 40
4.5
 40
4.5
 40
4.5
 40
4.5
 10
201.8717837370277
 20
34.45203818059144
 10
201.8717837370277
 20
33.73570895510056
 10
201.8717837370277
 20
33.01937972961241
 10
201.8717837370277
 20
33.01937972961241
 10
201.8717837370277
 20
32.35815275223649
 10
201.8302350266076
 20
31.5936010968926
 10
200.7082917402076
 20
31.5936010968926
 72
     4
 94
        3
 73
     0
 74
     0
 95
        8
 96
        4
 40
2.0
 40
2.0
 40
2.0
 40
2.0
 40
3.0
 40
3.0
 40
3.0
 40
3.0
 10
200.7082917402076
 20
31.5936010968926
 10
199.5863057521383
 20
31.5936010968926
 10
199.5447570417182
 20
32.35815275223649
 10
199.5447570417182
 20
33.01937972961241
 97
        0
 92
        5
 93
        1
 72
     4
 94
        3
 73
     0
 74
     0
 95
       17
 96
       13
 40
0.0
 40
0.0
 40
0.0
 40
0.0
 40
1.0
 40
1.0
 40
1.0
 40
2.0
 40
2.0
 40
2.0
 40
3.0
 40
3.0
 40
3.0
 40
4.0
 40
4.0
 40
4.0
 40
4.0
 10
208.8866848314883
 20
33.42205313907289
 10
208.8866848314883
 20
32.02225724819073
 10
208.0121345599382
 20
30.85578535162767
 10
206.550001090558
 20
30.85578535162767
 10
205.0878676211778
 20
30.85578535162767
 10
204.2133173496277
 20
32.02225724819073
 10
204.2133173496277
 20
33.42205313907289
 10
204.2133173496277
 20
34.82182787638067
 10
205.0878676211778
 20
35.98832092652083
 10
206.550001090558
 20
35.98832092652083
 10
208.0121345599382
 20
35.98832092652083
 10
208.8866848314883
 20
34.82182787638067
 10
208.8866848314883
 20
33.42205313907289
 97
        0
 92
       20
 93
        4
 72
     4
 94
        3
 73
     0
 74
     0
 95
        8
 96
        4
 40
2.0
 40
2.0
 40
2.0
 40
2.0
 40
3.0
 40
3.0
 40
3.0
 40
3.0
 10
206.550001090558
 20
35.28843355787103
 10
207.5953751265879
 20
35.28843355787103
 10
208.0326502623702
 20
34.36209710859657
 10
208.0326502623702
 20
33.42205313907289
 72
     4
 94
        3
 73
     0
 74
     0
 95
        8
 96
        4
 40
1.0
 40
1.0
 40
1.0
 40
1.0
 40
2.0
 40
2.0
 40
2.0
 40
2.0
 10
208.0326502623702
 20
33.42205313907289
 10
208.0326502623702
 20
32.48198801597391
 10
207.5953751265879
 20
31.55567272028384
 10
206.550001090558
 20
31.55567272028384
 72
     4
 94
        3
 73
     0
 74
     0
 95
        8
 96
        4
 40
0.0
 40
0.0
 40
0.0
 40
0.0
 40
1.0
 40
1.0
 40
1.0
 40
1.0
 10
206.550001090558
 20
31.55567272028384
 10
205.5046691812204
 20
31.55567272028384
 10
205.067394045449
 20
32.48198801597391
 10
205.067394045449
 20
33.42205313907289
 72
     4
 94
        3
 73
     0
 74
     0
 95
        8
 96
        4
 40
3.0
 40
3.0
 40
3.0
 40
3.0
 40
4.0
 40
4.0
 40
4.0
 40
4.0
 10
205.067394045449
 20
33.42205313907289
 10
205.067394045449
 20
34.36209710859657
 10
205.5046691812204
 20
35.28843355787103
 10
206.550001090558
 20
35.28843355787103
 97
        0
 92
        5
 93
       31
 72
     4
 94
        3
 73
     0
 74
     0
 95
        8
 96
        4
 40
1.0
 40
1.0
 40
1.0
 40
1.0
 40
2.0
 40
2.0
 40
2.0
 40
2.0
 10
213.0681188951185
 20
34.41104720021303
 10
213.0681188951185
 20
35.05395337570008
 10
212.8016692284073
 20
36.0075006624802
 10
211.4078320548888
 20
36.0075006624802
 72
     4
 94
        3
 73
     0
 74
     0
 95
       11
 96
        7
 40
6.749964999999998
 40
6.749964999999998
 40
6.749964999999998
 40
6.749964999999998
 40
7.749964999999998
 40
7.749964999999998
 40
7.749964999999998
 40
8.0
 40
8.0
 40
8.0
 40
8.0
 10
211.4078320548888
 20
36.0075006624802
 10
211.4078320548888
 20
36.0075006624802
 10
209.2556348971284
 20
36.0075006624802
 10
209.2556348971284
 20
36.0075006624802
 10
209.2556348971284
 20
36.0075006624802
 10
209.2556348971284
 20
35.68504981406295
 10
209.2556348971284
 20
35.20139611300328
 72
     4
 94
        3
 73
     0
 74
     0
 95
        8
 96
        4
 40
6.499969999999998
 40
6.499969999999998
 40
6.499969999999998
 40
6.499969999999998
 40
6.749964999999998
 40
6.749964999999998
 40
6.749964999999998
 40
6.749964999999998
 10
209.2556348971284
 20
35.20139611300328
 10
209.2556348971284
 20
34.71781978570198
 10
209.2556348971284
 20
34.07309217931743
 10
209.2556348971284
 20
33.42838391379792
 72
     4
 94
        3
 73
     0
 74
     0
 95
        8
 96
        4
 40
6.3749725
 40
6.3749725
 40
6.3749725
 40
6.3749725
 40
6.499969999999998
 40
6.499969999999998
 40
6.499969999999998
 40
6.499969999999998
 10
209.2556348971284
 20
33.42838391379792
 10
209.2556348971284
 20
33.10602978103816
 10
209.2556348971284
 20
32.78368048348875
 10
209.2556348971284
 20
32.48148234865494
 72
     4
 94
        3
 73
     0
 74
     0
 95
        8
 96
        4
 40
6.249974999999997
 40
6.249974999999997
 40
6.249974999999997
 40
6.249974999999997
 40
6.374972499999997
 40
6.374972499999997
 40
6.374972499999997
 40
6.374972499999997
 10
209.2556348971284
 20
32.48148234865494
 10
209.2556348971284
 20
32.17928421381566
 10
209.2556348971284
 20
31.8972372416838
 10
209.2556348971284
 20
31.65548775975458
 72
     4
 94
        3
 73
     0
 74
     0
 95
        8
 96
        4
 40
6.187476249999998
 40
6.187476249999998
 40
6.187476249999998
 40
6.187476249999998
 40
6.249974999999999
 40
6.249974999999999
 40
6.249974999999999
 40
6.249974999999999
 10
209.2556348971284
 20
31.65548775975458
 10
209.2556348971284
 20
31.53461301879088
 10
209.2556348971284
 20
31.42381265037966
 10
209.2556348971284
 20
31.32560494544668
 72
     4
 94
        3
 73
     0
 74
     0
 95
        8
 96
        4
 40
6.124977499999999
 40
6.124977499999999
 40
6.124977499999999
 40
6.124977499999999
 40
6.187476249999998
 40
6.187476249999998
 40
6.187476249999998
 40
6.187476249999998
 10
209.2556348971284
 20
31.32560494544668
 10
209.2556348971284
 20
31.22739724051917
 10
209.2556348971284
 20
31.14178219908081
 10
209.2556348971284
 20
31.07127811206192
 72
     4
 94
        3
 73
     0
 74
     0
 95
        8
 96
        4
 40
6.093728125
 40
6.093728125
 40
6.093728125
 40
6.093728125
 40
6.124977499999999
 40
6.124977499999999
 40
6.124977499999999
 40
6.124977499999999
 10
209.2556348971284
 20
31.07127811206192
 10
209.2556348971284
 20
31.03602606855475
 10
209.2556348971284
 20
31.00455176364994
 10
209.2556348971284
 20
30.97716998372471
 72
     4
 94
        3
 73
     0
 74
     0
 95
        8
 96
        4
 40
6.06247875
 40
6.06247875
 40
6.06247875
 40
6.06247875
 40
6.093728125
 40
6.093728125
 40
6.093728125
 40
6.093728125
 10
209.2556348971284
 20
30.97716998372471
 10
209.2556348971284
 20
30.94978820379674
 10
209.2556348971284
 20
30.92649894883652
 10
209.2556348971284
 20
30.90761700522216
 72
     4
 94
        3
 73
     0
 74
     0
 95
        8
 96
        4
 40
6.046854062499998
 40
6.046854062499998
 40
6.046854062499998
 40
6.046854062499998
 40
6.062478749999998
 40
6.062478749999998
 40
6.062478749999998
 40
6.062478749999998
 10
209.2556348971284
 20
30.90761700522216
 10
209.2556348971284
 20
30.89817603341544
 10
209.2556348971284
 20
30.88983688943881
 10
209.2556348971284
 20
30.88263892160012
 72
     4
 94
        3
 73
     0
 74
     0
 95
        8
 96
        4
 40
6.031229375000001
 40
6.031229375000001
 40
6.031229375000001
 40
6.031229375000001
 40
6.046854062500001
 40
6.046854062500001
 40
6.046854062500001
 40
6.046854062500001
 10
209.2556348971284
 20
30.88263892160012
 10
209.2556348971284
 20
30.87544095375597
 10
209.2556348971284
 20
30.86938416204339
 10
209.2556348971284
 20
30.86450789475475
 72
     4
 94
        3
 73
     0
 74
     0
 95
       11
 96
        7
 40
5.999979147302425
 40
5.999979147302425
 40
5.999979147302425
 40
5.999979147302425
 40
6.0
 40
6.0
 40
6.0
 40
6.000468271484374
 40
6.000468271484374
 40
6.000468271484374
 40
6.000468271484374
 10
209.2556348982398
 20
30.84973136434746
 10
209.2556348974995
 20
30.84973136434746
 10
209.2556348971284
 20
30.84973136434746
 10
209.2556348971284
 20
30.84973136434746
 10
209.2556348971284
 20
30.84973136434746
 10
209.2556348971284
 20
30.84973249533869
 10
209.2556348971284
 20
30.84973475624793
 72
     4
 94
        3
 73
     0
 74
     0
 95
        8
 96
        4
 40
5.49999
 40
5.49999
 40
5.49999
 40
5.49999
 40
5.999979147302425
 40
5.999979147302425
 40
5.999979147302425
 40
5.999979147302425
 10
209.2556348982398
 20
30.84973136434746
 10
209.2556527071774
 20
30.84973136434746
 10
209.4691701507909
 20
30.84973136434746
 10
209.6826833242467
 20
30.84973136434746
 72
     4
 94
        3
 73
     0
 74
     0
 95
       11
 96
        7
 40
4.999511717945667
 40
4.999511717945667
 40
4.999511717945667
 40
4.999511717945667
 40
5.499501717945666
 40
5.499501717945666
 40
5.499501717945666
 40
5.499989999999998
 40
5.499989999999998
 40
5.499989999999998
 40
5.499989999999998
 10
209.6826833242467
 20
30.84973136434746
 10
209.8961968618278
 20
30.84973136434746
 10
210.1097061292185
 20
30.84973136434746
 10
210.1097061292185
 20
30.84973136434746
 10
210.1097061292185
 20
30.84973136434746
 10
210.1097061292185
 20
30.84973183625425
 10
210.1097061292185
 20
30.84973277961035
 72
     4
 94
        3
 73
     0
 74
     0
 95
        8
 96
        4
 40
4.937501249873328
 40
4.937501249873328
 40
4.937501249873328
 40
4.937501249873328
 40
4.9531259375
 40
4.9531259375
 40
4.9531259375
 40
4.9531259375
 10
210.1097061292185
 20
30.86237038596209
 10
210.1097061292185
 20
30.86513375723371
 10
210.1097061292185
 20
30.86833504028255
 10
210.1097061292185
 20
30.87195913503274
 72
     4
 94
        3
 73
     0
 74
     0
 95
        8
 96
        4
 40
4.906251875000001
 40
4.906251875000001
 40
4.906251875000001
 40
4.906251875000001
 40
4.93750124987333
 40
4.93750124987333
 40
4.93750124987333
 40
4.93750124987333
 10
210.1097061292185
 20
30.87195913503274
 10
210.1097061292185
 20
30.87920732444127
 10
210.1097061292185
 20
30.88814676061338
 10
210.1097061292185
 20
30.89865664296667
 72
     4
 94
        3
 73
     0
 74
     0
 95
        8
 96
        4
 40
4.875002499912453
 40
4.875002499912453
 40
4.875002499912453
 40
4.875002499912453
 40
4.906251875000001
 40
4.906251875000001
 40
4.906251875000001
 40
4.906251875000001
 10
210.1097061292185
 20
30.89865664296667
 10
210.1097061292185
 20
30.90916652539363
 10
210.1097061292185
 20
30.92124685402723
 10
210.1097061292185
 20
30.93477682828234
 72
     4
 94
        3
 73
     0
 74
     0
 95
        8
 96
        4
 40
4.812503749999999
 40
4.812503749999999
 40
4.812503749999999
 40
4.812503749999999
 40
4.875002499912453
 40
4.875002499912453
 40
4.875002499912453
 40
4.875002499912453
 10
210.1097061292185
 20
30.93477682828234
 10
210.1097061292185
 20
30.9618367766825
 10
210.1097061292185
 20
30.99469530752594
 10
210.1097061292185
 20
31.03238601619159
 72
     4
 94
        3
 73
     0
 74
     0
 95
        8
 96
        4
 40
4.750005000000001
 40
4.750005000000001
 40
4.750005000000001
 40
4.750005000000001
 40
4.812503749999999
 40
4.812503749999999
 40
4.812503749999999
 40
4.812503749999999
 10
210.1097061292185
 20
31.03238601619159
 10
210.1097061292185
 20
31.07007672489999
 10
210.1097061292185
 20
31.11259961143787
 10
210.1097061292185
 20
31.15898827116507
 72
     4
 94
        3
 73
     0
 74
     0
 95
        8
 96
        4
 40
4.625007500000001
 40
4.625007500000001
 40
4.625007500000001
 40
4.625007500000001
 40
4.750005000000002
 40
4.750005000000002
 40
4.750005000000002
 40
4.750005000000002
 10
210.1097061292185
 20
31.15898827116507
 10
210.1097061292185
 20
31.25176559061219
 10
210.1097061292185
 20
31.36000600280295
 10
210.1097061292185
 20
31.47597827062873
 72
     4
 94
        3
 73
     0
 74
     0
 95
        8
 96
        4
 40
4.500009999999996
 40
4.500009999999996
 40
4.500009999999996
 40
4.500009999999996
 40
4.625007499999997
 40
4.625007499999997
 40
4.625007499999997
 40
4.625007499999997
 10
210.1097061292185
 20
31.47597827062873
 10
210.1097061292185
 20
31.59195053845269
 10
210.1097061292185
 20
31.71565466189804
 10
210.1097061292185
 20
31.83935940386164
 72
     4
 94
        3
 73
     0
 74
     0
 95
        8
 96
        4
 40
4.250014999999999
 40
4.250014999999999
 40
4.250014999999999
 40
4.250014999999999
 40
4.500009999999996
 40
4.500009999999996
 40
4.500009999999996
 40
4.500009999999996
 10
210.1097061292185
 20
31.83935940386164
 10
210.1097061292185
 20
32.08676888778791
 10
210.1097061292185
 20
32.33418084575351
 10
210.1097061292185
 20
32.51974538083596
 72
     4
 94
        3
 73
     0
 74
     0
 95
       11
 96
        7
 40
3.999287592773436
 40
3.999287592773436
 40
3.999287592773436
 40
3.999287592773436
 40
4.249302592773437
 40
4.249302592773437
 40
4.249302592773437
 40
4.250014999999999
 40
4.250014999999999
 40
4.250014999999999
 40
4.250014999999999
 10
210.1097061292185
 20
32.51974538083596
 10
210.1097061292185
 20
32.70532476137487
 10
210.1097061292185
 20
32.8290468228397
 10
210.1097061292185
 20
32.8290468228397
 10
210.1097061292185
 20
32.8290468228397
 10
210.1097067880492
 20
32.8290468228397
 10
210.1097081047701
 20
32.8290468228397
 72
     4
 94
        3
 73
     0
 74
     0
 95
        8
 96
        4
 40
3.906271874999998
 40
3.906271874999998
 40
3.906271874999998
 40
3.906271874999998
 40
3.937521249747056
 40
3.937521249747056
 40
3.937521249747056
 40
3.937521249747056
 10
210.1242749955982
 20
32.8290468228397
 10
210.1290272710594
 20
32.8290468228397
 10
210.1348887944696
 20
32.8290468228397
 10
210.1417803392469
 20
32.8290468228397
 72
     4
 94
        3
 73
     0
 74
     0
 95
        8
 96
        4
 40
3.875022499912441
 40
3.875022499912441
 40
3.875022499912441
 40
3.875022499912441
 40
3.906271874999998
 40
3.906271874999998
 40
3.906271874999998
 40
3.906271874999998
 10
210.1417803392469
 20
32.8290468228397
 10
210.1486718841188
 20
32.8290468228397
 10
210.1565934503906
 20
32.8290468228397
 10
210.1654658115076
 20
32.8290468228397
 72
     4
 94
        3
 73
     0
 74
     0
 95
        8
 96
        4
 40
3.81252375
 40
3.81252375
 40
3.81252375
 40
3.81252375
 40
3.875022499912441
 40
3.875022499912441
 40
3.875022499912441
 40
3.875022499912441
 10
210.1654658115076
 20
32.8290468228397
 10
210.1832105336598
 20
32.8290468228397
 10
210.2047584351476
 20
32.8290468228397
 10
210.2294757034779
 20
32.8290468228397
 72
     4
 94
        3
 73
     0
 74
     0
 95
        8
 96
        4
 40
3.750024999999998
 40
3.750024999999998
 40
3.750024999999998
 40
3.750024999999998
 40
3.81252375
 40
3.81252375
 40
3.81252375
 40
3.81252375
 10
210.2294757034779
 20
32.8290468228397
 10
210.2541929718409
 20
32.8290468228397
 10
210.2820796070282
 20
32.8290468228397
 10
210.3125017965285
 20
32.8290468228397
 72
     4
 94
        3
 73
     0
 74
     0
 95
        8
 96
        4
 40
3.6250275
 40
3.6250275
 40
3.6250275
 40
3.6250275
 40
3.750024999999998
 40
3.750024999999998
 40
3.750024999999998
 40
3.750024999999998
 10
210.3125017965285
 20
32.8290468228397
 10
210.3733461755382
 20
32.8290468228397
 10
210.4443327718091
 20
32.8290468228397
 10
210.5203910851578
 20
32.8290468228397
 72
     4
 94
        3
 73
     0
 74
     0
 95
        8
 96
        4
 40
3.50003
 40
3.50003
 40
3.50003
 40
3.50003
 40
3.6250275
 40
3.6250275
 40
3.6250275
 40
3.6250275
 10
210.5203910851578
 20
32.8290468228397
 10
210.5964493985193
 20
32.8290468228397
 10
210.6775794289788
 20
32.8290468228397
 10
210.7587106763785
 20
32.8290468228397
 72
     4
 94
        3
 73
     0
 74
     0
 95
        8
 96
        4
 40
3.250035
 40
3.250035
 40
3.250035
 40
3.250035
 40
3.50003
 40
3.50003
 40
3.50003
 40
3.50003
 10
210.7587106763785
 20
32.8290468228397
 10
210.920973171189
 20
32.8290468228397
 10
211.0832405337787
 20
32.8290468228397
 10
211.2049487629065
 20
32.8290468228397
 72
     4
 94
        3
 73
     0
 74
     0
 95
       11
 96
        7
 40
2.0
 40
2.0
 40
2.0
 40
2.0
 40
2.250035
 40
2.250035
 40
2.250035
 40
3.250035
 40
3.250035
 40
3.250035
 40
3.250035
 10
211.2049487629065
 20
32.8290468228397
 10
211.3266764657292
 20
32.8290468228397
 10
211.4078320548888
 20
32.8290468228397
 10
211.4078320548888
 20
32.8290468228397
 10
212.8016692284073
 20
32.8218091455019
 10
213.0681188951185
 20
33.77535643228384
 10
213.0681188951185
 20
34.41104720021303
 97
        0
 92
       20
 93
       11
 72
     4
 94
        3
 73
     0
 74
     0
 95
        8
 96
        4
 40
3.250015000000001
 40
3.250015000000001
 40
3.250015000000001
 40
3.250015000000001
 40
3.500009999937033
 40
3.500009999937033
 40
3.500009999937033
 40
3.500009999937033
 10
210.74166786559
 20
35.2706828398268
 10
210.8996598794893
 20
35.2706828398268
 10
211.0576534732681
 20
35.2706828398268
 10
211.1761522233683
 20
35.2706828398268
 72
     4
 94
        3
 73
     0
 74
     0
 95
       11
 96
        7
 40
2.0
 40
2.0
 40
2.0
 40
2.0
 40
2.250015
 40
2.250015
 40
2.250015
 40
3.250015
 40
3.250015
 40
3.250015
 40
3.250015
 10
211.1761522233683
 20
35.2706828398268
 10
211.2946604535882
 20
35.2706828398268
 10
211.3736675205491
 20
35.2706828398268
 10
211.3736675205491
 20
35.2706828398268
 10
211.8246309485585
 20
35.2706828398268
 10
212.2140476630393
 20
35.09729036061435
 10
212.2140476630393
 20
34.41826260777361
 72
     4
 94
        3
 73
     0
 74
     0
 95
        8
 96
        4
 40
1.0
 40
1.0
 40
1.0
 40
1.0
 40
2.0
 40
2.0
 40
2.0
 40
2.0
 10
212.2140476630393
 20
34.41826260777361
 10
212.2140476630393
 20
33.76814102472144
 10
211.7426107902775
 20
33.56586464549582
 10
211.3600185573778
 20
33.56586464549582
 72
     4
 94
        3
 73
     0
 74
     0
 95
       11
 96
        7
 40
4.49999
 40
4.49999
 40
4.49999
 40
4.49999
 40
5.49999
 40
5.49999
 40
5.49999
 40
6.0
 40
6.0
 40
6.0
 40
6.0
 10
211.3600185573778
 20
33.56586464549582
 10
211.3600185573778
 20
33.56586464549582
 10
210.1097061292185
 20
33.56586464549582
 10
210.1097061292185
 20
33.56586464549582
 10
210.1097061292185
 20
33.56586464549582
 10
210.1097061292185
 20
33.9920862424342
 10
210.1097061292185
 20
34.41829931493521
 72
     4
 94
        3
 73
     0
 74
     0
 95
       11
 96
        7
 40
3.999267592773436
 40
3.999267592773436
 40
3.999267592773436
 40
3.999267592773436
 40
4.499257592773438
 40
4.499257592773438
 40
4.499257592773438
 40
4.49999
 40
4.49999
 40
4.49999
 40
4.49999
 10
210.1097061292185
 20
34.41829931493521
 10
210.1097061292185
 20
34.84449533925635
 10
210.1097061292185
 20
35.2706828398268
 10
210.1097061292185
 20
35.2706828398268
 10
210.1097061292185
 20
35.2706828398268
 10
210.1097068072377
 20
35.2706828398268
 10
210.1097081622702
 20
35.2706828398268
 72
     4
 94
        3
 73
     0
 74
     0
 95
        8
 96
        4
 40
3.906251875
 40
3.906251875
 40
3.906251875
 40
3.906251875
 40
3.937501249746713
 40
3.937501249746713
 40
3.937501249746713
 40
3.937501249746713
 10
210.1239004527906
 20
35.2706828398268
 10
210.1285290386495
 20
35.2706828398268
 10
210.1342376295288
 20
35.2706828398268
 10
210.1409490839505
 20
35.2706828398268
 72
     4
 94
        3
 73
     0
 74
     0
 95
        8
 96
        4
 40
3.8750025
 40
3.8750025
 40
3.8750025
 40
3.8750025
 40
3.906251875
 40
3.906251875
 40
3.906251875
 40
3.906251875
 10
210.1409490839505
 20
35.2706828398268
 10
210.1476605383978
 20
35.2706828398268
 10
210.1553748564274
 20
35.2706828398268
 10
210.1640148965889
 20
35.2706828398268
 72
     4
 94
        3
 73
     0
 74
     0
 95
        8
 96
        4
 40
3.812503749999999
 40
3.812503749999999
 40
3.812503749999999
 40
3.812503749999999
 40
3.8750025
 40
3.8750025
 40
3.8750025
 40
3.8750025
 10
210.1640148965889
 20
35.2706828398268
 10
210.1812949768791
 20
35.2706828398268
 10
210.2022779456292
 20
35.2706828398268
 10
210.2263466712193
 20
35.2706828398268
 72
     4
 94
        3
 73
     0
 74
     0
 95
        8
 96
        4
 40
3.750004999953268
 40
3.750004999953268
 40
3.750004999953268
 40
3.750004999953268
 40
3.812503749999999
 40
3.812503749999999
 40
3.812503749999999
 40
3.812503749999999
 10
210.2263466712193
 20
35.2706828398268
 10
210.2504153968275
 20
35.2706828398268
 10
210.2775698792793
 20
35.2706828398268
 10
210.3071929869475
 20
35.2706828398268
 72
     4
 94
        3
 73
     0
 74
     0
 95
        8
 96
        4
 40
3.625007499999998
 40
3.625007499999998
 40
3.625007499999998
 40
3.625007499999998
 40
3.750004999953268
 40
3.750004999953268
 40
3.750004999953268
 40
3.750004999953268
 10
210.3071929869475
 20
35.2706828398268
 10
210.3664392022183
 20
35.2706828398268
 10
210.43555991834
 20
35.2706828398268
 10
210.5096180823984
 20
35.2706828398268
 72
     4
 94
        3
 73
     0
 74
     0
 95
        8
 96
        4
 40
3.500009999937033
 40
3.500009999937033
 40
3.500009999937033
 40
3.500009999937033
 40
3.625007499999998
 40
3.625007499999998
 40
3.625007499999998
 40
3.625007499999998
 10
210.5096180823984
 20
35.2706828398268
 10
210.5836762465187
 20
35.2706828398268
 10
210.6626718585685
 20
35.2706828398268
 10
210.74166786559
 20
35.2706828398268
 97
        0
 92
        7
 72
     0
 73
     1
 93
        8
 10
217.3717970626894
 20
36.0075006624802
 10
213.4370689592397
 20
36.0075006624802
 10
213.4370689592397
 20
35.22732358513895
 10
214.9755772384269
 20
35.22732358513895
 10
214.9755772384269
 20
30.84973136434746
 10
215.8264892106981
 20
30.84973136434746
 10
215.8264892106981
 20
35.22732358513895
 10
217.3717970626894
 20
35.22732358513895
 97
        0
 92
        7
 72
     0
 73
     1
 93
        4
 10
218.6007119832193
 20
36.0075006624802
 10
217.7404715399571
 20
36.0075006624802
 10
217.7404715399571
 20
30.84973136434746
 10
218.6007119832193
 20
30.84973136434746
 97
        0
 92
        5
 93
        9
 72
     4
 94
        3
 73
     0
 74
     0
 95
       11
 96
        7
 40
8.0
 40
8.0
 40
8.0
 40
8.0
 40
8.5
 40
8.5
 40
8.5
 40
9.5
 40
9.5
 40
9.5
 40
9.5
 10
222.9586207235679
 20
34.32502693008155
 10
223.1726301818398
 20
34.32502693008155
 10
223.3866396401281
 20
34.32502693008155
 10
223.3866396401281
 20
34.32502693008155
 10
223.2839049660197
 20
35.38690685420352
 10
222.4141438410497
 20
36.00061320636723
 10
221.3115512352069
 20
36.0075006624802
 72
     4
 94
        3
 73
     0
 74
     0
 95
        8
 96
        4
 40
7.0
 40
7.0
 40
7.0
 40
7.0
 40
8.0
 40
8.0
 40
8.0
 40
8.0
 10
221.3115512352069
 20
36.0075006624802
 10
219.8459881161889
 20
36.0075006624802
 10
218.9693864580586
 20
34.83527263742235
 10
218.9693864580586
 20
33.42861601341701
 72
     4
 94
        3
 73
     0
 74
     0
 95
        8
 96
        4
 40
6.0
 40
6.0
 40
6.0
 40
6.0
 40
7.0
 40
7.0
 40
7.0
 40
7.0
 10
218.9693864580586
 20
33.42861601341701
 10
218.9693864580586
 20
32.02193813182384
 10
219.8459881161889
 20
30.84973136434746
 10
221.3115512352069
 20
30.84973136434746
 72
     4
 94
        3
 73
     0
 74
     0
 95
        8
 96
        4
 40
5.0
 40
5.0
 40
5.0
 40
5.0
 40
6.0
 40
6.0
 40
6.0
 40
6.0
 10
221.3115512352069
 20
30.84973136434746
 10
222.4963569156389
 20
30.84973136434746
 10
223.324990390558
 20
31.66338651970818
 10
223.3934801732903
 20
32.84250200088354
 72
     4
 94
        3
 73
     0
 74
     0
 95
       11
 96
        7
 40
3.0
 40
3.0
 40
3.0
 40
3.0
 40
4.0
 40
4.0
 40
4.0
 40
5.0
 40
5.0
 40
5.0
 40
5.0
 10
223.3934801732903
 20
32.84250200088354
 10
223.3934801732903
 20
32.84250200088354
 10
222.5579639396892
 20
32.84250200088354
 10
222.5579639396892
 20
32.84250200088354
 10
222.4895163824767
 20
32.12537751906621
 10
222.0717371529063
 20
31.55305967635013
 10
221.3115512352069
 20
31.55305967635013
 72
     4
 94
        3
 73
     0
 74
     0
 95
        8
 96
        4
 40
2.0
 40
2.0
 40
2.0
 40
2.0
 40
3.0
 40
3.0
 40
3.0
 40
3.0
 10
221.3115512352069
 20
31.55305967635013
 10
220.2637673457593
 20
31.55305967635013
 10
219.8254665166787
 20
32.48392913118823
 10
219.8254665166787
 20
33.42861601341701
 72
     4
 94
        3
 73
     0
 74
     0
 95
        8
 96
        4
 40
1.0
 40
1.0
 40
1.0
 40
1.0
 40
2.0
 40
2.0
 40
2.0
 40
2.0
 10
219.8254665166787
 20
33.42861601341701
 10
219.8254665166787
 20
34.37328163806797
 10
220.2637673457593
 20
35.30417235047662
 10
221.3115512352069
 20
35.30417235047662
 72
     4
 94
        3
 73
     0
 74
     0
 95
        8
 96
        4
 40
0.0
 40
0.0
 40
0.0
 40
0.0
 40
1.0
 40
1.0
 40
1.0
 40
1.0
 10
221.3115512352069
 20
35.30417235047662
 10
222.0238111952003
 20
35.30417235047662
 10
222.3867817083792
 20
34.89043605909683
 10
222.5306018070096
 20
34.32502693008155
 72
     4
 94
        3
 73
     0
 74
     0
 95
        8
 96
        4
 40
9.5
 40
9.5
 40
9.5
 40
9.5
 40
10.0
 40
10.0
 40
10.0
 40
10.0
 10
222.5306018070096
 20
34.32502693008155
 10
222.5306018070096
 20
34.32502693008155
 10
222.7446112652906
 20
34.32502693008155
 10
222.9586207235679
 20
34.32502693008155
 97
        0
 92
        5
 93
       15
 72
     4
 94
        3
 73
     0
 74
     0
 95
        8
 96
        4
 40
13.0
 40
13.0
 40
13.0
 40
13.0
 40
14.0
 40
14.0
 40
14.0
 40
14.0
 10
225.8386489072291
 20
30.84973136434746
 10
226.8281328781286
 20
30.84973136434746
 10
227.817573885879
 20
31.29103873777331
 10
227.817573885879
 20
32.39430717133837
 72
     4
 94
        3
 73
     0
 74
     0
 95
        8
 96
        4
 40
12.0
 40
12.0
 40
12.0
 40
12.0
 40
13.0
 40
13.0
 40
13.0
 40
13.0
 10
227.817573885879
 20
32.39430717133837
 10
227.817573885879
 20
32.9045528786819
 10
227.5040289239078
 20
33.45618709546488
 10
226.8490129619186
 20
33.64926970012493
 72
     4
 94
        3
 73
     0
 74
     0
 95
        8
 96
        4
 40
11.0
 40
11.0
 40
11.0
 40
11.0
 40
12.0
 40
12.0
 40
12.0
 40
12.0
 10
226.8490129619186
 20
33.64926970012493
 10
226.5911911865078
 20
33.72511674773796
 10
225.4902608424491
 20
34.00782131224787
 10
225.4136146089404
 20
34.02850493817914
 72
     4
 94
        3
 73
     0
 74
     0
 95
        8
 96
        4
 40
10.0
 40
10.0
 40
10.0
 40
10.0
 40
11.0
 40
11.0
 40
11.0
 40
11.0
 10
225.4136146089404
 20
34.02850493817914
 10
225.0582235530783
 20
34.12505686930035
 10
224.8213248245993
 20
34.3181182163853
 10
224.8213248245993
 20
34.66289491626958
 72
     4
 94
        3
 73
     0
 74
     0
 95
        8
 96
        4
 40
9.0
 40
9.0
 40
9.0
 40
9.0
 40
10.0
 40
10.0
 40
10.0
 40
10.0
 10
224.8213248245993
 20
34.66289491626958
 10
224.8213248245993
 20
35.15936571137627
 10
225.3299653843569
 20
35.30417235047662
 10
225.7341195988574
 20
35.30417235047662
 72
     4
 94
        3
 73
     0
 74
     0
 95
        8
 96
        4
 40
8.0
 40
8.0
 40
8.0
 40
8.0
 40
9.0
 40
9.0
 40
9.0
 40
9.0
 10
225.7341195988574
 20
35.30417235047662
 10
226.3333694111079
 20
35.30417235047662
 10
226.7654067004787
 20
35.06972249394676
 10
226.8072098311986
 20
34.43535377343778
 72
     4
 94
        3
 73
     0
 74
     0
 95
       11
 96
        7
 40
6.0
 40
6.0
 40
6.0
 40
6.0
 40
7.0
 40
7.0
 40
7.0
 40
8.0
 40
8.0
 40
8.0
 40
8.0
 10
226.8072098311986
 20
34.43535377343778
 10
226.8072098311986
 20
34.43535377343778
 10
227.6782444378478
 20
34.43535377343778
 10
227.6782444378478
 20
34.43535377343778
 10
227.6782444378478
 20
35.46275390181017
 10
226.8072098311986
 20
36.0075006624802
 10
225.7689627016498
 20
36.0075006624802
 72
     4
 94
        3
 73
     0
 74
     0
 95
        8
 96
        4
 40
5.0
 40
5.0
 40
5.0
 40
5.0
 40
6.0
 40
6.0
 40
6.0
 40
6.0
 10
225.7689627016498
 20
36.0075006624802
 10
224.8700879832595
 20
36.0075006624802
 10
223.9502902179593
 20
35.54550966312308
 10
223.9502902179593
 20
34.55945552903086
 72
     4
 94
        3
 73
     0
 74
     0
 95
        8
 96
        4
 40
4.0
 40
4.0
 40
4.0
 40
4.0
 40
5.0
 40
5.0
 40
5.0
 40
5.0
 10
223.9502902179593
 20
34.55945552903086
 10
223.9502902179593
 20
34.04920982169006
 10
224.2011519654188
 20
33.5389428567687
 10
225.051263525158
 20
33.31140171393781
 72
     4
 94
        3
 73
     0
 74
     0
 95
        8
 96
        4
 40
3.0
 40
3.0
 40
3.0
 40
3.0
 40
4.0
 40
4.0
 40
4.0
 40
4.0
 10
225.051263525158
 20
33.31140171393781
 10
225.7341195988574
 20
33.12520656539709
 10
226.1870369720091
 20
33.03556334796849
 10
226.5354679999291
 20
32.9045528786819
 72
     4
 94
        3
 73
     0
 74
     0
 95
        8
 96
        4
 40
2.0
 40
2.0
 40
2.0
 40
2.0
 40
3.0
 40
3.0
 40
3.0
 40
3.0
 10
226.5354679999291
 20
32.9045528786819
 10
226.7375236256194
 20
32.82870583107069
 10
226.9465822423572
 20
32.67701173584828
 10
226.9465822423572
 20
32.29775524021898
 72
     4
 94
        3
 73
     0
 74
     0
 95
        8
 96
        4
 40
1.0
 40
1.0
 40
1.0
 40
1.0
 40
2.0
 40
2.0
 40
2.0
 40
2.0
 10
226.9465822423572
 20
32.29775524021898
 10
226.9465822423572
 20
31.92540745828501
 10
226.6608773921089
 20
31.55305967635013
 10
225.8944150569569
 20
31.55305967635013
 72
     4
 94
        3
 73
     0
 74
     0
 95
        8
 96
        4
 40
0.0
 40
0.0
 40
0.0
 40
0.0
 40
1.0
 40
1.0
 40
1.0
 40
1.0
 10
225.8944150569569
 20
31.55305967635013
 10
225.1975959642568
 20
31.55305967635013
 10
224.6331892547769
 20
31.84956041067562
 10
224.6331892547769
 20
32.60805214435914
 72
     4
 94
        3
 73
     0
 74
     0
 95
        8
 96
        4
 40
15.5
 40
15.5
 40
15.5
 40
15.5
 40
16.0
 40
16.0
 40
16.0
 40
16.0
 10
224.6331892547769
 20
32.60805214435914
 10
224.6331892547769
 20
32.60805214435914
 10
224.4154306031196
 20
32.60805214435914
 10
224.1976719514569
 20
32.60805214435914
 72
     4
 94
        3
 73
     0
 74
     0
 95
       11
 96
        7
 40
14.0
 40
14.0
 40
14.0
 40
14.0
 40
14.5
 40
14.5
 40
14.5
 40
15.5
 40
15.5
 40
15.5
 40
15.5
 10
224.1976719514569
 20
32.60805214435914
 10
223.9799132997996
 20
32.60805214435914
 10
223.7621546481296
 20
32.60805214435914
 10
223.7621546481296
 20
32.60805214435914
 10
223.7830776950686
 20
31.3875694113176
 10
224.7028324972289
 20
30.84973136434746
 10
225.8386489072291
 20
30.84973136434746
 97
        0
 75
     1
 76
     1
 47
0.0244899890509677
 98
       14
 10
185.2888855928904
 20
36.81031742969481
 10
185.2888855928904
 20
36.81031742969481
 10
185.2888855928904
 20
36.81031742969481
 10
185.2888855928904
 20
36.81031742969481
 10
196.2122221199897
 20
35.52802127778705
 10
199.4144547605592
 20
34.75756560612717
 10
206.5601719246897
 20
35.73545195180031
 10
206.5601719246897
 20
35.73545195180031
 10
211.0077170877776
 20
35.73545195180031
 10
211.0077170877776
 20
35.73545195180031
 10
215.8110645093093
 20
35.67618649195811
 10
218.3016864757083
 20
35.0835287643913
 10
221.6225208953074
 20
35.58728673762835
 10
225.2991575733395
 20
31.32015172498086
1001
GRADIENTCOLOR1ACI
1070
     5
1001
GRADIENTCOLOR2ACI
1070
     2
1001
ACAD
1010
0.0
1020
0.0
1030
0.0
  0
MTEXT
  5
AD3
330
A99
100
AcDbEntity
  8
6文字层
100
AcDbMText
 10
217.9586460285391
 20
12.98934071260373
 30
0.0
 40
2.5
 41
17.84855769230755
 71
     5
 72
     5
  1
{\fSimHei|b1|i0|c134|p49;270634}
1001
ACDBBLOCKREPETAG
1000

1001
ACAD
1000
ACAD_MTEXT_DEFINED_HEIGHT_BEGIN
1070
    46
1040
4.283653846153733
1000
ACAD_MTEXT_DEFINED_HEIGHT_END
  0
MTEXT
  5
AD4
330
A99
100
AcDbEntity
  8
6文字层
100
AcDbMText
 10
245.5932871021887
 20
21.13543729905609
 30
0.0
 40
2.5
 41
71.44564321082993
 71
     5
 72
     5
  1
{\fSimHei|b1|i0|c134|p49;K9平凹球面反射镜  AU+保护\P50.00X25.00mm F=500.00mm}
1001
ACDBBLOCKREPETAG
1000

1001
ACAD
1000
ACAD_MTEXT_DEFINED_HEIGHT_BEGIN
1070
    46
1040
4.283653846153733
1000
ACAD_MTEXT_DEFINED_HEIGHT_END
  0
LINE
  5
AD5
330
A99
100
AcDbEntity
  8
6文字层
 62
     0
100
AcDbLine
 10
147.0000007298586
 20
10.00000025367171
 30
0.0
 11
27.00000072979856
 21
10.0000002536699
 31
0.0
  0
MTEXT
  5
AD6
102
{ACAD_XDICTIONARY
360
AD7
102
}
330
A99
100
AcDbEntity
  8
6文字层
100
AcDbMText
 10
21.04260072708712
 20
70.86418703472486
 30
0.0
 40
2.5
 41
114.6703060300538
 71
     1
 72
     5
  1
{\fSimSun|b1|i0|c134|p49;\C1;注：}\P{\fSimSun|b1|i0|c134|p49;\C1;1：本图仅供参考,禁止使用本图加工生产.}\P{\fSimSun|b1|i0|c134|p49;\C1;2：图纸细节如有更改不再另行通知.}
  7
标准
1001
ACAD
1000
ACAD_MTEXT_COLUMN_INFO_BEGIN
1070
    75
1070
     2
1070
    79
1070
     0
1070
    76
1070
     1
1070
    78
1070
     0
1070
    48
1040
114.6703060300538
1070
    49
1040
1.0
1070
    50
1070
     1
1040
-12.28937728937729
1000
ACAD_MTEXT_COLUMN_INFO_END
  0
INSERT
  5
AD8
330
A99
100
AcDbEntity
  8
2细线层
100
AcDbBlockReference
  2
*T21
 10
10.0
 20
41.66666666666629
 30
0.0
  0
MTEXT
  5
AD9
330
A99
100
AcDbEntity
  8
6文字层
100
AcDbMText
 10
26.12401889801549
 20
163.751121784877
 30
0.0
 40
2.5
 41
73.0012707428877
 71
     1
 72
     1
  3
{\fSimSun|b1|i0|c134|p34;\W1;注释：\fSimSun|b1|i0|c0|p34; \P1.\fSimSun|b1|i0|c134|p34;材料：精退火\fSimSun|b1|i0|c0|p34;K9\fSimSun|b1|i0|c134|p34;光学玻璃\fSimSun|b1|i0|c0|p34; Nd=1.5168                                                \P2.\fSimSun|b1
  3
|i0|c134|p34;表面面型：\fSimSun|b1|i0|c0|p34;\U+03BB/4 @ 633 nm            \P3.\fSimSun|b1|i0|c134|p34;焦距：500\fSimSun|b1|i0|c0|p34;.00\U+00B12%mm \P4.\fSimSun|b1|i0|c134|p34;镀膜：\A1;金膜+保护\A0;   \P\fSimSun|b1|i0|c0|p34;5.\fSimSun|b1|i0|c134|
  1
p34;倒边：\fSimSun|b1|i0|c0|p34;0.2~0.5mmX45\U+00B0}
  7
TH-GBD2M
1001
ACAD
1000
ACAD_MTEXT_DEFINED_HEIGHT_BEGIN
1070
    46
1040
26.01190476190477
1000
ACAD_MTEXT_DEFINED_HEIGHT_END
  0
ENDBLK
  5
ADD
330
A99
100
AcDbEntity
  8
0
100
AcDbBlockEnd
  0
ENDSEC
  0
SECTION
  2
ENTITIES
  0
LINE
  5
390
330
1F
100
AcDbEntity
  8
3中心线层
100
AcDbLine
 10
138.9522414970452
 20
138.7720594048858
 30
0.0
 11
244.938132146126
 21
138.7720594048858
 31
0.0
  0
LINE
  5
391
330
1F
100
AcDbEntity
  8
3中心线层
100
AcDbLine
 10
205.0393418195636
 20
138.7720594048858
 30
0.0
 11
236.3728018009624
 21
138.7720594048858
 31
0.0
  0
LINE
  5
392
102
{ACAD_REACTORS
330
54E
102
}
330
1F
100
AcDbEntity
  8
3中心线层
100
AcDbLine
 10
167.0085236331042
 20
154.1790091678113
 30
0.0
 11
167.0085236331042
 21
77.65676992425574
 31
0.0
  0
LEADER
  5
393
330
1F
100
AcDbEntity
  8
7标注层
100
AcDbLeader
  3
TH-GBD2M
 76
     3
 10
226.2680274895774
 20
138.7838392974338
 30
0.0
 10
230.8339416764375
 20
147.5843236294038
 30
0.0
 10
235.8592536657534
 20
147.5843236294038
 30
0.0
1001
ACAD
1000
DSTYLE
1002
{
1070
     5
1000

1070
   340
1005
2E5
1070
   147
1040
1.5
1070
    77
1070
     0
1002
}
  0
MTEXT
  5
394
330
1F
100
AcDbEntity
  8
7标注层
 62
     3
100
AcDbMText
 10
233.3999805015987
 20
150.2799619342586
 30
0.0
 40
2.5
 41
0.0
 71
     5
 72
     1
  1
\A1;S2
  7
TH-GBD2M
  0
LEADER
  5
395
330
1F
100
AcDbEntity
  8
7标注层
100
AcDbLeader
  3
TH-GBD2M
 76
     3
 10
217.2542977327284
 20
138.7720590754645
 30
0.0
 10
212.6883835458684
 20
147.5725434074345
 30
0.0
 10
207.6630715565525
 20
147.5725434074345
 30
0.0
211
-1.0
221
0.0
231
0.0
1001
ACAD
1000
DSTYLE
1002
{
1070
     5
1000

1070
   340
1005
2E5
1070
   147
1040
1.5
1070
    77
1070
     0
1002
}
  0
MTEXT
  5
396
330
1F
100
AcDbEntity
  8
7标注层
 62
     3
100
AcDbMText
 10
210.2870065502893
 20
149.8961069796112
 30
0.0
 40
2.5
 41
0.0
 71
     5
 72
     1
  1
\A1;S1
  7
TH-GBD2M
  0
LINE
  5
397
102
{ACAD_REACTORS
330
3F4
102
}
330
1F
100
AcDbEntity
  8
1轮廓实线层
100
AcDbLine
 10
217.2542975618171
 20
151.272059404886
 30
0.0
 11
217.2542975618171
 21
126.272059404886
 31
0.0
  0
ARC
  5
398
102
{ACAD_REACTORS
330
3E9
102
}
330
1F
100
AcDbEntity
  8
1轮廓实线层
100
AcDbCircle
 10
326.2405962275161
 20
138.772059404886
 30
0.0
 40
100.0
100
AcDbArc
 50
172.8192442185417
 51
187.1807557814583
  0
DIMENSION
  5
399
330
1F
100
AcDbEntity
  8
7标注层
100
AcDbDimension
  2
*D3
 10
226.2543668850726
 20
158.5656774572869
 30
0.0
 11
242.0074438081497
 21
158.5656774572869
 31
0.0
 70
   160
  1
<>%%p0.20
  3
TH-GBD2M
100
AcDbAlignedDimension
 13
217.2542975618167
 23
138.7720594048858
 33
0.0
 14
226.2543668850726
 24
138.7720594048858
 34
0.0
100
AcDbRotatedDimension
1001
ACAD_DSTYLE_DIMINSPECT
1070
   396
1000
100%
1070
   395
1000

1070
   394
1070
    33
1070
   393
1070
     0
  0
DIMENSION
  5
39A
330
1F
100
AcDbEntity
  8
7标注层
100
AcDbDimension
  2
*D4
 10
227.0249220625933
 20
121.1675406300722
 30
0.0
 11
222.139609812205
 21
121.1675406300722
 31
0.0
 70
   160
  3
TH-GBD2M
100
AcDbAlignedDimension
 13
217.2542975618167
 23
126.2720594048858
 33
0.0
 14
227.0249220625933
 24
126.2720594048858
 34
0.0
100
AcDbRotatedDimension
  0
LINE
  5
39B
102
{ACAD_REACTORS
330
551
102
}
330
1F
100
AcDbEntity
  8
1轮廓实线层
100
AcDbLine
 10
157.0119210117173
 20
126.272059404886
 30
0.0
 11
157.0119210117173
 21
151.272059404886
 31
0.0
  0
LINE
  5
39C
102
{ACAD_REACTORS
330
550
102
}
330
1F
100
AcDbEntity
  8
1轮廓实线层
100
AcDbLine
 10
157.0119210117173
 20
151.272059404886
 30
0.0
 11
177.0119210117173
 21
151.272059404886
 31
0.0
  0
LINE
  5
39D
102
{ACAD_REACTORS
330
552
102
}
330
1F
100
AcDbEntity
  8
1轮廓实线层
100
AcDbLine
 10
177.0119210117173
 20
151.272059404886
 30
0.0
 11
177.0119210117173
 21
126.272059404886
 31
0.0
  0
DIMENSION
  5
39F
330
1F
100
AcDbEntity
  8
7标注层
100
AcDbDimension
  2
*D5
 10
177.0119210117168
 20
158.8748291602503
 30
0.0
 11
187.3898287040247
 21
158.8748291602503
 31
0.0
 70
   160
  1
<>{}{\H0.71x;\C3;\S 0.00^ -0.10;}
  3
透镜标注
100
AcDbAlignedDimension
 13
157.0119210117168
 23
151.2720594048858
 33
0.0
 14
177.0119210117168
 24
151.2720594048858
 34
0.0
100
AcDbRotatedDimension
1001
GENIUS_GENDTOL_13
1000
TolSmNrm
1000

1000
{\H0.71x;$2\S$+$P^ $-$M;}
1040
50.0
1001
ACAD_DSTYLE_DIMINSPECT
1070
   396
1000
100%
1070
   395
1000

1070
   394
1070
    33
1070
   393
1070
     0
1001
ACAD
1000
DSTYLE
1002
{
1070
    48
1040
0.1
1070
   288
1070
     1
1002
}
  0
DIMENSION
  5
3A0
330
1F
100
AcDbEntity
  8
7标注层
100
AcDbDimension
  2
*D6
 10
152.375432659961
 20
151.2720594048859
 30
0.0
 11
152.375432659961
 21
138.7720594048858
 31
0.0
 70
   160
  1
<>{}{\H0.71x;\C3;\S 0.00^ -0.10;}
  3
透镜标注
100
AcDbAlignedDimension
 13
157.0119210117168
 23
126.2720594048858
 33
0.0
 14
157.0119210117168
 24
151.2720594048858
 34
0.0
 50
90.0
100
AcDbRotatedDimension
1001
GENIUS_GENDTOL_13
1000
TolSmNrm
1000

1000
{\H0.71x;$2\S$+$P^ $-$M;}
1040
50.0
1001
ACAD_DSTYLE_DIMINSPECT
1070
   396
1000
100%
1070
   395
1000

1070
   394
1070
    33
1070
   393
1070
     0
1001
ACAD
1000
DSTYLE
1002
{
1070
    48
1040
0.1
1070
   288
1070
     1
1002
}
  0
LINE
  5
3D6
102
{ACAD_REACTORS
330
54F
102
}
330
1F
100
AcDbEntity
  8
1轮廓实线层
100
AcDbLine
 10
157.0119210117173
 20
126.272059404886
 30
0.0
 11
177.0119210117173
 21
126.272059404886
 31
0.0
  0
LINE
  5
3D7
102
{ACAD_REACTORS
330
3EA
102
}
330
1F
100
AcDbEntity
  8
1轮廓实线层
100
AcDbLine
 10
217.2542975618171
 20
126.272059404886
 30
0.0
 11
227.0249220625938
 21
126.272059404886
 31
0.0
  0
LINE
  5
3D8
102
{ACAD_REACTORS
330
3E7
102
}
330
1F
100
AcDbEntity
  8
1轮廓实线层
100
AcDbLine
 10
217.2542975618171
 20
151.272059404886
 30
0.0
 11
227.0249220625938
 21
151.272059404886
 31
0.0
  0
DIMENSION
  5
3D9
330
1F
100
AcDbEntity
  8
7标注层
100
AcDbDimension
  2
*D7
 10
145.465849555259
 20
84.9738251169911
 30
0.0
 11
145.465849555259
 21
76.08074819391345
 31
0.0
 70
   160
  3
TH-GBD2M
100
AcDbAlignedDimension
 13
157.3652388894407
 23
97.14924146180556
 33
0.0
 14
157.3652388894407
 24
84.97382511699107
 34
0.0
 50
90.0
100
AcDbRotatedDimension
  0
DIMENSION
  5
3DA
102
{ACAD_REACTORS
330
3F5
102
}
102
{ACAD_XDICTIONARY
360
B9B
102
}
330
1F
100
AcDbEntity
  8
ADSK_CONSTRAINTS
 60
     1
100
AcDbDimension
 10
326.2405962275416
 20
138.772059404886
 30
0.0
 11
250.009189789257
 21
132.0270952334592
 31
0.0
 70
   132
  1
半径2=100
  3
TH-GBD2M
100
AcDbRadialDimension
 15
226.6297493834307
 25
129.9584794850018
 35
0.0
 40
0.0
1001
ACAD
1000
DSTYLE
1002
{
1070
   288
1070
     1
1002
}
1001
ACAD_DSTYLE_DIMRADIAL_EXTE
1070
   387
1070
     1
1070
   388
1040
3.019949950077523
1070
   390
1040
3.263235357102063
  0
DIMENSION
  5
3DB
102
{ACAD_REACTORS
330
3EF
102
}
102
{ACAD_XDICTIONARY
360
B9D
102
}
330
1F
100
AcDbEntity
  8
ADSK_CONSTRAINTS
 60
     1
100
AcDbDimension
 10
211.7686584328521
 20
129.4040471499159
 30
0.0
 11
211.7686584328521
 21
129.4040471499159
 31
0.0
 70
   128
  1
d3=25
  3
TH-GBD2M
100
AcDbAlignedDimension
 13
222.1396098122054
 23
151.272059404886
 33
0.0
 14
222.1396098122054
 24
126.272059404886
 34
0.0
 50
90.0
100
AcDbRotatedDimension
  0
DIMENSION
  5
3DC
330
1F
100
AcDbEntity
  8
7标注层
100
AcDbDimension
  2
*D8
 10
138.5481559650102
 20
88.15382511699184
 30
0.0
 11
138.5481559650102
 21
92.65153328939867
 31
0.0
 70
   160
  3
TH-GBD2M
100
AcDbAlignedDimension
 13
157.3652388894407
 23
97.14924146180556
 33
0.0
 14
157.0119210117168
 24
88.15382511699181
 34
0.0
 50
90.0
100
AcDbRotatedDimension
  0
LINE
  5
3DE
102
{ACAD_REACTORS
330
3EB
102
}
330
1F
100
AcDbEntity
  8
7标注层
 62
     0
100
AcDbLine
 10
157.3652388894411
 20
97.14924146180579
 30
0.0
 11
157.3652388894411
 21
84.97382511699129
 31
0.0
  0
LINE
  5
491
102
{ACAD_REACTORS
330
49A
102
}
330
1F
100
AcDbEntity
  8
0
100
AcDbLine
 10
177.3652388894411
 20
97.18720880490355
 30
0.0
 11
177.3652388894411
 21
87.98619589589862
 31
0.0
  0
DIMENSION
  5
492
102
{ACAD_REACTORS
330
498
102
}
102
{ACAD_XDICTIONARY
360
B9F
102
}
330
1F
100
AcDbEntity
  8
ADSK_CONSTRAINTS
 60
     1
100
AcDbDimension
 10
157.3652388894407
 20
110.5225877685857
 30
0.0
 11
157.3652388894407
 21
110.5225877685857
 31
0.0
 70
   128
  1
d2=20
  3
ISO-25
100
AcDbAlignedDimension
 13
177.3652388894411
 23
92.58670235040108
 33
0.0
 14
157.3652388894411
 24
91.06153328939854
 34
0.0
100
AcDbRotatedDimension
  0
LINE
  5
4F6
102
{ACAD_REACTORS
330
662
102
}
330
1F
100
AcDbEntity
  8
0
100
AcDbLine
 10
157.0119210117173
 20
97.15382511699136
 30
0.0
 11
177.0119210117173
 21
97.15382511699136
 31
0.0
  0
ARC
  5
4F7
102
{ACAD_REACTORS
330
4FD
102
}
330
1F
100
AcDbEntity
  8
0
100
AcDbCircle
 10
182.1827451372983
 20
-11.89769486508362
 30
0.0
 40
100.0
100
AcDbArc
 50
92.7612965473513
 51
104.3695480245962
  0
DIMENSION
  5
4F8
102
{ACAD_REACTORS
330
4FB
102
}
102
{ACAD_XDICTIONARY
360
BA1
102
}
330
1F
100
AcDbEntity
  8
ADSK_CONSTRAINTS
 60
     1
100
AcDbDimension
 10
182.1827451372974
 20
-11.89769486507453
 30
0.0
 11
183.621547975892
 21
81.31464140888377
 31
0.0
 70
   132
  1
半径1=100
  3
ISO-25
100
AcDbRadialDimension
 15
183.7261368387707
 25
88.09039413583585
 35
0.0
 40
0.0
1001
ACAD
1000
DSTYLE
1002
{
1070
   288
1070
     1
1002
}
1001
ACAD_DSTYLE_DIMRADIAL_EXTE
1070
   387
1070
     1
1070
   388
1040
0.6462361007784128
1070
   390
1040
2.510730858992122
  0
DIMENSION
  5
553
102
{ACAD_REACTORS
330
556
102
}
102
{ACAD_XDICTIONARY
360
BA3
102
}
330
1F
100
AcDbEntity
  8
ADSK_CONSTRAINTS
 60
     1
100
AcDbDimension
 10
177.0119210117168
 20
145.5630292412211
 30
0.0
 11
177.0119210117168
 21
145.5630292412211
 31
0.0
 70
   128
  1
d1=20
  3
ISO-25
100
AcDbAlignedDimension
 13
157.0119210117173
 23
151.272059404886
 33
0.0
 14
177.0119210117173
 24
151.272059404886
 34
0.0
100
AcDbRotatedDimension
  0
DIMENSION
  5
589
330
1F
100
AcDbEntity
  8
7标注层
100
AcDbDimension
  2
*D9
 10
175.463907324724
 20
88.0287468941822
 30
0.0
 11
175.463907324724
 21
75.89413150956602
 31
0.0
 70
   160
  3
TH-GBD2M
100
AcDbAlignedDimension
 13
177.0119210117168
 23
97.15382511699136
 33
0.0
 14
177.0119210117168
 24
88.02874689418218
 34
0.0
 50
90.0
100
AcDbRotatedDimension
  0
ARC
  5
5BF
102
{ACAD_REACTORS
330
5C5
102
}
330
1F
100
AcDbEntity
  8
0
  6
CENTER
100
AcDbCircle
 10
182.3652388894411
 20
-11.85075853819421
 30
0.0
 40
100.0
100
AcDbArc
 50
75.52248781407009
 51
104.4775121859299
  0
DIMENSION
  5
5C0
102
{ACAD_REACTORS
330
5C3
102
}
102
{ACAD_XDICTIONARY
360
BA5
102
}
330
1F
100
AcDbEntity
  8
ADSK_CONSTRAINTS
 60
     1
100
AcDbDimension
 10
182.3652388894411
 20
-11.85075853819671
 30
0.0
 11
187.5076825106341
 21
76.42414435855176
 31
0.0
 70
   132
  1
半径3=100
  3
ISO-25
100
AcDbRadialDimension
 15
208.8852012854102
 25
84.56859426256051
 35
0.0
 40
0.0
1001
ACAD
1000
DSTYLE
1002
{
1070
   288
1070
     1
1002
}
1001
ACAD_DSTYLE_DIMRADIAL_EXTE
1070
   387
1070
     1
1070
   388
1040
1.357546453390195
1070
   390
1040
1.653637165106711
  0
LINE
  5
5DC
102
{ACAD_REACTORS
330
5E0
102
}
330
1F
100
AcDbEntity
  8
3中心线层
100
AcDbLine
 10
182.3652388894411
 20
99.9419675388292
 30
0.0
 11
182.3652388894411
 21
75.94898053882571
 31
0.0
  0
DIMENSION
  5
600
330
1F
100
AcDbEntity
  8
7标注层
100
AcDbDimension
  2
*D10
 10
182.3652388894407
 20
108.854331502474
 30
0.0
 11
195.4740708063023
 21
108.854331502474
 31
0.0
 70
   160
  3
TH-GBD2M
100
AcDbAlignedDimension
 13
177.3652388894407
 23
97.15382511699136
 33
0.0
 14
182.3652388894407
 24
97.20506810494112
 34
0.0
100
AcDbRotatedDimension
  0
DIMENSION
  5
65D
102
{ACAD_REACTORS
330
660
102
}
102
{ACAD_XDICTIONARY
360
BA7
102
}
330
1F
100
AcDbEntity
  8
ADSK_CONSTRAINTS
 60
     1
100
AcDbDimension
 10
161.1762129200652
 20
84.97382511699107
 30
0.0
 11
161.1762129200652
 21
84.97382511699107
 31
0.0
 70
   128
  1
d4=12.18
  3
ISO-25
100
AcDbAlignedDimension
 13
157.0119210117173
 23
97.15382511699136
 33
0.0
 14
157.3652388894411
 24
84.97382511699129
 34
0.0
 50
90.0
100
AcDbRotatedDimension
  0
LINE
  5
663
102
{ACAD_REACTORS
330
669
102
}
330
1F
100
AcDbEntity
  8
0
100
AcDbLine
 10
157.3652388894411
 20
84.97382511699129
 30
0.0
 11
207.3652388894411
 21
84.97382511699129
 31
0.0
  0
DIMENSION
  5
664
102
{ACAD_REACTORS
330
667
102
}
102
{ACAD_XDICTIONARY
360
BA9
102
}
330
1F
100
AcDbEntity
  8
ADSK_CONSTRAINTS
 60
     1
100
AcDbDimension
 10
207.3652388894407
 20
79.2903962263415
 30
0.0
 11
207.3652388894407
 21
79.2903962263415
 31
0.0
 70
   128
  1
d5=50
  3
ISO-25
100
AcDbAlignedDimension
 13
157.3652388894411
 23
84.97382511699129
 33
0.0
 14
207.3652388894411
 24
84.97382511699129
 34
0.0
100
AcDbRotatedDimension
  0
LINE
  5
786
330
1F
100
AcDbEntity
  8
6文字层
 62
     0
100
AcDbLine
 10
147.0
 20
9.999999999998181
 30
0.0
 11
26.99999999994907
 21
9.999999999998181
 31
0.0
  0
INSERT
  5
787
330
1F
100
AcDbEntity
  8
6文字层
100
AcDbBlockReference
  2
*X11
 10
148.5
 20
105.0
 30
0.0
1001
CAXA_DRAFT_PAPERFRAME
1071
        2
1041
138.5
1041
-95.0
1041
0.0
1000
A4A-D-Sighted(CHS)
1070
     1
1001
CAXA_DRAFT_BLKHIDE
1070
     0
  0
LINE
  5
788
330
1F
100
AcDbEntity
  8
1轮廓实线层
100
AcDbLine
 10
147.0
 20
9.999999999998181
 30
0.0
 11
287.0
 21
9.999999999998181
 31
0.0
  0
LINE
  5
789
330
1F
100
AcDbEntity
  8
粗实线层
100
AcDbLine
 10
182.0003469713993
 20
15.84100763374863
 30
0.0
 11
287.0
 21
15.841007633755
 31
0.0
  0
LINE
  5
78A
330
1F
100
AcDbEntity
  8
细实线层
100
AcDbLine
 10
276.7561453540075
 20
15.841007633755
 30
0.0
 11
276.7561453540075
 21
9.999999999998181
 31
0.0
  0
LINE
  5
78B
330
1F
100
AcDbEntity
  8
细实线层
100
AcDbLine
 10
273.8686453540085
 20
12.92050381687659
 30
0.0
 11
280.4311453540085
 21
12.92050381687659
 31
0.0
  0
CIRCLE
  5
78C
330
1F
100
AcDbEntity
  8
细实线层
100
AcDbCircle
 10
276.7561453540075
 20
12.92050381687659
 30
0.0
 40
2.187499999999943
  0
CIRCLE
  5
78D
330
1F
100
AcDbEntity
  8
细实线层
100
AcDbCircle
 10
276.7561453540075
 20
12.92050381687659
 30
0.0
 40
0.6562499999999829
  0
LINE
  5
78E
330
1F
100
AcDbEntity
  8
3中心线层
 62
     7
 48
0.1
100
AcDbLine
 10
265.144564142629
 20
12.92050381687659
 30
0.0
 11
273.8686453540085
 21
12.92050381687659
 31
0.0
  0
LINE
  5
78F
330
1F
100
AcDbEntity
  8
3中心线层
 62
     7
100
AcDbLine
 10
266.2950959920181
 20
12.59237881687659
 30
0.0
 11
266.2950959920181
 21
13.24862881687386
 31
0.0
  0
LINE
  5
790
330
1F
100
AcDbEntity
  8
3中心线层
 62
     7
100
AcDbLine
 10
272.4200959920181
 20
10.73300381687659
 30
0.0
 11
272.4200959920181
 21
15.10800381687477
 31
0.0
  0
LINE
  5
791
330
1F
100
AcDbEntity
  8
细实线层
100
AcDbLine
 10
266.2950959920181
 20
13.24862881687386
 30
0.0
 11
272.4200959920181
 21
15.10800381687477
 31
0.0
  0
LINE
  5
792
330
1F
100
AcDbEntity
  8
细实线层
100
AcDbLine
 10
266.2950959920181
 20
12.59237881687659
 30
0.0
 11
272.4200959920181
 21
10.73300381687659
 31
0.0
  0
LINE
  5
793
330
1F
100
AcDbEntity
  8
粗实线层
100
AcDbLine
 10
182.0003469713993
 20
26.33333333332939
 30
0.0
 11
287.0
 21
26.33333333333303
 31
0.0
  0
LINE
  5
794
330
1F
100
AcDbEntity
  8
粗实线层
100
AcDbLine
 10
182.0003469713993
 20
39.99999999999909
 30
0.0
 11
287.0
 21
40.0
 31
0.0
  0
MTEXT
  5
795
330
1F
100
AcDbEntity
  8
6文字层
100
AcDbMText
 10
194.1794353788573
 20
21.13543729905632
 30
0.0
 40
2.5
 41
17.84855769230755
 71
     5
 72
     5
  1
{\fSimHei|b1|i0|c134|p49;名称 }
1001
ACDBBLOCKREPETAG
1000

1001
ACAD
1000
ACAD_MTEXT_DEFINED_HEIGHT_BEGIN
1070
    46
1040
4.283653846153733
1000
ACAD_MTEXT_DEFINED_HEIGHT_END
  0
MTEXT
  5
796
330
1F
100
AcDbEntity
  8
6文字层
100
AcDbMText
 10
258.4247746021283
 20
33.3388339475614
 30
0.0
 40
3.0
 41
63.12269194006068
 71
     5
 72
     5
  1
{\fSimHei|b1|i0|c134|p49;联合光科技（北京）有限公司}
1001
ACDBBLOCKREPETAG
1000

1001
ACAD
1000
ACAD_MTEXT_DEFINED_HEIGHT_BEGIN
1070
    46
1040
3.808394365490182
1000
ACAD_MTEXT_DEFINED_HEIGHT_END
  0
MTEXT
  5
797
330
1F
100
AcDbEntity
  8
6文字层
100
AcDbMText
 10
194.3732816028787
 20
12.98934071260373
 30
0.0
 40
2.5
 41
17.84855769230755
 71
     5
 72
     5
  1
{\fSimHei|b1|i0|c134|p49;产品编号} 
1001
ACDBBLOCKREPETAG
1000

1001
ACAD
1000
ACAD_MTEXT_DEFINED_HEIGHT_BEGIN
1070
    46
1040
4.283653846153733
1000
ACAD_MTEXT_DEFINED_HEIGHT_END
  0
MTEXT
  5
798
330
1F
100
AcDbEntity
  8
6文字层
100
AcDbMText
 10
253.431637469479
 20
13.14343400566213
 30
0.0
 40
2.5
 41
17.84855769230755
 71
     5
 72
     5
  1
{\fSimHei|b1|i0|c134|p49;mm }
1001
ACDBBLOCKREPETAG
1000

1001
ACAD
1000
ACAD_MTEXT_DEFINED_HEIGHT_BEGIN
1070
    46
1040
4.283653846153733
1000
ACAD_MTEXT_DEFINED_HEIGHT_END
  0
LINE
  5
799
330
1F
100
AcDbEntity
  8
粗实线层
100
AcDbLine
 10
182.0003469713993
 20
9.941096743267735
 30
0.0
 11
182.0003469713993
 21
39.94109674325682
 31
0.0
  0
LINE
  5
79A
330
1F
100
AcDbEntity
  8
粗实线层
100
AcDbLine
 10
206.7603328645291
 20
9.999999999998181
 30
0.0
 11
206.7603328645291
 21
26.33333333332394
 31
0.0
  0
LINE
  5
79B
330
1F
100
AcDbEntity
  8
粗实线层
100
AcDbLine
 10
229.6358957687498
 20
26.42852234707152
 30
0.0
 11
229.6358957687498
 21
40.0
 31
0.0
  0
LINE
  5
79C
330
1F
100
AcDbEntity
  8
粗实线层
100
AcDbLine
 10
229.6358957687498
 20
9.999999999991815
 30
0.0
 11
229.6358957687389
 21
15.84100763374499
 31
0.0
  0
MTEXT
  5
79D
330
1F
100
AcDbEntity
  8
6文字层
100
AcDbMText
 10
238.1972593395403
 20
12.82885780604101
 30
0.0
 40
2.5
 41
17.84855769230755
 71
     5
 72
     5
  1
{\fSimHei|b1|i0|c134|p49;单位}
1001
ACAD
1000
ACAD_MTEXT_DEFINED_HEIGHT_BEGIN
1070
    46
1040
3.291666666666666
1000
ACAD_MTEXT_DEFINED_HEIGHT_END
  0
LINE
  5
79E
330
1F
100
AcDbEntity
  8
粗实线层
100
AcDbLine
 10
246.7401531749383
 20
9.999999999998181
 30
0.0
 11
246.7401531749383
 21
15.84100763375227
 31
0.0
  0
LINE
  5
79F
330
1F
100
AcDbEntity
  8
粗实线层
100
AcDbLine
 10
259.3051658955483
 20
9.999999999998181
 30
0.0
 11
259.3051658955483
 21
15.84100763375227
 31
0.0
  0
LINE
  5
7A0
330
1F
100
AcDbEntity
  8
0
100
AcDbLine
 10
287.0
 20
9.999999999998181
 30
0.0
 11
187.0
 21
9.999999999998181
 31
0.0
  0
HATCH
  5
7A1
330
1F
100
AcDbEntity
  8
3中心线层
 62
     0
100
AcDbHatch
 10
0.0
 20
0.0
 30
0.0
210
0.0
220
0.0
230
1.0
  2
SOLID
 70
     1
 71
     0
 91
       14
 92
        5
 93
        5
 72
     4
 94
        3
 73
     0
 74
     0
 95
        8
 96
        4
 40
7.0
 40
7.0
 40
7.0
 40
7.0
 40
8.0
 40
8.0
 40
8.0
 40
8.0
 10
192.6618587974899
 20
36.25070197904824
 10
192.6618587974899
 20
37.06457350248093
 10
192.0020850279489
 20
37.72435081693493
 10
191.1882099595987
 20
37.72435081693493
 72
     4
 94
        3
 73
     0
 74
     0
 95
        8
 96
        4
 40
0.0
 40
0.0
 40
0.0
 40
0.0
 40
1.0
 40
1.0
 40
1.0
 40
1.0
 10
191.1882099595987
 20
37.72435081693493
 10
191.1882099595987
 20
37.72435081693493
 10
185.5392245201383
 20
37.72435081693493
 10
185.5392245201383
 20
37.72435081693493
 72
     4
 94
        3
 73
     0
 74
     0
 95
       11
 96
        7
 40
1.0
 40
1.0
 40
1.0
 40
1.0
 40
2.0
 40
2.0
 40
2.0
 40
3.0
 40
3.0
 40
3.0
 40
3.0
 10
185.5392245201383
 20
37.72435081693493
 10
184.7253529966983
 20
37.72435081693493
 10
184.0655792271573
 20
37.06457350248093
 10
184.0655792271573
 20
36.25070197904824
 10
184.0655792271573
 20
36.25070197904824
 10
184.0655792271573
 20
30.60171653959333
 10
184.0655792271573
 20
30.60171653959333
 72
     4
 94
        3
 73
     0
 74
     0
 95
       11
 96
        7
 40
3.0
 40
3.0
 40
3.0
 40
3.0
 40
4.0
 40
4.0
 40
4.0
 40
5.0
 40
5.0
 40
5.0
 40
5.0
 10
184.0655792271573
 20
30.60171653959333
 10
184.0655792271573
 20
29.78784147123315
 10
184.7253529966983
 20
29.128067701703
 10
185.5392245201383
 20
29.128067701703
 10
185.5392245201383
 20
29.128067701703
 10
191.1882099595987
 20
29.128067701703
 10
191.1882099595987
 20
29.128067701703
 72
     4
 94
        3
 73
     0
 74
     0
 95
       11
 96
        7
 40
5.0
 40
5.0
 40
5.0
 40
5.0
 40
6.0
 40
6.0
 40
6.0
 40
7.0
 40
7.0
 40
7.0
 40
7.0
 10
191.1882099595987
 20
29.128067701703
 10
192.0020850279489
 20
29.128067701703
 10
192.6618587974899
 20
29.78784147123315
 10
192.6618587974899
 20
30.60171653959333
 10
192.6618587974899
 20
30.60171653959333
 10
192.6618587974899
 20
36.25070197904824
 10
192.6618587974899
 20
36.25070197904824
 97
        0
 92
       20
 93
       12
 72
     4
 94
        3
 73
     0
 74
     0
 95
        8
 96
        4
 40
10.0
 40
10.0
 40
10.0
 40
10.0
 40
11.0
 40
11.0
 40
11.0
 40
11.0
 10
184.9252050572486
 20
33.4262074868584
 10
184.9252050572486
 20
35.32524340482541
 10
186.4647043638888
 20
36.86472144193522
 10
188.3637367369411
 20
36.86472144193522
 72
     4
 94
        3
 73
     0
 74
     0
 95
        8
 96
        4
 40
11.0
 40
11.0
 40
11.0
 40
11.0
 40
12.0
 40
12.0
 40
12.0
 40
12.0
 10
188.3637367369411
 20
36.86472144193522
 10
190.2627655650576
 20
36.86472144193522
 10
191.8022294224902
 20
35.32524340482541
 10
191.8022294224902
 20
33.4262074868584
 72
     4
 94
        3
 73
     0
 74
     0
 95
        8
 96
        4
 40
12.0
 40
12.0
 40
12.0
 40
12.0
 40
13.0
 40
13.0
 40
13.0
 40
13.0
 10
191.8022294224902
 20
33.4262074868584
 10
191.8022294224902
 20
31.52716802397026
 10
190.2627655650576
 20
29.98769353177613
 10
188.3637367369411
 20
29.98769353177613
 72
     4
 94
        3
 73
     0
 74
     0
 95
        8
 96
        4
 40
0.0
 40
0.0
 40
0.0
 40
0.0
 40
1.0
 40
1.0
 40
1.0
 40
1.0
 10
188.3637367369411
 20
29.98769353177613
 10
188.0946452623284
 20
29.98769353177613
 10
187.8332285435681
 20
30.01972899076281
 10
187.5820318345995
 20
30.07842580717261
 72
     4
 94
        3
 73
     0
 74
     0
 95
        8
 96
        4
 40
1.0
 40
1.0
 40
1.0
 40
1.0
 40
2.0
 40
2.0
 40
2.0
 40
2.0
 10
187.5820318345995
 20
30.07842580717261
 10
187.9056371177994
 20
30.29957575834487
 10
188.11810910022
 20
30.67139197904726
 10
188.11810910022
 20
31.09293281888768
 72
     4
 94
        3
 73
     0
 74
     0
 95
        8
 96
        4
 40
2.0
 40
2.0
 40
2.0
 40
2.0
 40
3.0
 40
3.0
 40
3.0
 40
3.0
 10
188.11810910022
 20
31.09293281888768
 10
188.11810910022
 20
31.183693453655
 10
188.1079706236596
 20
31.27204354154401
 10
188.0892888853687
 20
31.357196109906
 72
     4
 94
        3
 73
     0
 74
     0
 95
        8
 96
        4
 40
3.0
 40
3.0
 40
3.0
 40
3.0
 40
4.0
 40
4.0
 40
4.0
 40
4.0
 10
188.0892888853687
 20
31.357196109906
 10
188.1791420201389
 20
31.34529226225004
 10
188.2706222740489
 20
31.33853918607656
 10
188.3637296470988
 20
31.33853918607656
 72
     4
 94
        3
 73
     0
 74
     0
 95
        8
 96
        4
 40
4.0
 40
4.0
 40
4.0
 40
4.0
 40
5.0
 40
5.0
 40
5.0
 40
5.0
 10
188.3637296470988
 20
31.33853918607656
 10
189.5167119420094
 20
31.33853918607656
 10
190.4513873131073
 20
32.27321810209014
 10
190.4513873131073
 20
33.4262074868584
 72
     4
 94
        3
 73
     0
 74
     0
 95
       11
 96
        7
 40
5.0
 40
5.0
 40
5.0
 40
5.0
 40
6.0
 40
6.0
 40
6.0
 40
7.0
 40
7.0
 40
7.0
 40
7.0
 10
190.4513873131073
 20
33.4262074868584
 10
190.4513873131073
 20
34.57919332670099
 10
189.5167119420094
 20
35.51387578763661
 10
188.3637296470988
 20
35.51387578763661
 10
187.2107473521701
 20
35.51387578763661
 10
186.2760507115399
 20
34.57919332670099
 10
186.2760507115399
 20
33.4262074868584
 72
     4
 94
        3
 73
     0
 74
     0
 95
        8
 96
        4
 40
7.0
 40
7.0
 40
7.0
 40
7.0
 40
8.0
 40
8.0
 40
8.0
 40
8.0
 10
186.2760507115399
 20
33.4262074868584
 10
186.2760507115399
 20
33.0067297915466
 10
186.4001158873289
 20
32.61639135404675
 10
186.6130664341981
 20
32.28921278959024
 72
     4
 94
        3
 73
     0
 74
     0
 95
        8
 96
        4
 40
8.0
 40
8.0
 40
8.0
 40
8.0
 40
9.0
 40
9.0
 40
9.0
 40
9.0
 10
186.6130664341981
 20
32.28921278959024
 10
186.1285606920083
 20
32.1774449477989
 10
185.7536143053003
 20
31.77934667631143
 10
185.6766292369284
 20
31.2824620669353
 72
     4
 94
        3
 73
     0
 74
     0
 95
        8
 96
        4
 40
9.0
 40
9.0
 40
9.0
 40
9.0
 40
10.0
 40
10.0
 40
10.0
 40
10.0
 10
185.6766292369284
 20
31.2824620669353
 10
185.2068420103788
 20
31.87036609037659
 10
184.9252050572486
 20
32.61513645170271
 10
184.9252050572486
 20
33.4262074868584
 97
        0
 92
       20
 93
        1
 72
     4
 94
        3
 73
     0
 74
     0
 95
       17
 96
       13
 40
0.0
 40
0.0
 40
0.0
 40
0.0
 40
1.0
 40
1.0
 40
1.0
 40
2.0
 40
2.0
 40
2.0
 40
3.0
 40
3.0
 40
3.0
 40
4.0
 40
4.0
 40
4.0
 40
4.0
 10
186.7672669908388
 20
33.4262074868584
 10
186.7672669908388
 20
34.30790400053138
 10
187.4820331334267
 20
35.02266305326521
 10
188.3637261021777
 20
35.02266305326521
 10
189.2454190709195
 20
35.02266305326521
 10
189.9601710338084
 20
34.30790400053138
 10
189.9601710338084
 20
33.4262074868584
 10
189.9601710338084
 20
32.54451097318542
 10
189.2454190709195
 20
31.82975546537637
 10
188.3637261021777
 20
31.82975546537637
 10
187.4820331334267
 20
31.82975546537637
 10
186.7672669908388
 20
32.54451097318542
 10
186.7672669908388
 20
33.4262074868584
 97
        0
 92
       20
 93
        3
 72
     4
 94
        3
 73
     0
 74
     0
 95
       11
 96
        7
 40
1.0
 40
1.0
 40
1.0
 40
1.0
 40
2.0
 40
2.0
 40
2.0
 40
3.0
 40
3.0
 40
3.0
 40
3.0
 10
186.0304407994408
 20
31.09293281888768
 10
186.0304407994408
 20
31.56769002592137
 10
186.415316512328
 20
31.95255864897081
 10
186.890073719358
 20
31.95255864897081
 10
187.364830926399
 20
31.95255864897081
 10
187.7496960045082
 20
31.56769002592137
 10
187.7496960045082
 20
31.09293281888768
 72
     4
 94
        3
 73
     0
 74
     0
 95
        8
 96
        4
 40
3.0
 40
3.0
 40
3.0
 40
3.0
 40
4.0
 40
4.0
 40
4.0
 40
4.0
 10
187.7496960045082
 20
31.09293281888768
 10
187.7496960045082
 20
30.61817206693831
 10
187.364830926399
 20
30.2333034438916
 10
186.890073719358
 20
30.2333034438916
 72
     4
 94
        3
 73
     0
 74
     0
 95
        8
 96
        4
 40
0.0
 40
0.0
 40
0.0
 40
0.0
 40
1.0
 40
1.0
 40
1.0
 40
1.0
 10
186.890073719358
 20
30.2333034438916
 10
186.415316512328
 20
30.2333034438916
 10
186.0304407994408
 20
30.61817206693831
 10
186.0304407994408
 20
31.09293281888768
 97
        0
 92
        5
 93
       33
 72
     4
 94
        3
 73
     0
 74
     0
 95
       11
 96
        7
 40
5.0
 40
5.0
 40
5.0
 40
5.0
 40
6.0
 40
6.0
 40
6.0
 40
7.0
 40
7.0
 40
7.0
 40
7.0
 10
197.4327506761892
 20
34.32502693008155
 10
197.4327506761892
 20
34.32502693008155
 10
198.2561444363273
 20
34.32502693008155
 10
198.2561444363273
 20
34.32502693008155
 10
198.1278935863393
 20
35.43518281976503
 10
197.2437450432899
 20
36.0075006624802
 10
196.1908979454383
 20
36.0075006624802
 72
     4
 94
        3
 73
     0
 74
     0
 95
        8
 96
        4
 40
4.0
 40
4.0
 40
4.0
 40
4.0
 40
5.0
 40
5.0
 40
5.0
 40
5.0
 10
196.1908979454383
 20
36.0075006624802
 10
194.746598626356
 20
36.0075006624802
 10
193.8827155485687
 20
34.83527263742235
 10
193.8827155485687
 20
33.42861601341701
 72
     4
 94
        3
 73
     0
 74
     0
 95
        8
 96
        4
 40
3.0
 40
3.0
 40
3.0
 40
3.0
 40
4.0
 40
4.0
 40
4.0
 40
4.0
 10
193.8827155485687
 20
33.42861601341701
 10
193.8827155485687
 20
32.02193813182384
 10
194.746598626356
 20
30.84973136434746
 10
196.1908979454383
 20
30.84973136434746
 72
     4
 94
        3
 73
     0
 74
     0
 95
        8
 96
        4
 40
2.0
 40
2.0
 40
2.0
 40
2.0
 40
3.0
 40
3.0
 40
3.0
 40
3.0
 10
196.1908979454383
 20
30.84973136434746
 10
196.7780554708497
 20
30.84973136434746
 10
197.1897731573572
 20
31.02210908549841
 10
197.6419385486497
 20
31.54617222023535
 72
     4
 94
        3
 73
     0
 74
     0
 95
       11
 96
        7
 40
0.5
 40
0.5
 40
0.5
 40
0.5
 40
1.5
 40
1.5
 40
1.5
 40
2.0
 40
2.0
 40
2.0
 40
2.0
 10
197.6419385486497
 20
31.54617222023535
 10
197.6419385486497
 20
31.54617222023535
 10
197.7701893986396
 20
30.96694566382303
 10
197.7701893986396
 20
30.96694566382303
 10
197.7701893986396
 20
30.96694566382303
 10
197.9051711295469
 20
30.96694566382303
 10
198.040152860458
 20
30.96694566382303
 72
     4
 94
        3
 73
     0
 74
     0
 95
       11
 96
        7
 40
14.749965
 40
14.749965
 40
14.749965
 40
14.749965
 40
15.249965
 40
15.249965
 40
15.249965
 40
15.5
 40
15.5
 40
15.5
 40
15.5
 10
198.040152860458
 20
30.96694566382303
 10
198.175134591349
 20
30.96694566382303
 10
198.3101163222473
 20
30.96694566382303
 10
198.3101163222473
 20
30.96694566382303
 10
198.3101163222473
 20
30.96694566382303
 10
198.3101163222473
 20
31.12903359009397
 10
198.3101163222473
 20
31.37215413333979
 72
     4
 94
        3
 73
     0
 74
     0
 95
        8
 96
        4
 40
14.49997
 40
14.49997
 40
14.49997
 40
14.49997
 40
14.749965
 40
14.749965
 40
14.749965
 40
14.749965
 10
198.3101163222473
 20
31.37215413333979
 10
198.3101163222473
 20
31.61523578275319
 10
198.3101163222473
 20
31.93932412440699
 10
198.3101163222473
 20
32.26340274389622
 72
     4
 94
        3
 73
     0
 74
     0
 95
        8
 96
        4
 40
14.3749725
 40
14.3749725
 40
14.3749725
 40
14.3749725
 40
14.49997
 40
14.49997
 40
14.49997
 40
14.49997
 10
198.3101163222473
 20
32.26340274389622
 10
198.3101163222473
 20
32.42544205364266
 10
198.3101163222473
 20
32.58747893285272
 10
198.3101163222473
 20
32.73938632971203
 72
     4
 94
        3
 73
     0
 74
     0
 95
        8
 96
        4
 40
14.18747625
 40
14.18747625
 40
14.18747625
 40
14.18747625
 40
14.3749725
 40
14.3749725
 40
14.3749725
 40
14.3749725
 10
198.3101163222473
 20
32.73938632971203
 10
198.3101163222473
 20
32.96724742500464
 10
198.3101163222473
 20
33.17231718502717
 10
198.3101163222473
 20
33.32041680994917
 72
     4
 94
        3
 73
     0
 74
     0
 95
        8
 96
        4
 40
14.1249775
 40
14.1249775
 40
14.1249775
 40
14.1249775
 40
14.18747625
 40
14.18747625
 40
14.18747625
 40
14.18747625
 10
198.3101163222473
 20
33.32041680994917
 10
198.3101163222473
 20
33.36978335159347
 10
198.3101163222473
 20
33.41281987822549
 10
198.3101163222473
 20
33.44826050836582
 72
     4
 94
        3
 73
     0
 74
     0
 95
        8
 96
        4
 40
14.093728125
 40
14.093728125
 40
14.093728125
 40
14.093728125
 40
14.1249775
 40
14.1249775
 40
14.1249775
 40
14.1249775
 10
198.3101163222473
 20
33.44826050836582
 10
198.3101163222473
 20
33.46598082344099
 10
198.3101163222473
 20
33.48180216438595
 10
198.3101163222473
 20
33.49556629603558
 72
     4
 94
        3
 73
     0
 74
     0
 95
        8
 96
        4
 40
14.06247875
 40
14.06247875
 40
14.06247875
 40
14.06247875
 40
14.093728125
 40
14.093728125
 40
14.093728125
 40
14.093728125
 10
198.3101163222473
 20
33.49556629603558
 10
198.3101163222473
 20
33.5093304276761
 10
198.3101163222473
 20
33.52103735001583
 10
198.3101163222473
 20
33.53052882786415
 72
     4
 94
        3
 73
     0
 74
     0
 95
       11
 96
        7
 40
13.99997958222998
 40
13.99997958222998
 40
13.99997958222998
 40
13.99997958222998
 40
14.0
 40
14.0
 40
14.0
 40
14.00071240722656
 40
14.00071240722656
 40
14.00071240722656
 40
14.00071240722656
 10
198.3101163196898
 20
33.55962648270179
 10
198.3101163213978
 20
33.55962648270179
 10
198.3101163222473
 20
33.55962648270179
 10
198.3101163222473
 20
33.55962648270179
 10
198.3101163222473
 20
33.55962648270179
 10
198.3101163222473
 20
33.5596251668585
 10
198.3101163222473
 20
33.55962253703728
 72
     4
 94
        3
 73
     0
 74
     0
 95
        8
 96
        4
 40
13.49999
 40
13.49999
 40
13.49999
 40
13.49999
 40
13.99997958222998
 40
13.99997958222998
 40
13.99997958222998
 40
13.99997958222998
 10
198.3101163196898
 20
33.55962648270179
 10
198.310074429819
 20
33.55962648270179
 10
197.7971442815888
 20
33.55962648270179
 10
197.2842243915402
 20
33.55962648270179
 72
     4
 94
        3
 73
     0
 74
     0
 95
       11
 96
        7
 40
12.99902343580856
 40
12.99902343580856
 40
12.99902343580856
 40
12.99902343580856
 40
13.49901343580856
 40
13.49901343580856
 40
13.49901343580856
 40
13.49999
 40
13.49999
 40
13.49999
 40
13.49999
 10
197.2842243915402
 20
33.55962648270179
 10
196.7713040729195
 20
33.55962648270179
 10
196.2583940124987
 20
33.55962648270179
 10
196.2583940124987
 20
33.55962648270179
 10
196.2583940124987
 20
33.55962648270179
 10
196.2583940124987
 20
33.55962585797351
 10
196.2583940124987
 20
33.55962460973387
 72
     4
 94
        3
 73
     0
 74
     0
 95
        8
 96
        4
 40
12.906251875
 40
12.906251875
 40
12.906251875
 40
12.906251875
 40
12.93750125
 40
12.93750125
 40
12.93750125
 40
12.93750125
 10
196.2583940124987
 20
33.55226998693524
 10
196.2583940124987
 20
33.54987112850631
 10
196.2583940124987
 20
33.54691253559486
 10
196.2583940124987
 20
33.54343418830922
 72
     4
 94
        3
 73
     0
 74
     0
 95
        8
 96
        4
 40
12.81250375
 40
12.81250375
 40
12.81250375
 40
12.81250375
 40
12.8750024998249
 40
12.8750024998249
 40
12.8750024998249
 40
12.8750024998249
 10
196.2583940124987
 20
33.53147986342901
 10
196.2583940124987
 20
33.52252411166319
 10
196.2583940124987
 20
33.5116492629295
 10
196.2583940124987
 20
33.49917515820289
 72
     4
 94
        3
 73
     0
 74
     0
 95
        8
 96
        4
 40
12.75000499991749
 40
12.75000499991749
 40
12.75000499991749
 40
12.75000499991749
 40
12.81250375
 40
12.81250375
 40
12.81250375
 40
12.81250375
 10
196.2583940124987
 20
33.49917515820289
 10
196.2583940124987
 20
33.48670105341716
 10
196.2583940124987
 20
33.47262769262124
 10
196.2583940124987
 20
33.45727491677917
 72
     4
 94
        3
 73
     0
 74
     0
 95
        8
 96
        4
 40
12.6250075
 40
12.6250075
 40
12.6250075
 40
12.6250075
 40
12.75000499991749
 40
12.75000499991749
 40
12.75000499991749
 40
12.75000499991749
 10
196.2583940124987
 20
33.45727491677917
 10
196.2583940124987
 20
33.42656936515232
 10
196.2583940124987
 20
33.39074615335994
 10
196.2583940124987
 20
33.35236400913072
 72
     4
 94
        3
 73
     0
 74
     0
 95
        8
 96
        4
 40
12.50000999999212
 40
12.50000999999212
 40
12.50000999999212
 40
12.50000999999212
 40
12.6250075
 40
12.6250075
 40
12.6250075
 40
12.6250075
 10
196.2583940124987
 20
33.35236400913072
 10
196.2583940124987
 20
33.31398186487695
 10
196.2583940124987
 20
33.27304078819088
 10
196.2583940124987
 20
33.23209950678574
 72
     4
 94
        3
 73
     0
 74
     0
 95
        8
 96
        4
 40
12.250015
 40
12.250015
 40
12.250015
 40
12.250015
 40
12.50000999999212
 40
12.50000999999212
 40
12.50000999999212
 40
12.50000999999212
 10
196.2583940124987
 20
33.23209950678574
 10
196.2583940124987
 20
33.15021694400366
 10
196.2583940124987
 20
33.06833356241077
 10
196.2583940124987
 20
33.00691918389657
 72
     4
 94
        3
 73
     0
 74
     0
 95
       11
 96
        7
 40
11.99928759277344
 40
11.99928759277344
 40
11.99928759277344
 40
11.99928759277344
 40
12.24930259277344
 40
12.24930259277344
 40
12.24930259277344
 40
12.250015
 40
12.250015
 40
12.250015
 40
12.250015
 10
196.2583940124987
 20
33.00691918389657
 10
196.2583940124987
 20
32.94549989213374
 10
196.2583940124987
 20
32.9045528786819
 10
196.2583940124987
 20
32.9045528786819
 10
196.2583940124987
 20
32.9045528786819
 10
196.2583946633076
 20
32.9045528786819
 10
196.2583959640269
 20
32.9045528786819
 72
     4
 94
        3
 73
     0
 74
     0
 95
        8
 96
        4
 40
11.906271875
 40
11.906271875
 40
11.906271875
 40
11.906271875
 40
11.93752124974706
 40
11.93752124974706
 40
11.93752124974706
 40
11.93752124974706
 10
196.2727857364407
 20
32.9045528786819
 10
196.2774802290987
 20
32.9045528786819
 10
196.2832704823995
 20
32.9045528786819
 10
196.290078233098
 20
32.9045528786819
 72
     4
 94
        3
 73
     0
 74
     0
 95
        8
 96
        4
 40
11.8750225
 40
11.8750225
 40
11.8750225
 40
11.8750225
 40
11.906271875
 40
11.906271875
 40
11.906271875
 40
11.906271875
 10
196.290078233098
 20
32.9045528786819
 10
196.2968859838275
 20
32.9045528786819
 10
196.30471123198
 20
32.9045528786819
 10
196.3134757142689
 20
32.9045528786819
 72
     4
 94
        3
 73
     0
 74
     0
 95
        8
 96
        4
 40
11.81252375
 40
11.81252375
 40
11.81252375
 40
11.81252375
 40
11.8750225
 40
11.8750225
 40
11.8750225
 40
11.8750225
 10
196.3134757142689
 20
32.9045528786819
 10
196.3310046788501
 20
32.9045528786819
 10
196.3522905800291
 20
32.9045528786819
 10
196.3767073118088
 20
32.9045528786819
 72
     4
 94
        3
 73
     0
 74
     0
 95
        8
 96
        4
 40
11.75002499995332
 40
11.75002499995332
 40
11.75002499995332
 40
11.75002499995332
 40
11.81252375
 40
11.81252375
 40
11.81252375
 40
11.81252375
 10
196.3767073118088
 20
32.9045528786819
 10
196.4011240436084
 20
32.9045528786819
 10
196.4286716059978
 20
32.9045528786819
 10
196.4587238929689
 20
32.9045528786819
 72
     4
 94
        3
 73
     0
 74
     0
 95
        8
 96
        4
 40
11.6250275
 40
11.6250275
 40
11.6250275
 40
11.6250275
 40
11.75002499995332
 40
11.75002499995332
 40
11.75002499995332
 40
11.75002499995332
 10
196.4587238929689
 20
32.9045528786819
 10
196.5188284668402
 20
32.9045528786819
 10
196.5889519390075
 20
32.9045528786819
 10
196.6640854614179
 20
32.9045528786819
 72
     4
 94
        3
 73
     0
 74
     0
 95
        8
 96
        4
 40
11.50003
 40
11.50003
 40
11.50003
 40
11.50003
 40
11.6250275
 40
11.6250275
 40
11.6250275
 40
11.6250275
 10
196.6640854614179
 20
32.9045528786819
 10
196.7392189838502
 20
32.9045528786819
 10
196.8193625565091
 20
32.9045528786819
 10
196.8995073313272
 20
32.9045528786819
 72
     4
 94
        3
 73
     0
 74
     0
 95
        8
 96
        4
 40
11.250035
 40
11.250035
 40
11.250035
 40
11.250035
 40
11.50003
 40
11.50003
 40
11.50003
 40
11.50003
 10
196.8995073313272
 20
32.9045528786819
 10
197.0597968809398
 20
32.9045528786819
 10
197.220091239149
 20
32.9045528786819
 10
197.3403196212785
 20
32.9045528786819
 72
     4
 94
        3
 73
     0
 74
     0
 95
       11
 96
        7
 40
10.0
 40
10.0
 40
10.0
 40
10.0
 40
10.250035
 40
10.250035
 40
10.250035
 40
11.250035
 40
11.250035
 40
11.250035
 40
11.250035
 10
197.3403196212785
 20
32.9045528786819
 10
197.4605672403395
 20
32.9045528786819
 10
197.5407360609206
 20
32.9045528786819
 10
197.5407360609206
 20
32.9045528786819
 10
197.5272118797893
 20
32.07021409738627
 10
197.0547810232383
 20
31.53926350653728
 10
196.1908979454383
 20
31.55305967635013
 72
     4
 94
        3
 73
     0
 74
     0
 95
        8
 96
        4
 40
9.0
 40
9.0
 40
9.0
 40
9.0
 40
10.0
 40
10.0
 40
10.0
 40
10.0
 10
196.1908979454383
 20
31.55305967635013
 10
195.1583163128489
 20
31.55305967635013
 10
194.7263747739689
 20
32.48392913118823
 10
194.7263747739689
 20
33.42861601341701
 72
     4
 94
        3
 73
     0
 74
     0
 95
        8
 96
        4
 40
8.0
 40
8.0
 40
8.0
 40
8.0
 40
9.0
 40
9.0
 40
9.0
 40
9.0
 10
194.7263747739689
 20
33.42861601341701
 10
194.7263747739689
 20
34.37328163806797
 10
195.1583163128489
 20
35.30417235047662
 10
196.1908979454383
 20
35.30417235047662
 72
     4
 94
        3
 73
     0
 74
     0
 95
        8
 96
        4
 40
7.0
 40
7.0
 40
7.0
 40
7.0
 40
8.0
 40
8.0
 40
8.0
 40
8.0
 10
196.1908979454383
 20
35.30417235047662
 10
196.7983209361282
 20
35.30417235047662
 10
197.3517304280067
 20
34.97319182040883
 10
197.4327506761892
 20
34.32502693008155
 97
        0
 92
        5
 93
        8
 72
     4
 94
        3
 73
     0
 74
     0
 95
       11
 96
        7
 40
0.5
 40
0.5
 40
0.5
 40
0.5
 40
1.5
 40
1.5
 40
1.5
 40
2.0
 40
2.0
 40
2.0
 40
2.0
 10
199.5447570417182
 20
33.01937972961241
 10
199.5447570417182
 20
33.01937972961241
 10
199.5447570417182
 20
35.88469663157503
 10
199.5447570417182
 20
35.88469663157503
 10
199.5447570417182
 20
35.88469663157503
 10
199.3283343781968
 20
35.88469663157503
 10
199.1119117146773
 20
35.88469663157503
 72
     4
 94
        3
 73
     0
 74
     0
 95
       11
 96
        7
 40
9.5
 40
9.5
 40
9.5
 40
9.5
 40
10.0
 40
10.0
 40
10.0
 40
10.5
 40
10.5
 40
10.5
 40
10.5
 10
199.1119117146773
 20
35.88469663157503
 10
198.8954890511486
 20
35.88469663157503
 10
198.6790663876382
 20
35.88469663157503
 10
198.6790663876382
 20
35.88469663157503
 10
198.6790663876382
 20
35.88469663157503
 10
198.6790663876382
 20
35.0977643328697
 10
198.6790663876382
 20
34.31083203416983
 72
     4
 94
        3
 73
     0
 74
     0
 95
       11
 96
        7
 40
8.0
 40
8.0
 40
8.0
 40
8.0
 40
8.5
 40
8.5
 40
8.5
 40
9.5
 40
9.5
 40
9.5
 40
9.5
 10
198.6790663876382
 20
34.31083203416983
 10
198.6790663876382
 20
33.52389973546906
 10
198.6790663876382
 20
32.73696743676646
 10
198.6790663876382
 20
32.73696743676646
 10
198.6790663876382
 20
31.47651678240345
 10
199.4893729950381
 20
30.84973136434746
 10
200.7082917402076
 20
30.84973136434746
 72
     4
 94
        3
 73
     0
 74
     0
 95
        8
 96
        4
 40
7.0
 40
7.0
 40
7.0
 40
7.0
 40
8.0
 40
8.0
 40
8.0
 40
8.0
 10
200.7082917402076
 20
30.84973136434746
 10
201.9272104853681
 20
30.84973136434746
 10
202.737517092768
 20
31.47651678240345
 10
202.737517092768
 20
32.73696743676646
 72
     4
 94
        3
 73
     0
 74
     0
 95
       11
 96
        7
 40
5.5
 40
5.5
 40
5.5
 40
5.5
 40
6.5
 40
6.5
 40
6.5
 40
7.0
 40
7.0
 40
7.0
 40
7.0
 10
202.737517092768
 20
32.73696743676646
 10
202.737517092768
 20
32.73696743676646
 10
202.737517092768
 20
35.88469663157503
 10
202.737517092768
 20
35.88469663157503
 10
202.737517092768
 20
35.88469663157503
 10
202.521083753827
 20
35.88469663157503
 10
202.3046504148988
 20
35.88469663157503
 72
     4
 94
        3
 73
     0
 74
     0
 95
       11
 96
        7
 40
4.5
 40
4.5
 40
4.5
 40
4.5
 40
5.0
 40
5.0
 40
5.0
 40
5.5
 40
5.5
 40
5.5
 40
5.5
 10
202.3046504148988
 20
35.88469663157503
 10
202.0882170759596
 20
35.88469663157503
 10
201.8717837370277
 20
35.88469663157503
 10
201.8717837370277
 20
35.88469663157503
 10
201.8717837370277
 20
35.88469663157503
 10
201.8717837370277
 20
35.16836740608323
 10
201.8717837370277
 20
34.45203818059144
 72
     4
 94
        3
 73
     0
 74
     0
 95
       11
 96
        7
 40
3.0
 40
3.0
 40
3.0
 40
3.0
 40
3.5
 40
3.5
 40
3.5
 40
4.5
 40
4.5
 40
4.5
 40
4.5
 10
201.8717837370277
 20
34.45203818059144
 10
201.8717837370277
 20
33.73570895510056
 10
201.8717837370277
 20
33.01937972961241
 10
201.8717837370277
 20
33.01937972961241
 10
201.8717837370277
 20
32.35815275223649
 10
201.8302350266076
 20
31.5936010968926
 10
200.7082917402076
 20
31.5936010968926
 72
     4
 94
        3
 73
     0
 74
     0
 95
        8
 96
        4
 40
2.0
 40
2.0
 40
2.0
 40
2.0
 40
3.0
 40
3.0
 40
3.0
 40
3.0
 10
200.7082917402076
 20
31.5936010968926
 10
199.5863057521383
 20
31.5936010968926
 10
199.5447570417182
 20
32.35815275223649
 10
199.5447570417182
 20
33.01937972961241
 97
        0
 92
        5
 93
        1
 72
     4
 94
        3
 73
     0
 74
     0
 95
       17
 96
       13
 40
0.0
 40
0.0
 40
0.0
 40
0.0
 40
1.0
 40
1.0
 40
1.0
 40
2.0
 40
2.0
 40
2.0
 40
3.0
 40
3.0
 40
3.0
 40
4.0
 40
4.0
 40
4.0
 40
4.0
 10
208.8866848314883
 20
33.42205313907289
 10
208.8866848314883
 20
32.02225724819073
 10
208.0121345599382
 20
30.85578535162767
 10
206.550001090558
 20
30.85578535162767
 10
205.0878676211778
 20
30.85578535162767
 10
204.2133173496277
 20
32.02225724819073
 10
204.2133173496277
 20
33.42205313907289
 10
204.2133173496277
 20
34.82182787638067
 10
205.0878676211778
 20
35.98832092652083
 10
206.550001090558
 20
35.98832092652083
 10
208.0121345599382
 20
35.98832092652083
 10
208.8866848314883
 20
34.82182787638067
 10
208.8866848314883
 20
33.42205313907289
 97
        0
 92
       20
 93
        4
 72
     4
 94
        3
 73
     0
 74
     0
 95
        8
 96
        4
 40
2.0
 40
2.0
 40
2.0
 40
2.0
 40
3.0
 40
3.0
 40
3.0
 40
3.0
 10
206.550001090558
 20
35.28843355787103
 10
207.5953751265879
 20
35.28843355787103
 10
208.0326502623702
 20
34.36209710859657
 10
208.0326502623702
 20
33.42205313907289
 72
     4
 94
        3
 73
     0
 74
     0
 95
        8
 96
        4
 40
1.0
 40
1.0
 40
1.0
 40
1.0
 40
2.0
 40
2.0
 40
2.0
 40
2.0
 10
208.0326502623702
 20
33.42205313907289
 10
208.0326502623702
 20
32.48198801597391
 10
207.5953751265879
 20
31.55567272028384
 10
206.550001090558
 20
31.55567272028384
 72
     4
 94
        3
 73
     0
 74
     0
 95
        8
 96
        4
 40
0.0
 40
0.0
 40
0.0
 40
0.0
 40
1.0
 40
1.0
 40
1.0
 40
1.0
 10
206.550001090558
 20
31.55567272028384
 10
205.5046691812204
 20
31.55567272028384
 10
205.067394045449
 20
32.48198801597391
 10
205.067394045449
 20
33.42205313907289
 72
     4
 94
        3
 73
     0
 74
     0
 95
        8
 96
        4
 40
3.0
 40
3.0
 40
3.0
 40
3.0
 40
4.0
 40
4.0
 40
4.0
 40
4.0
 10
205.067394045449
 20
33.42205313907289
 10
205.067394045449
 20
34.36209710859657
 10
205.5046691812204
 20
35.28843355787103
 10
206.550001090558
 20
35.28843355787103
 97
        0
 92
        5
 93
       31
 72
     4
 94
        3
 73
     0
 74
     0
 95
        8
 96
        4
 40
1.0
 40
1.0
 40
1.0
 40
1.0
 40
2.0
 40
2.0
 40
2.0
 40
2.0
 10
213.0681188951185
 20
34.41104720021303
 10
213.0681188951185
 20
35.05395337570008
 10
212.8016692284073
 20
36.0075006624802
 10
211.4078320548888
 20
36.0075006624802
 72
     4
 94
        3
 73
     0
 74
     0
 95
       11
 96
        7
 40
6.749964999999998
 40
6.749964999999998
 40
6.749964999999998
 40
6.749964999999998
 40
7.749964999999998
 40
7.749964999999998
 40
7.749964999999998
 40
8.0
 40
8.0
 40
8.0
 40
8.0
 10
211.4078320548888
 20
36.0075006624802
 10
211.4078320548888
 20
36.0075006624802
 10
209.2556348971284
 20
36.0075006624802
 10
209.2556348971284
 20
36.0075006624802
 10
209.2556348971284
 20
36.0075006624802
 10
209.2556348971284
 20
35.68504981406295
 10
209.2556348971284
 20
35.20139611300328
 72
     4
 94
        3
 73
     0
 74
     0
 95
        8
 96
        4
 40
6.499969999999998
 40
6.499969999999998
 40
6.499969999999998
 40
6.499969999999998
 40
6.749964999999998
 40
6.749964999999998
 40
6.749964999999998
 40
6.749964999999998
 10
209.2556348971284
 20
35.20139611300328
 10
209.2556348971284
 20
34.71781978570198
 10
209.2556348971284
 20
34.07309217931743
 10
209.2556348971284
 20
33.42838391379792
 72
     4
 94
        3
 73
     0
 74
     0
 95
        8
 96
        4
 40
6.3749725
 40
6.3749725
 40
6.3749725
 40
6.3749725
 40
6.499969999999998
 40
6.499969999999998
 40
6.499969999999998
 40
6.499969999999998
 10
209.2556348971284
 20
33.42838391379792
 10
209.2556348971284
 20
33.10602978103816
 10
209.2556348971284
 20
32.78368048348875
 10
209.2556348971284
 20
32.48148234865494
 72
     4
 94
        3
 73
     0
 74
     0
 95
        8
 96
        4
 40
6.249974999999997
 40
6.249974999999997
 40
6.249974999999997
 40
6.249974999999997
 40
6.374972499999997
 40
6.374972499999997
 40
6.374972499999997
 40
6.374972499999997
 10
209.2556348971284
 20
32.48148234865494
 10
209.2556348971284
 20
32.17928421381566
 10
209.2556348971284
 20
31.8972372416838
 10
209.2556348971284
 20
31.65548775975458
 72
     4
 94
        3
 73
     0
 74
     0
 95
        8
 96
        4
 40
6.187476249999998
 40
6.187476249999998
 40
6.187476249999998
 40
6.187476249999998
 40
6.249974999999999
 40
6.249974999999999
 40
6.249974999999999
 40
6.249974999999999
 10
209.2556348971284
 20
31.65548775975458
 10
209.2556348971284
 20
31.53461301879088
 10
209.2556348971284
 20
31.42381265037966
 10
209.2556348971284
 20
31.32560494544668
 72
     4
 94
        3
 73
     0
 74
     0
 95
        8
 96
        4
 40
6.124977499999999
 40
6.124977499999999
 40
6.124977499999999
 40
6.124977499999999
 40
6.187476249999998
 40
6.187476249999998
 40
6.187476249999998
 40
6.187476249999998
 10
209.2556348971284
 20
31.32560494544668
 10
209.2556348971284
 20
31.22739724051917
 10
209.2556348971284
 20
31.14178219908081
 10
209.2556348971284
 20
31.07127811206192
 72
     4
 94
        3
 73
     0
 74
     0
 95
        8
 96
        4
 40
6.093728125
 40
6.093728125
 40
6.093728125
 40
6.093728125
 40
6.124977499999999
 40
6.124977499999999
 40
6.124977499999999
 40
6.124977499999999
 10
209.2556348971284
 20
31.07127811206192
 10
209.2556348971284
 20
31.03602606855475
 10
209.2556348971284
 20
31.00455176364994
 10
209.2556348971284
 20
30.97716998372471
 72
     4
 94
        3
 73
     0
 74
     0
 95
        8
 96
        4
 40
6.06247875
 40
6.06247875
 40
6.06247875
 40
6.06247875
 40
6.093728125
 40
6.093728125
 40
6.093728125
 40
6.093728125
 10
209.2556348971284
 20
30.97716998372471
 10
209.2556348971284
 20
30.94978820379674
 10
209.2556348971284
 20
30.92649894883652
 10
209.2556348971284
 20
30.90761700522216
 72
     4
 94
        3
 73
     0
 74
     0
 95
        8
 96
        4
 40
6.046854062499998
 40
6.046854062499998
 40
6.046854062499998
 40
6.046854062499998
 40
6.062478749999998
 40
6.062478749999998
 40
6.062478749999998
 40
6.062478749999998
 10
209.2556348971284
 20
30.90761700522216
 10
209.2556348971284
 20
30.89817603341544
 10
209.2556348971284
 20
30.88983688943881
 10
209.2556348971284
 20
30.88263892160012
 72
     4
 94
        3
 73
     0
 74
     0
 95
        8
 96
        4
 40
6.031229375000001
 40
6.031229375000001
 40
6.031229375000001
 40
6.031229375000001
 40
6.046854062500001
 40
6.046854062500001
 40
6.046854062500001
 40
6.046854062500001
 10
209.2556348971284
 20
30.88263892160012
 10
209.2556348971284
 20
30.87544095375597
 10
209.2556348971284
 20
30.86938416204339
 10
209.2556348971284
 20
30.86450789475475
 72
     4
 94
        3
 73
     0
 74
     0
 95
       11
 96
        7
 40
5.999979147302425
 40
5.999979147302425
 40
5.999979147302425
 40
5.999979147302425
 40
6.0
 40
6.0
 40
6.0
 40
6.000468271484374
 40
6.000468271484374
 40
6.000468271484374
 40
6.000468271484374
 10
209.2556348982398
 20
30.84973136434746
 10
209.2556348974995
 20
30.84973136434746
 10
209.2556348971284
 20
30.84973136434746
 10
209.2556348971284
 20
30.84973136434746
 10
209.2556348971284
 20
30.84973136434746
 10
209.2556348971284
 20
30.84973249533869
 10
209.2556348971284
 20
30.84973475624793
 72
     4
 94
        3
 73
     0
 74
     0
 95
        8
 96
        4
 40
5.49999
 40
5.49999
 40
5.49999
 40
5.49999
 40
5.999979147302425
 40
5.999979147302425
 40
5.999979147302425
 40
5.999979147302425
 10
209.2556348982398
 20
30.84973136434746
 10
209.2556527071774
 20
30.84973136434746
 10
209.4691701507909
 20
30.84973136434746
 10
209.6826833242467
 20
30.84973136434746
 72
     4
 94
        3
 73
     0
 74
     0
 95
       11
 96
        7
 40
4.999511717945667
 40
4.999511717945667
 40
4.999511717945667
 40
4.999511717945667
 40
5.499501717945666
 40
5.499501717945666
 40
5.499501717945666
 40
5.499989999999998
 40
5.499989999999998
 40
5.499989999999998
 40
5.499989999999998
 10
209.6826833242467
 20
30.84973136434746
 10
209.8961968618278
 20
30.84973136434746
 10
210.1097061292185
 20
30.84973136434746
 10
210.1097061292185
 20
30.84973136434746
 10
210.1097061292185
 20
30.84973136434746
 10
210.1097061292185
 20
30.84973183625425
 10
210.1097061292185
 20
30.84973277961035
 72
     4
 94
        3
 73
     0
 74
     0
 95
        8
 96
        4
 40
4.937501249873328
 40
4.937501249873328
 40
4.937501249873328
 40
4.937501249873328
 40
4.9531259375
 40
4.9531259375
 40
4.9531259375
 40
4.9531259375
 10
210.1097061292185
 20
30.86237038596209
 10
210.1097061292185
 20
30.86513375723371
 10
210.1097061292185
 20
30.86833504028255
 10
210.1097061292185
 20
30.87195913503274
 72
     4
 94
        3
 73
     0
 74
     0
 95
        8
 96
        4
 40
4.906251875000001
 40
4.906251875000001
 40
4.906251875000001
 40
4.906251875000001
 40
4.93750124987333
 40
4.93750124987333
 40
4.93750124987333
 40
4.93750124987333
 10
210.1097061292185
 20
30.87195913503274
 10
210.1097061292185
 20
30.87920732444127
 10
210.1097061292185
 20
30.88814676061338
 10
210.1097061292185
 20
30.89865664296667
 72
     4
 94
        3
 73
     0
 74
     0
 95
        8
 96
        4
 40
4.875002499912453
 40
4.875002499912453
 40
4.875002499912453
 40
4.875002499912453
 40
4.906251875000001
 40
4.906251875000001
 40
4.906251875000001
 40
4.906251875000001
 10
210.1097061292185
 20
30.89865664296667
 10
210.1097061292185
 20
30.90916652539363
 10
210.1097061292185
 20
30.92124685402723
 10
210.1097061292185
 20
30.93477682828234
 72
     4
 94
        3
 73
     0
 74
     0
 95
        8
 96
        4
 40
4.812503749999999
 40
4.812503749999999
 40
4.812503749999999
 40
4.812503749999999
 40
4.875002499912453
 40
4.875002499912453
 40
4.875002499912453
 40
4.875002499912453
 10
210.1097061292185
 20
30.93477682828234
 10
210.1097061292185
 20
30.9618367766825
 10
210.1097061292185
 20
30.99469530752594
 10
210.1097061292185
 20
31.03238601619159
 72
     4
 94
        3
 73
     0
 74
     0
 95
        8
 96
        4
 40
4.750005000000001
 40
4.750005000000001
 40
4.750005000000001
 40
4.750005000000001
 40
4.812503749999999
 40
4.812503749999999
 40
4.812503749999999
 40
4.812503749999999
 10
210.1097061292185
 20
31.03238601619159
 10
210.1097061292185
 20
31.07007672489999
 10
210.1097061292185
 20
31.11259961143787
 10
210.1097061292185
 20
31.15898827116507
 72
     4
 94
        3
 73
     0
 74
     0
 95
        8
 96
        4
 40
4.625007500000001
 40
4.625007500000001
 40
4.625007500000001
 40
4.625007500000001
 40
4.750005000000002
 40
4.750005000000002
 40
4.750005000000002
 40
4.750005000000002
 10
210.1097061292185
 20
31.15898827116507
 10
210.1097061292185
 20
31.25176559061219
 10
210.1097061292185
 20
31.36000600280295
 10
210.1097061292185
 20
31.47597827062873
 72
     4
 94
        3
 73
     0
 74
     0
 95
        8
 96
        4
 40
4.500009999999996
 40
4.500009999999996
 40
4.500009999999996
 40
4.500009999999996
 40
4.625007499999997
 40
4.625007499999997
 40
4.625007499999997
 40
4.625007499999997
 10
210.1097061292185
 20
31.47597827062873
 10
210.1097061292185
 20
31.59195053845269
 10
210.1097061292185
 20
31.71565466189804
 10
210.1097061292185
 20
31.83935940386164
 72
     4
 94
        3
 73
     0
 74
     0
 95
        8
 96
        4
 40
4.250014999999999
 40
4.250014999999999
 40
4.250014999999999
 40
4.250014999999999
 40
4.500009999999996
 40
4.500009999999996
 40
4.500009999999996
 40
4.500009999999996
 10
210.1097061292185
 20
31.83935940386164
 10
210.1097061292185
 20
32.08676888778791
 10
210.1097061292185
 20
32.33418084575351
 10
210.1097061292185
 20
32.51974538083596
 72
     4
 94
        3
 73
     0
 74
     0
 95
       11
 96
        7
 40
3.999287592773436
 40
3.999287592773436
 40
3.999287592773436
 40
3.999287592773436
 40
4.249302592773437
 40
4.249302592773437
 40
4.249302592773437
 40
4.250014999999999
 40
4.250014999999999
 40
4.250014999999999
 40
4.250014999999999
 10
210.1097061292185
 20
32.51974538083596
 10
210.1097061292185
 20
32.70532476137487
 10
210.1097061292185
 20
32.8290468228397
 10
210.1097061292185
 20
32.8290468228397
 10
210.1097061292185
 20
32.8290468228397
 10
210.1097067880492
 20
32.8290468228397
 10
210.1097081047701
 20
32.8290468228397
 72
     4
 94
        3
 73
     0
 74
     0
 95
        8
 96
        4
 40
3.906271874999998
 40
3.906271874999998
 40
3.906271874999998
 40
3.906271874999998
 40
3.937521249747056
 40
3.937521249747056
 40
3.937521249747056
 40
3.937521249747056
 10
210.1242749955982
 20
32.8290468228397
 10
210.1290272710594
 20
32.8290468228397
 10
210.1348887944696
 20
32.8290468228397
 10
210.1417803392469
 20
32.8290468228397
 72
     4
 94
        3
 73
     0
 74
     0
 95
        8
 96
        4
 40
3.875022499912441
 40
3.875022499912441
 40
3.875022499912441
 40
3.875022499912441
 40
3.906271874999998
 40
3.906271874999998
 40
3.906271874999998
 40
3.906271874999998
 10
210.1417803392469
 20
32.8290468228397
 10
210.1486718841188
 20
32.8290468228397
 10
210.1565934503906
 20
32.8290468228397
 10
210.1654658115076
 20
32.8290468228397
 72
     4
 94
        3
 73
     0
 74
     0
 95
        8
 96
        4
 40
3.81252375
 40
3.81252375
 40
3.81252375
 40
3.81252375
 40
3.875022499912441
 40
3.875022499912441
 40
3.875022499912441
 40
3.875022499912441
 10
210.1654658115076
 20
32.8290468228397
 10
210.1832105336598
 20
32.8290468228397
 10
210.2047584351476
 20
32.8290468228397
 10
210.2294757034779
 20
32.8290468228397
 72
     4
 94
        3
 73
     0
 74
     0
 95
        8
 96
        4
 40
3.750024999999998
 40
3.750024999999998
 40
3.750024999999998
 40
3.750024999999998
 40
3.81252375
 40
3.81252375
 40
3.81252375
 40
3.81252375
 10
210.2294757034779
 20
32.8290468228397
 10
210.2541929718409
 20
32.8290468228397
 10
210.2820796070282
 20
32.8290468228397
 10
210.3125017965285
 20
32.8290468228397
 72
     4
 94
        3
 73
     0
 74
     0
 95
        8
 96
        4
 40
3.6250275
 40
3.6250275
 40
3.6250275
 40
3.6250275
 40
3.750024999999998
 40
3.750024999999998
 40
3.750024999999998
 40
3.750024999999998
 10
210.3125017965285
 20
32.8290468228397
 10
210.3733461755382
 20
32.8290468228397
 10
210.4443327718091
 20
32.8290468228397
 10
210.5203910851578
 20
32.8290468228397
 72
     4
 94
        3
 73
     0
 74
     0
 95
        8
 96
        4
 40
3.50003
 40
3.50003
 40
3.50003
 40
3.50003
 40
3.6250275
 40
3.6250275
 40
3.6250275
 40
3.6250275
 10
210.5203910851578
 20
32.8290468228397
 10
210.5964493985193
 20
32.8290468228397
 10
210.6775794289788
 20
32.8290468228397
 10
210.7587106763785
 20
32.8290468228397
 72
     4
 94
        3
 73
     0
 74
     0
 95
        8
 96
        4
 40
3.250035
 40
3.250035
 40
3.250035
 40
3.250035
 40
3.50003
 40
3.50003
 40
3.50003
 40
3.50003
 10
210.7587106763785
 20
32.8290468228397
 10
210.920973171189
 20
32.8290468228397
 10
211.0832405337787
 20
32.8290468228397
 10
211.2049487629065
 20
32.8290468228397
 72
     4
 94
        3
 73
     0
 74
     0
 95
       11
 96
        7
 40
2.0
 40
2.0
 40
2.0
 40
2.0
 40
2.250035
 40
2.250035
 40
2.250035
 40
3.250035
 40
3.250035
 40
3.250035
 40
3.250035
 10
211.2049487629065
 20
32.8290468228397
 10
211.3266764657292
 20
32.8290468228397
 10
211.4078320548888
 20
32.8290468228397
 10
211.4078320548888
 20
32.8290468228397
 10
212.8016692284073
 20
32.8218091455019
 10
213.0681188951185
 20
33.77535643228384
 10
213.0681188951185
 20
34.41104720021303
 97
        0
 92
       20
 93
       11
 72
     4
 94
        3
 73
     0
 74
     0
 95
        8
 96
        4
 40
3.250015000000001
 40
3.250015000000001
 40
3.250015000000001
 40
3.250015000000001
 40
3.500009999937033
 40
3.500009999937033
 40
3.500009999937033
 40
3.500009999937033
 10
210.74166786559
 20
35.2706828398268
 10
210.8996598794893
 20
35.2706828398268
 10
211.0576534732681
 20
35.2706828398268
 10
211.1761522233683
 20
35.2706828398268
 72
     4
 94
        3
 73
     0
 74
     0
 95
       11
 96
        7
 40
2.0
 40
2.0
 40
2.0
 40
2.0
 40
2.250015
 40
2.250015
 40
2.250015
 40
3.250015
 40
3.250015
 40
3.250015
 40
3.250015
 10
211.1761522233683
 20
35.2706828398268
 10
211.2946604535882
 20
35.2706828398268
 10
211.3736675205491
 20
35.2706828398268
 10
211.3736675205491
 20
35.2706828398268
 10
211.8246309485585
 20
35.2706828398268
 10
212.2140476630393
 20
35.09729036061435
 10
212.2140476630393
 20
34.41826260777361
 72
     4
 94
        3
 73
     0
 74
     0
 95
        8
 96
        4
 40
1.0
 40
1.0
 40
1.0
 40
1.0
 40
2.0
 40
2.0
 40
2.0
 40
2.0
 10
212.2140476630393
 20
34.41826260777361
 10
212.2140476630393
 20
33.76814102472144
 10
211.7426107902775
 20
33.56586464549582
 10
211.3600185573778
 20
33.56586464549582
 72
     4
 94
        3
 73
     0
 74
     0
 95
       11
 96
        7
 40
4.49999
 40
4.49999
 40
4.49999
 40
4.49999
 40
5.49999
 40
5.49999
 40
5.49999
 40
6.0
 40
6.0
 40
6.0
 40
6.0
 10
211.3600185573778
 20
33.56586464549582
 10
211.3600185573778
 20
33.56586464549582
 10
210.1097061292185
 20
33.56586464549582
 10
210.1097061292185
 20
33.56586464549582
 10
210.1097061292185
 20
33.56586464549582
 10
210.1097061292185
 20
33.9920862424342
 10
210.1097061292185
 20
34.41829931493521
 72
     4
 94
        3
 73
     0
 74
     0
 95
       11
 96
        7
 40
3.999267592773436
 40
3.999267592773436
 40
3.999267592773436
 40
3.999267592773436
 40
4.499257592773438
 40
4.499257592773438
 40
4.499257592773438
 40
4.49999
 40
4.49999
 40
4.49999
 40
4.49999
 10
210.1097061292185
 20
34.41829931493521
 10
210.1097061292185
 20
34.84449533925635
 10
210.1097061292185
 20
35.2706828398268
 10
210.1097061292185
 20
35.2706828398268
 10
210.1097061292185
 20
35.2706828398268
 10
210.1097068072377
 20
35.2706828398268
 10
210.1097081622702
 20
35.2706828398268
 72
     4
 94
        3
 73
     0
 74
     0
 95
        8
 96
        4
 40
3.906251875
 40
3.906251875
 40
3.906251875
 40
3.906251875
 40
3.937501249746713
 40
3.937501249746713
 40
3.937501249746713
 40
3.937501249746713
 10
210.1239004527906
 20
35.2706828398268
 10
210.1285290386495
 20
35.2706828398268
 10
210.1342376295288
 20
35.2706828398268
 10
210.1409490839505
 20
35.2706828398268
 72
     4
 94
        3
 73
     0
 74
     0
 95
        8
 96
        4
 40
3.8750025
 40
3.8750025
 40
3.8750025
 40
3.8750025
 40
3.906251875
 40
3.906251875
 40
3.906251875
 40
3.906251875
 10
210.1409490839505
 20
35.2706828398268
 10
210.1476605383978
 20
35.2706828398268
 10
210.1553748564274
 20
35.2706828398268
 10
210.1640148965889
 20
35.2706828398268
 72
     4
 94
        3
 73
     0
 74
     0
 95
        8
 96
        4
 40
3.812503749999999
 40
3.812503749999999
 40
3.812503749999999
 40
3.812503749999999
 40
3.8750025
 40
3.8750025
 40
3.8750025
 40
3.8750025
 10
210.1640148965889
 20
35.2706828398268
 10
210.1812949768791
 20
35.2706828398268
 10
210.2022779456292
 20
35.2706828398268
 10
210.2263466712193
 20
35.2706828398268
 72
     4
 94
        3
 73
     0
 74
     0
 95
        8
 96
        4
 40
3.750004999953268
 40
3.750004999953268
 40
3.750004999953268
 40
3.750004999953268
 40
3.812503749999999
 40
3.812503749999999
 40
3.812503749999999
 40
3.812503749999999
 10
210.2263466712193
 20
35.2706828398268
 10
210.2504153968275
 20
35.2706828398268
 10
210.2775698792793
 20
35.2706828398268
 10
210.3071929869475
 20
35.2706828398268
 72
     4
 94
        3
 73
     0
 74
     0
 95
        8
 96
        4
 40
3.625007499999998
 40
3.625007499999998
 40
3.625007499999998
 40
3.625007499999998
 40
3.750004999953268
 40
3.750004999953268
 40
3.750004999953268
 40
3.750004999953268
 10
210.3071929869475
 20
35.2706828398268
 10
210.3664392022183
 20
35.2706828398268
 10
210.43555991834
 20
35.2706828398268
 10
210.5096180823984
 20
35.2706828398268
 72
     4
 94
        3
 73
     0
 74
     0
 95
        8
 96
        4
 40
3.500009999937033
 40
3.500009999937033
 40
3.500009999937033
 40
3.500009999937033
 40
3.625007499999998
 40
3.625007499999998
 40
3.625007499999998
 40
3.625007499999998
 10
210.5096180823984
 20
35.2706828398268
 10
210.5836762465187
 20
35.2706828398268
 10
210.6626718585685
 20
35.2706828398268
 10
210.74166786559
 20
35.2706828398268
 97
        0
 92
        7
 72
     0
 73
     1
 93
        8
 10
217.3717970626894
 20
36.0075006624802
 10
213.4370689592397
 20
36.0075006624802
 10
213.4370689592397
 20
35.22732358513895
 10
214.9755772384269
 20
35.22732358513895
 10
214.9755772384269
 20
30.84973136434746
 10
215.8264892106981
 20
30.84973136434746
 10
215.8264892106981
 20
35.22732358513895
 10
217.3717970626894
 20
35.22732358513895
 97
        0
 92
        7
 72
     0
 73
     1
 93
        4
 10
218.6007119832193
 20
36.0075006624802
 10
217.7404715399571
 20
36.0075006624802
 10
217.7404715399571
 20
30.84973136434746
 10
218.6007119832193
 20
30.84973136434746
 97
        0
 92
        5
 93
        9
 72
     4
 94
        3
 73
     0
 74
     0
 95
       11
 96
        7
 40
8.0
 40
8.0
 40
8.0
 40
8.0
 40
8.5
 40
8.5
 40
8.5
 40
9.5
 40
9.5
 40
9.5
 40
9.5
 10
222.9586207235679
 20
34.32502693008155
 10
223.1726301818398
 20
34.32502693008155
 10
223.3866396401281
 20
34.32502693008155
 10
223.3866396401281
 20
34.32502693008155
 10
223.2839049660197
 20
35.38690685420352
 10
222.4141438410497
 20
36.00061320636723
 10
221.3115512352069
 20
36.0075006624802
 72
     4
 94
        3
 73
     0
 74
     0
 95
        8
 96
        4
 40
7.0
 40
7.0
 40
7.0
 40
7.0
 40
8.0
 40
8.0
 40
8.0
 40
8.0
 10
221.3115512352069
 20
36.0075006624802
 10
219.8459881161889
 20
36.0075006624802
 10
218.9693864580586
 20
34.83527263742235
 10
218.9693864580586
 20
33.42861601341701
 72
     4
 94
        3
 73
     0
 74
     0
 95
        8
 96
        4
 40
6.0
 40
6.0
 40
6.0
 40
6.0
 40
7.0
 40
7.0
 40
7.0
 40
7.0
 10
218.9693864580586
 20
33.42861601341701
 10
218.9693864580586
 20
32.02193813182384
 10
219.8459881161889
 20
30.84973136434746
 10
221.3115512352069
 20
30.84973136434746
 72
     4
 94
        3
 73
     0
 74
     0
 95
        8
 96
        4
 40
5.0
 40
5.0
 40
5.0
 40
5.0
 40
6.0
 40
6.0
 40
6.0
 40
6.0
 10
221.3115512352069
 20
30.84973136434746
 10
222.4963569156389
 20
30.84973136434746
 10
223.324990390558
 20
31.66338651970818
 10
223.3934801732903
 20
32.84250200088354
 72
     4
 94
        3
 73
     0
 74
     0
 95
       11
 96
        7
 40
3.0
 40
3.0
 40
3.0
 40
3.0
 40
4.0
 40
4.0
 40
4.0
 40
5.0
 40
5.0
 40
5.0
 40
5.0
 10
223.3934801732903
 20
32.84250200088354
 10
223.3934801732903
 20
32.84250200088354
 10
222.5579639396892
 20
32.84250200088354
 10
222.5579639396892
 20
32.84250200088354
 10
222.4895163824767
 20
32.12537751906621
 10
222.0717371529063
 20
31.55305967635013
 10
221.3115512352069
 20
31.55305967635013
 72
     4
 94
        3
 73
     0
 74
     0
 95
        8
 96
        4
 40
2.0
 40
2.0
 40
2.0
 40
2.0
 40
3.0
 40
3.0
 40
3.0
 40
3.0
 10
221.3115512352069
 20
31.55305967635013
 10
220.2637673457593
 20
31.55305967635013
 10
219.8254665166787
 20
32.48392913118823
 10
219.8254665166787
 20
33.42861601341701
 72
     4
 94
        3
 73
     0
 74
     0
 95
        8
 96
        4
 40
1.0
 40
1.0
 40
1.0
 40
1.0
 40
2.0
 40
2.0
 40
2.0
 40
2.0
 10
219.8254665166787
 20
33.42861601341701
 10
219.8254665166787
 20
34.37328163806797
 10
220.2637673457593
 20
35.30417235047662
 10
221.3115512352069
 20
35.30417235047662
 72
     4
 94
        3
 73
     0
 74
     0
 95
        8
 96
        4
 40
0.0
 40
0.0
 40
0.0
 40
0.0
 40
1.0
 40
1.0
 40
1.0
 40
1.0
 10
221.3115512352069
 20
35.30417235047662
 10
222.0238111952003
 20
35.30417235047662
 10
222.3867817083792
 20
34.89043605909683
 10
222.5306018070096
 20
34.32502693008155
 72
     4
 94
        3
 73
     0
 74
     0
 95
        8
 96
        4
 40
9.5
 40
9.5
 40
9.5
 40
9.5
 40
10.0
 40
10.0
 40
10.0
 40
10.0
 10
222.5306018070096
 20
34.32502693008155
 10
222.5306018070096
 20
34.32502693008155
 10
222.7446112652906
 20
34.32502693008155
 10
222.9586207235679
 20
34.32502693008155
 97
        0
 92
        5
 93
       15
 72
     4
 94
        3
 73
     0
 74
     0
 95
        8
 96
        4
 40
13.0
 40
13.0
 40
13.0
 40
13.0
 40
14.0
 40
14.0
 40
14.0
 40
14.0
 10
225.8386489072291
 20
30.84973136434746
 10
226.8281328781286
 20
30.84973136434746
 10
227.817573885879
 20
31.29103873777331
 10
227.817573885879
 20
32.39430717133837
 72
     4
 94
        3
 73
     0
 74
     0
 95
        8
 96
        4
 40
12.0
 40
12.0
 40
12.0
 40
12.0
 40
13.0
 40
13.0
 40
13.0
 40
13.0
 10
227.817573885879
 20
32.39430717133837
 10
227.817573885879
 20
32.9045528786819
 10
227.5040289239078
 20
33.45618709546488
 10
226.8490129619186
 20
33.64926970012493
 72
     4
 94
        3
 73
     0
 74
     0
 95
        8
 96
        4
 40
11.0
 40
11.0
 40
11.0
 40
11.0
 40
12.0
 40
12.0
 40
12.0
 40
12.0
 10
226.8490129619186
 20
33.64926970012493
 10
226.5911911865078
 20
33.72511674773796
 10
225.4902608424491
 20
34.00782131224787
 10
225.4136146089404
 20
34.02850493817914
 72
     4
 94
        3
 73
     0
 74
     0
 95
        8
 96
        4
 40
10.0
 40
10.0
 40
10.0
 40
10.0
 40
11.0
 40
11.0
 40
11.0
 40
11.0
 10
225.4136146089404
 20
34.02850493817914
 10
225.0582235530783
 20
34.12505686930035
 10
224.8213248245993
 20
34.3181182163853
 10
224.8213248245993
 20
34.66289491626958
 72
     4
 94
        3
 73
     0
 74
     0
 95
        8
 96
        4
 40
9.0
 40
9.0
 40
9.0
 40
9.0
 40
10.0
 40
10.0
 40
10.0
 40
10.0
 10
224.8213248245993
 20
34.66289491626958
 10
224.8213248245993
 20
35.15936571137627
 10
225.3299653843569
 20
35.30417235047662
 10
225.7341195988574
 20
35.30417235047662
 72
     4
 94
        3
 73
     0
 74
     0
 95
        8
 96
        4
 40
8.0
 40
8.0
 40
8.0
 40
8.0
 40
9.0
 40
9.0
 40
9.0
 40
9.0
 10
225.7341195988574
 20
35.30417235047662
 10
226.3333694111079
 20
35.30417235047662
 10
226.7654067004787
 20
35.06972249394676
 10
226.8072098311986
 20
34.43535377343778
 72
     4
 94
        3
 73
     0
 74
     0
 95
       11
 96
        7
 40
6.0
 40
6.0
 40
6.0
 40
6.0
 40
7.0
 40
7.0
 40
7.0
 40
8.0
 40
8.0
 40
8.0
 40
8.0
 10
226.8072098311986
 20
34.43535377343778
 10
226.8072098311986
 20
34.43535377343778
 10
227.6782444378478
 20
34.43535377343778
 10
227.6782444378478
 20
34.43535377343778
 10
227.6782444378478
 20
35.46275390181017
 10
226.8072098311986
 20
36.0075006624802
 10
225.7689627016498
 20
36.0075006624802
 72
     4
 94
        3
 73
     0
 74
     0
 95
        8
 96
        4
 40
5.0
 40
5.0
 40
5.0
 40
5.0
 40
6.0
 40
6.0
 40
6.0
 40
6.0
 10
225.7689627016498
 20
36.0075006624802
 10
224.8700879832595
 20
36.0075006624802
 10
223.9502902179593
 20
35.54550966312308
 10
223.9502902179593
 20
34.55945552903086
 72
     4
 94
        3
 73
     0
 74
     0
 95
        8
 96
        4
 40
4.0
 40
4.0
 40
4.0
 40
4.0
 40
5.0
 40
5.0
 40
5.0
 40
5.0
 10
223.9502902179593
 20
34.55945552903086
 10
223.9502902179593
 20
34.04920982169006
 10
224.2011519654188
 20
33.5389428567687
 10
225.051263525158
 20
33.31140171393781
 72
     4
 94
        3
 73
     0
 74
     0
 95
        8
 96
        4
 40
3.0
 40
3.0
 40
3.0
 40
3.0
 40
4.0
 40
4.0
 40
4.0
 40
4.0
 10
225.051263525158
 20
33.31140171393781
 10
225.7341195988574
 20
33.12520656539709
 10
226.1870369720091
 20
33.03556334796849
 10
226.5354679999291
 20
32.9045528786819
 72
     4
 94
        3
 73
     0
 74
     0
 95
        8
 96
        4
 40
2.0
 40
2.0
 40
2.0
 40
2.0
 40
3.0
 40
3.0
 40
3.0
 40
3.0
 10
226.5354679999291
 20
32.9045528786819
 10
226.7375236256194
 20
32.82870583107069
 10
226.9465822423572
 20
32.67701173584828
 10
226.9465822423572
 20
32.29775524021898
 72
     4
 94
        3
 73
     0
 74
     0
 95
        8
 96
        4
 40
1.0
 40
1.0
 40
1.0
 40
1.0
 40
2.0
 40
2.0
 40
2.0
 40
2.0
 10
226.9465822423572
 20
32.29775524021898
 10
226.9465822423572
 20
31.92540745828501
 10
226.6608773921089
 20
31.55305967635013
 10
225.8944150569569
 20
31.55305967635013
 72
     4
 94
        3
 73
     0
 74
     0
 95
        8
 96
        4
 40
0.0
 40
0.0
 40
0.0
 40
0.0
 40
1.0
 40
1.0
 40
1.0
 40
1.0
 10
225.8944150569569
 20
31.55305967635013
 10
225.1975959642568
 20
31.55305967635013
 10
224.6331892547769
 20
31.84956041067562
 10
224.6331892547769
 20
32.60805214435914
 72
     4
 94
        3
 73
     0
 74
     0
 95
        8
 96
        4
 40
15.5
 40
15.5
 40
15.5
 40
15.5
 40
16.0
 40
16.0
 40
16.0
 40
16.0
 10
224.6331892547769
 20
32.60805214435914
 10
224.6331892547769
 20
32.60805214435914
 10
224.4154306031196
 20
32.60805214435914
 10
224.1976719514569
 20
32.60805214435914
 72
     4
 94
        3
 73
     0
 74
     0
 95
       11
 96
        7
 40
14.0
 40
14.0
 40
14.0
 40
14.0
 40
14.5
 40
14.5
 40
14.5
 40
15.5
 40
15.5
 40
15.5
 40
15.5
 10
224.1976719514569
 20
32.60805214435914
 10
223.9799132997996
 20
32.60805214435914
 10
223.7621546481296
 20
32.60805214435914
 10
223.7621546481296
 20
32.60805214435914
 10
223.7830776950686
 20
31.3875694113176
 10
224.7028324972289
 20
30.84973136434746
 10
225.8386489072291
 20
30.84973136434746
 97
        0
 75
     1
 76
     1
 47
0.0244899890509677
 98
       14
 10
185.2888855928904
 20
36.81031742969481
 10
185.2888855928904
 20
36.81031742969481
 10
185.2888855928904
 20
36.81031742969481
 10
185.2888855928904
 20
36.81031742969481
 10
196.2122221199897
 20
35.52802127778705
 10
199.4144547605592
 20
34.75756560612717
 10
206.5601719246897
 20
35.73545195180031
 10
206.5601719246897
 20
35.73545195180031
 10
211.0077170877776
 20
35.73545195180031
 10
211.0077170877776
 20
35.73545195180031
 10
215.8110645093093
 20
35.67618649195811
 10
218.3016864757083
 20
35.0835287643913
 10
221.6225208953074
 20
35.58728673762835
 10
225.2991575733395
 20
31.32015172498086
1001
GRADIENTCOLOR1ACI
1070
     5
1001
GRADIENTCOLOR2ACI
1070
     2
1001
ACAD
1010
0.0
1020
0.0
1030
0.0
  0
MTEXT
  5
7A2
330
1F
100
AcDbEntity
  8
6文字层
100
AcDbMText
 10
217.9586460285391
 20
12.98934071260373
 30
0.0
 40
2.5
 41
17.84855769230755
 71
     5
 72
     5
  1
{\fSimHei|b1|i0|c134|p49;270635}
1001
ACDBBLOCKREPETAG
1000

1001
ACAD
1000
ACAD_MTEXT_DEFINED_HEIGHT_BEGIN
1070
    46
1040
4.283653846153733
1000
ACAD_MTEXT_DEFINED_HEIGHT_END
  0
MTEXT
  5
7A3
330
1F
100
AcDbEntity
  8
6文字层
100
AcDbMText
 10
245.5932871021887
 20
21.13543729905609
 30
0.0
 40
2.5
 41
71.44564321082993
 71
     5
 72
     5
  1
{\fSimHei|b1|i0|c134|p49;K9偏心平凹球面反射镜 未镀膜^J25.00X20.00mm F=50.00mm}
1001
ACDBBLOCKREPETAG
1000

1001
ACAD
1000
ACAD_MTEXT_DEFINED_HEIGHT_BEGIN
1070
    46
1040
4.283653846153733
1000
ACAD_MTEXT_DEFINED_HEIGHT_END
  0
LINE
  5
7A4
330
1F
100
AcDbEntity
  8
6文字层
 62
     0
100
AcDbLine
 10
147.0000007298586
 20
10.00000025367171
 30
0.0
 11
27.00000072979856
 21
10.0000002536699
 31
0.0
  0
MTEXT
  5
7A5
102
{ACAD_XDICTIONARY
360
7A6
102
}
330
1F
100
AcDbEntity
  8
6文字层
100
AcDbMText
 10
21.04260072708712
 20
70.86418703472486
 30
0.0
 40
2.5
 41
114.6703060300538
 71
     1
 72
     5
  1
{\fSimSun|b1|i0|c134|p49;\C1;注：}\P{\fSimSun|b1|i0|c134|p49;\C1;1：本图仅供参考,禁止使用本图加工生产.}\P{\fSimSun|b1|i0|c134|p49;\C1;2：图纸细节如有更改不再另行通知.}
  7
标准
1001
ACAD
1000
ACAD_MTEXT_COLUMN_INFO_BEGIN
1070
    75
1070
     2
1070
    79
1070
     0
1070
    76
1070
     1
1070
    78
1070
     0
1070
    48
1040
114.6703060300538
1070
    49
1040
1.0
1070
    50
1070
     1
1040
-12.28937728937729
1000
ACAD_MTEXT_COLUMN_INFO_END
  0
INSERT
  5
7A7
330
1F
100
AcDbEntity
  8
2细线层
100
AcDbBlockReference
  2
*T13
 10
10.0
 20
41.66666666666629
 30
0.0
  0
MTEXT
  5
7A8
330
1F
100
AcDbEntity
  8
6文字层
100
AcDbMText
 10
26.12401889801549
 20
163.751121784877
 30
0.0
 40
2.5
 41
73.0012707428877
 71
     1
 72
     1
  3
{\fSimSun|b1|i0|c134|p34;\W1;注释：\fSimSun|b1|i0|c0|p34; \P1.\fSimSun|b1|i0|c134|p34;材料：精退火\fSimSun|b1|i0|c0|p34;K9\fSimSun|b1|i0|c134|p34;光学玻璃\fSimSun|b1|i0|c0|p34; Nd=1.5168                                                \P2.\fSimSun|b1
  3
|i0|c134|p34;表面面型：\fSimSun|b1|i0|c0|p34;\U+03BB/4 @ 633 nm            \P3.\fSimSun|b1|i0|c134|p34;焦距：50\fSimSun|b1|i0|c0|p34;.00\U+00B12%mm \P4.\fSimSun|b1|i0|c134|p34;镀膜：\A1;未镀膜\A0;   \P\fSimSun|b1|i0|c0|p34;5.\fSimSun|b1|i0|c134|p34;
  1
倒边：\fSimSun|b1|i0|c0|p34;0.2~0.5mmX45\U+00B0}
  7
TH-GBD2M
1001
ACAD
1000
ACAD_MTEXT_DEFINED_HEIGHT_BEGIN
1070
    46
1040
26.01190476190477
1000
ACAD_MTEXT_DEFINED_HEIGHT_END
  0
ENDSEC
  0
SECTION
  2
OBJECTS
  0
DICTIONARY
  5
C
330
0
100
AcDbDictionary
  3
ACAD_ASSOCNETWORK
350
377
  3
ACAD_CIP_PREVIOUS_PRODUCT_INFO
350
216
  3
ACAD_COLOR
350
6B
  3
ACAD_DETAILVIEWSTYLE
350
21B
  3
ACAD_GROUP
350
D
  3
ACAD_LAYOUT
350
1A
  3
ACAD_MATERIAL
350
6A
  3
ACAD_MLEADERSTYLE
350
12D
  3
ACAD_MLINESTYLE
350
17
  3
ACAD_PLOTSETTINGS
350
19
  3
ACAD_RENDER_ACTIVE_RAPIDRT
350
711
  3
ACAD_RENDER_RAPIDRT_SETTINGS
350
70A
  3
ACAD_SCALELIST
350
10C
  3
ACAD_SECTIONVIEWSTYLE
350
219
  3
ACAD_VISUALSTYLE
350
EF
  3
ACDB_RECOMPOSE_DATA
350
BB7
  3
ACDBHEADERROUNDTRIPXREC
350
B75
  3
ACDBVARIABLEDICTIONARY
350
5E
  3
DWGPROPS
350
B9A
  0
DICTIONARY
  5
BB1
330
8
100
AcDbDictionary
280
     1
  3
ACAD_XREC_ROUNDTRIP
360
BB2
  0
DICTIONARY
  5
1FF
330
2
100
AcDbDictionary
280
     1
  3
ACAD_LAYERSTATES
360
200
  0
DICTIONARY
  5
1CE
330
1F
100
AcDbDictionary
280
     1
  3
ACAD_ASSOCNETWORK
360
449
  0
DICTIONARY
  5
ADA
330
A99
100
AcDbDictionary
280
     1
  3
ACAD_ASSOCNETWORK
360
AEF
  3
ACAD_SORTENTS
360
ADB
  0
DICTIONARY
  5
BAC
330
AAF
100
AcDbDictionary
280
     1
  3
ACAD_XREC_ROUNDTRIP
360
BAD
  0
DICTIONARY
  5
BAE
330
AB4
100
AcDbDictionary
280
     1
  3
ACAD_XREC_ROUNDTRIP
360
BAF
  0
DICTIONARY
  5
AD7
330
AD6
100
AcDbDictionary
280
     1
  3
ACAD_MTEXT_RT
360
BB0
  0
DICTIONARY
  5
B9B
330
3DA
100
AcDbDictionary
280
     1
  3
ACAD_XREC_ROUNDTRIP
360
B9C
  0
DICTIONARY
  5
B9D
330
3DB
100
AcDbDictionary
280
     1
  3
ACAD_XREC_ROUNDTRIP
360
B9E
  0
DICTIONARY
  5
B9F
330
492
100
AcDbDictionary
280
     1
  3
ACAD_XREC_ROUNDTRIP
360
BA0
  0
DICTIONARY
  5
BA1
330
4F8
100
AcDbDictionary
280
     1
  3
ACAD_XREC_ROUNDTRIP
360
BA2
  0
DICTIONARY
  5
BA3
330
553
100
AcDbDictionary
280
     1
  3
ACAD_XREC_ROUNDTRIP
360
BA4
  0
DICTIONARY
  5
BA5
330
5C0
100
AcDbDictionary
280
     1
  3
ACAD_XREC_ROUNDTRIP
360
BA6
  0
DICTIONARY
  5
BA7
330
65D
100
AcDbDictionary
280
     1
  3
ACAD_XREC_ROUNDTRIP
360
BA8
  0
DICTIONARY
  5
BA9
330
664
100
AcDbDictionary
280
     1
  3
ACAD_XREC_ROUNDTRIP
360
BAA
  0
DICTIONARY
  5
7A6
330
7A5
100
AcDbDictionary
280
     1
  3
ACAD_MTEXT_RT
360
BAB
  0
DICTIONARY
  5
377
102
{ACAD_REACTORS
330
C
102
}
330
C
100
AcDbDictionary
  3
ACAD_ASSOCNETWORK
350
378
  0
XRECORD
  5
216
102
{ACAD_REACTORS
330
C
102
}
330
C
100
AcDbXrecord
300
ACD
300
2021
300

  0
DICTIONARY
  5
6B
102
{ACAD_REACTORS
330
C
102
}
330
C
100
AcDbDictionary
  0
DICTIONARY
  5
21B
102
{ACAD_REACTORS
330
C
102
}
330
C
100
AcDbDictionary
  3
METRIC50
350
21C
  0
DICTIONARY
  5
D
102
{ACAD_REACTORS
330
C
102
}
330
C
100
AcDbDictionary
  0
DICTIONARY
  5
1A
102
{ACAD_REACTORS
330
C
102
}
330
C
100
AcDbDictionary
  0
DICTIONARY
  5
6A
102
{ACAD_REACTORS
330
C
102
}
330
C
100
AcDbDictionary
  3
BYBLOCK
350
ED
  3
BYLAYER
350
EC
  3
GLOBAL
350
EE
  0
DICTIONARY
  5
12D
102
{ACAD_REACTORS
330
C
102
}
330
C
100
AcDbDictionary
  3
ANNOTATIVE
350
13B
  3
STANDARD
350
12E
  0
DICTIONARY
  5
17
102
{ACAD_REACTORS
330
C
102
}
330
C
100
AcDbDictionary
  3
STANDARD
350
18
  0
DICTIONARY
  5
19
102
{ACAD_REACTORS
330
C
102
}
330
C
100
AcDbDictionary
  0
ACAD_PROXY_OBJECT
  5
711
102
{ACAD_REACTORS
330
C
102
}
330
C
100
AcDbProxyObject
 90
      499
 91
      525
 93
      375
310
40902D6D0B911D3A6D3C3203520B8F6E4D6C8BEBCB6B1F090390540501408000000000000084000000000000002102
  0
DICTIONARY
  5
70A
102
{ACAD_REACTORS
330
C
102
}
330
C
100
AcDbDictionary
  3
茶歇质量
350
70E
  3
低
350
70B
  3
高
350
70D
  3
午餐质量
350
70F
  3
夜间质量
350
710
  3
中
350
70C
  0
DICTIONARY
  5
10C
102
{ACAD_REACTORS
330
C
102
}
330
C
100
AcDbDictionary
  3
A0
350
10D
  3
A1
350
1BE
  3
A2
350
1BF
  3
A3
350
1C0
  3
A4
350
1C1
  3
A5
350
1C2
  3
A6
350
1C3
  3
A7
350
1C4
  3
A8
350
1C5
  3
A9
350
1C6
  3
B0
350
1C7
  3
B1
350
1C8
  3
B2
350
1C9
  3
B3
350
1CA
  3
B4
350
1CB
  3
B5
350
1CC
  3
B6
350
1CD
  0
DICTIONARY
  5
219
102
{ACAD_REACTORS
330
C
102
}
330
C
100
AcDbDictionary
  3
METRIC50
350
21A
  0
DICTIONARY
  5
EF
102
{ACAD_REACTORS
330
C
102
}
330
C
100
AcDbDictionary
  3
2DWIREFRAME
350
F5
  3
BASIC
350
F4
  3
BRIGHTEN
350
FB
  3
COLORCHANGE
350
FF
  3
CONCEPTUAL
350
F8
  3
DIM
350
FA
  3
EDGECOLOROFF
350
1E6
  3
FACEPATTERN
350
FE
  3
FLAT
350
F0
  3
FLATWITHEDGES
350
F1
  3
GOURAUD
350
F2
  3
GOURAUDWITHEDGES
350
F3
  3
HIDDEN
350
F7
  3
JITTEROFF
350
1E4
  3
LINEPATTERN
350
FD
  3
OVERHANGOFF
350
1E5
  3
REALISTIC
350
F9
  3
SHADED
350
1F3
  3
SHADED_WITH_EDGES
350
1F2
  3
SHADES_OF_GRAY
350
1EF
  3
SKETCHY
350
1F0
  3
THICKEN
350
FC
  3
WIREFRAME
350
F6
  3
X-RAY
350
1F1
  0
XRECORD
  5
BB7
102
{ACAD_REACTORS
330
C
102
}
330
C
100
AcDbXrecord
 90
        1
330
7A5
330
AD6
  0
DICTIONARY
  5
B75
102
{ACAD_REACTORS
330
C
102
}
330
C
100
AcDbDictionary
  3
CEPSNID
350
B7F
  3
CEPSNTYPE
350
B7E
  3
COLORDICT
350
B98
  3
DIMSTYLEDATA
350
B95
  3
FINGERPRINTGUID
350
B80
  3
HYPERLINKBASE
350
B78
  3
INSUNITS
350
B7D
  3
LAYOUTDICT
350
B7A
  3
LWETCUNION
350
B7C
  3
MATERIALDICT
350
B99
  3
PLOTSETDICT
350
B7B
  3
PSVPSCALE
350
B82
  3
PUCSBASE
350
B85
  3
PUCSORGBACK
350
B8B
  3
PUCSORGBOTTOM
350
B87
  3
PUCSORGFRONT
350
B8A
  3
PUCSORGLEFT
350
B88
  3
PUCSORGRIGHT
350
B89
  3
PUCSORGTOP
350
B86
  3
PUCSORTHOREF
350
B83
  3
PUCSORTHOVIEW
350
B84
  3
STYLESHEET
350
B79
  3
TSTACKALIGN
350
B76
  3
TSTACKSIZE
350
B77
  3
UCSBASE
350
B8E
  3
UCSORGBACK
350
B94
  3
UCSORGBOTTOM
350
B90
  3
UCSORGFRONT
350
B93
  3
UCSORGLEFT
350
B91
  3
UCSORGRIGHT
350
B92
  3
UCSORGTOP
350
B8F
  3
UCSORTHOREF
350
B8C
  3
UCSORTHOVIEW
350
B8D
  3
VERSIONGUID
350
B81
  0
DICTIONARY
  5
5E
102
{ACAD_REACTORS
330
C
102
}
330
C
100
AcDbDictionary
  3
CANNOSCALE
350
146
  3
CENTEREXE
350
259
  3
CENTERLTYPEFILE
350
25A
  3
CMLEADERSTYLE
350
145
  3
CTABLESTYLE
350
84
  3
CVIEWDETAILSTYLE
350
227
  3
CVIEWSECTIONSTYLE
350
228
  3
DIMASSOC
350
5F
  3
HIDETEXT
350
63
  3
LAYEREVAL
350
1AE
  3
LAYERNOTIFY
350
1AF
  3
MSLTSCALE
350
BB3
  3
PSOLHEIGHT
350
B97
  3
PSOLWIDTH
350
B96
  0
XRECORD
  5
B9A
102
{ACAD_REACTORS
330
C
102
}
330
C
100
AcDbXrecord
  1
DWGPROPS COOKIE
  2

  3

  4

  6

  7

  8
MSI
  9

300
=
301
=
302
=
303
=
304
=
305
=
306
=
307
=
308
=
309
=
 40
0.0
 41
2460229.148055556
 42
2460669.129099016
  1

 90
        0
  0
XRECORD
  5
BB2
102
{ACAD_REACTORS
330
BB1
102
}
330
BB1
100
AcDbXrecord
102
VTR_0.000_0.000_1.000_1.000_VISUALSTYLE
340
F5
102
VTR_0.000_0.000_1.000_1.000_GRIDDISPLAY
 70
     3
102
VTR_0.000_0.000_1.000_1.000_GRIDMAJOR
 70
     5
102
VTR_0.000_0.000_1.000_1.000_DEFAULTLIGHTING
280
     1
102
VTR_0.000_0.000_1.000_1.000_DEFAULTLIGHTINGTYPE
 70
     1
102
VTR_0.000_0.000_1.000_1.000_BRIGHTNESS
141
0.0
102
VTR_0.000_0.000_1.000_1.000_CONTRAST
142
0.0
  0
DICTIONARY
  5
200
102
{ACAD_REACTORS
330
1FF
102
}
330
1FF
100
AcDbDictionary
  0
DICTIONARY
  5
449
102
{ACAD_REACTORS
330
1CE
102
}
330
1CE
100
AcDbDictionary
  3
ACAD_ASSOCNETWORK
350
44A
  0
DICTIONARY
  5
AEF
102
{ACAD_REACTORS
330
ADA
102
}
330
ADA
100
AcDbDictionary
  3
ACAD_ASSOCNETWORK
350
AF0
  0
SORTENTSTABLE
  5
ADB
102
{ACAD_REACTORS
330
ADA
102
}
330
ADA
100
AcDbSortentsTable
330
A99
  0
XRECORD
  5
BAD
102
{ACAD_REACTORS
330
BAC
102
}
330
BAC
100
AcDbXrecord
102
ISDYNAMIC
 70
     1
  0
XRECORD
  5
BAF
102
{ACAD_REACTORS
330
BAE
102
}
330
BAE
100
AcDbXrecord
102
ISDYNAMIC
 70
     1
  0
XRECORD
  5
BB0
102
{ACAD_REACTORS
330
AD7
102
}
330
AD7
100
AcDbXrecord
 40
116758.0
  1
\pxqj;{\fSimSun|b1|i0|c134|p49;\C1;注：\P1：本图仅供参考,禁止使用本图加工生产.\P2：图纸细节如有更改不再另行通知.}
  0
XRECORD
  5
B9C
102
{ACAD_REACTORS
330
B9B
102
}
330
B9B
100
AcDbXrecord
102
ISDYNAMIC
 70
     1
  0
XRECORD
  5
B9E
102
{ACAD_REACTORS
330
B9D
102
}
330
B9D
100
AcDbXrecord
102
ISDYNAMIC
 70
     1
  0
XRECORD
  5
BA0
102
{ACAD_REACTORS
330
B9F
102
}
330
B9F
100
AcDbXrecord
102
ISDYNAMIC
 70
     1
  0
XRECORD
  5
BA2
102
{ACAD_REACTORS
330
BA1
102
}
330
BA1
100
AcDbXrecord
102
ISDYNAMIC
 70
     1
  0
XRECORD
  5
BA4
102
{ACAD_REACTORS
330
BA3
102
}
330
BA3
100
AcDbXrecord
102
ISDYNAMIC
 70
     1
  0
XRECORD
  5
BA6
102
{ACAD_REACTORS
330
BA5
102
}
330
BA5
100
AcDbXrecord
102
ISDYNAMIC
 70
     1
  0
XRECORD
  5
BA8
102
{ACAD_REACTORS
330
BA7
102
}
330
BA7
100
AcDbXrecord
102
ISDYNAMIC
 70
     1
  0
XRECORD
  5
BAA
102
{ACAD_REACTORS
330
BA9
102
}
330
BA9
100
AcDbXrecord
102
ISDYNAMIC
 70
     1
  0
XRECORD
  5
BAB
102
{ACAD_REACTORS
330
7A6
102
}
330
7A6
100
AcDbXrecord
 40
116758.0
  1
\pxqj;{\fSimSun|b1|i0|c134|p49;\C1;注：\P1：本图仅供参考,禁止使用本图加工生产.\P2：图纸细节如有更改不再另行通知.}
  0
ACAD_PROXY_OBJECT
  5
378
102
{ACAD_REACTORS
330
377
102
}
330
377
100
AcDbProxyObject
 90
      499
 91
      529
 93
       53
310
40AAAAA4190220
330
0
360
0
330
44A
330
AF0
 94
        0
1001
ACAD
1000
AcadProxyRoundTripData
1071
      524
1071
 11403297
1070
     0
  0
ACAD_PROXY_OBJECT
  5
21C
102
{ACAD_REACTORS
330
21B
102
}
330
21B
100
AcDbProxyObject
 90
      499
 91
      516
 93
      877
310
9084D65747269633530481E0000000000000A20500E0000000000000A20233E0000000000000A20400000000000017202029B929E2E20B1AB30B9102B34B2BBA232BA30B4B624B21F129014129E2E20B1AB30B9102B34B2BBA9B1B0B632902E33101112B9B7111F1294A33A33800
340
11
340
0
340
16
340
11
340
16
340
16
 94
        0
  0
MATERIAL
  5
ED
102
{ACAD_REACTORS
330
6A
102
}
102
{ACAD_XDICTIONARY
360
1F9
102
}
330
6A
100
AcDbMaterial
  1
BYBLOCK
 73
     2
 78
     2
172
     2
176
     2
270
     2
274
     2
  0
MATERIAL
  5
EC
102
{ACAD_REACTORS
330
6A
102
}
102
{ACAD_XDICTIONARY
360
1F7
102
}
330
6A
100
AcDbMaterial
  1
BYLAYER
 73
     2
 78
     2
172
     2
176
     2
270
     2
274
     2
  0
MATERIAL
  5
EE
102
{ACAD_REACTORS
330
6A
102
}
102
{ACAD_XDICTIONARY
360
173
102
}
330
6A
100
AcDbMaterial
  1
GLOBAL
 73
     2
 43
0.0007999999797903
 43
0.0
 43
0.0
 43
0.0
 43
0.0
 43
0.0007999999797903
 43
0.0
 43
0.0
 43
0.0
 43
0.0
 43
1.0
 43
0.0
 43
0.0
 43
0.0
 43
0.0
 43
1.0
 78
     2
172
     2
 49
0.0007999999797903
 49
0.0
 49
0.0
 49
0.0
 49
0.0
 49
0.0007999999797903
 49
0.0
 49
0.0
 49
0.0
 49
0.0
 49
1.0
 49
0.0
 49
0.0
 49
0.0
 49
0.0
 49
1.0
176
     2
142
0.0007999999797903
142
0.0
142
0.0
142
0.0
142
0.0
142
0.0007999999797903
142
0.0
142
0.0
142
0.0
142
0.0
142
1.0
142
0.0
142
0.0
142
0.0
142
0.0
142
1.0
270
     2
144
0.0007999999797903
144
0.0
144
0.0
144
0.0
144
0.0
144
0.0007999999797903
144
0.0
144
0.0
144
0.0
144
0.0
144
1.0
144
0.0
144
0.0
144
0.0
144
0.0
144
1.0
274
     2
1001
ACAD
1070
    -1
1070
     3
1070
     0
1000

1071
        0
1070
     0
  0
ACAD_PROXY_OBJECT
  5
13B
102
{ACAD_REACTORS
330
12D
102
}
330
12D
100
AcDbProxyObject
 90
      499
 91
      508
 93
      610
310
40901902A4063FBFFFFFE0000000000000020400000000000020404214DD185B99185C990000000000000104090140501A00000000000004100000000000000041025766000000000000039000
340
14
340
0
340
11
340
0
 94
        0
1001
ACAD_MLEADERVER
1070
     2
  0
ACAD_PROXY_OBJECT
  5
12E
102
{ACAD_REACTORS
330
12D
102
}
330
12D
100
AcDbProxyObject
 90
      499
 91
      508
 93
      610
310
40901902A4063FBFFFFFE0000000000000020400000000000020404214DD185B99185C990000000000000104090140501A00000000000004100000000000000041025764000000000000039000
340
14
340
0
340
11
340
0
 94
        0
1001
ACAD_MLEADERVER
1070
     2
  0
MLINESTYLE
  5
18
102
{ACAD_REACTORS
330
17
102
}
330
17
100
AcDbMlineStyle
  2
STANDARD
 70
     0
  3

 62
   256
 51
90.0
 52
90.0
 71
     2
 49
0.5
 62
   256
  6
BYLAYER
 49
-0.5
 62
   256
  6
BYLAYER
  0
ACAD_PROXY_OBJECT
  5
70E
102
{ACAD_REACTORS
330
70A
102
}
330
70A
100
AcDbProxyObject
 90
      499
 91
      525
 93
      399
310
40908B2E8D0AAD6CAC1BFB90CE4D6C8BE20313020B7D6D6D340D034050142901408000000000000084000000000000002102
  0
ACAD_PROXY_OBJECT
  5
70B
102
{ACAD_REACTORS
330
70A
102
}
330
70A
100
AcDbProxyObject
 90
      499
 91
      525
 93
      367
310
40902B5CDB911D3A6D3C3203120B8F6E4D6C8BEBCB6B1F0903901406408000000000000084000000000000002102
  0
ACAD_PROXY_OBJECT
  5
70D
102
{ACAD_REACTORS
330
70A
102
}
330
70A
100
AcDbProxyObject
 90
      499
 91
      525
 93
      391
310
40902B8DFB912D3A6D3C320313020B8F6E4D6C8BEBCB6B1F04090390A40502408000000000000084000000000000002102
  0
ACAD_PROXY_OBJECT
  5
70F
102
{ACAD_REACTORS
330
70A
102
}
330
70A
100
AcDbProxyObject
 90
      499
 91
      525
 93
      399
310
40908CEE7B2CDD6CAC1BFB90CE4D6C8BE20363020B7D6D6D341103405014F102408000000000000084000000000000002102
  0
ACAD_PROXY_OBJECT
  5
710
102
{ACAD_REACTORS
330
70A
102
}
330
70A
100
AcDbProxyObject
 90
      499
 91
      525
 93
      423
310
40908D2B9BCE4D6CAC1BFB90CE4D6C8BE20313220D0A1CAB1415034050134008000102408000000000000084000000000000002102
  0
ACAD_PROXY_OBJECT
  5
70C
102
{ACAD_REACTORS
330
70A
102
}
330
70A
100
AcDbProxyObject
 90
      499
 91
      525
 93
      383
310
40902D6D0B911D3A6D3C3203520B8F6E4D6C8BEBCB6B1F04050390540501408000000000000084000000000000002102
  0
ACAD_PROXY_OBJECT
  5
10D
102
{ACAD_REACTORS
330
10C
102
}
330
10C
100
AcDbProxyObject
 90
      499
 91
      507
 93
       41
310
903313A31580
  0
ACAD_PROXY_OBJECT
  5
1BE
102
{ACAD_REACTORS
330
10C
102
}
330
10C
100
AcDbProxyObject
 90
      499
 91
      507
 93
      105
310
903313A324000000000000004000
  0
ACAD_PROXY_OBJECT
  5
1BF
102
{ACAD_REACTORS
330
10C
102
}
330
10C
100
AcDbProxyObject
 90
      499
 91
      507
 93
      105
310
903313A344000000000000104000
  0
ACAD_PROXY_OBJECT
  5
1C0
102
{ACAD_REACTORS
330
10C
102
}
330
10C
100
AcDbProxyObject
 90
      499
 91
      507
 93
      105
310
903313A354000000000000144000
  0
ACAD_PROXY_OBJECT
  5
1C1
102
{ACAD_REACTORS
330
10C
102
}
330
10C
100
AcDbProxyObject
 90
      499
 91
      507
 93
      105
310
903313A384000000000000204000
  0
ACAD_PROXY_OBJECT
  5
1C2
102
{ACAD_REACTORS
330
10C
102
}
330
10C
100
AcDbProxyObject
 90
      499
 91
      507
 93
      113
310
904313A31304000000000000244000
  0
ACAD_PROXY_OBJECT
  5
1C3
102
{ACAD_REACTORS
330
10C
102
}
330
10C
100
AcDbProxyObject
 90
      499
 91
      507
 93
      113
310
904313A31364000000000000304000
  0
ACAD_PROXY_OBJECT
  5
1C4
102
{ACAD_REACTORS
330
10C
102
}
330
10C
100
AcDbProxyObject
 90
      499
 91
      507
 93
      113
310
904313A32304000000000000344000
  0
ACAD_PROXY_OBJECT
  5
1C5
102
{ACAD_REACTORS
330
10C
102
}
330
10C
100
AcDbProxyObject
 90
      499
 91
      507
 93
      113
310
904313A333040000000000003E4000
  0
ACAD_PROXY_OBJECT
  5
1C6
102
{ACAD_REACTORS
330
10C
102
}
330
10C
100
AcDbProxyObject
 90
      499
 91
      507
 93
      113
310
904313A34304000000000000444000
  0
ACAD_PROXY_OBJECT
  5
1C7
102
{ACAD_REACTORS
330
10C
102
}
330
10C
100
AcDbProxyObject
 90
      499
 91
      507
 93
      113
310
904313A35304000000000000494000
  0
ACAD_PROXY_OBJECT
  5
1C8
102
{ACAD_REACTORS
330
10C
102
}
330
10C
100
AcDbProxyObject
 90
      499
 91
      507
 93
      121
310
905313A3130304000000000000594000
  0
ACAD_PROXY_OBJECT
  5
1C9
102
{ACAD_REACTORS
330
10C
102
}
330
10C
100
AcDbProxyObject
 90
      499
 91
      507
 93
      105
310
903323A310000000000000010100
  0
ACAD_PROXY_OBJECT
  5
1CA
102
{ACAD_REACTORS
330
10C
102
}
330
10C
100
AcDbProxyObject
 90
      499
 91
      507
 93
      105
310
903343A310000000000000410100
  0
ACAD_PROXY_OBJECT
  5
1CB
102
{ACAD_REACTORS
330
10C
102
}
330
10C
100
AcDbProxyObject
 90
      499
 91
      507
 93
      105
310
903383A310000000000000810100
  0
ACAD_PROXY_OBJECT
  5
1CC
102
{ACAD_REACTORS
330
10C
102
}
330
10C
100
AcDbProxyObject
 90
      499
 91
      507
 93
      113
310
90431303A310000000000000910100
  0
ACAD_PROXY_OBJECT
  5
1CD
102
{ACAD_REACTORS
330
10C
102
}
330
10C
100
AcDbProxyObject
 90
      499
 91
      507
 93
      121
310
9053130303A310000000000001650100
  0
ACAD_PROXY_OBJECT
  5
21A
102
{ACAD_REACTORS
330
219
102
}
330
219
100
AcDbProxyObject
 90
      499
 91
      515
 93
     2015
310
9084D657472696335304B360000000000000A2060000000000000A202209258409E5840A25840A65840B05840B40000000000001220233A65800000000000028800000000000000A2060000000000000A2040000000000001720202AC929E2E20B1AB30B9102B34B2BBA9B2B1BA34B7B729BA30B93A24B21F1296929E2E20B
310
1AB30B9102B34B2BBA9B2B1BA34B7B722B73224B21F129014129E2E20B1AB30B9102B34B2BBA9B1B0B632902E33101112B9B7111F1294E0080A0C829CA6926662C400000000000002204000000000000022020D0305A88A9F643F27E32B9969C2960E81F87FA0718D4DE3E87E32B9969C2960E85F9E5129FC49EA5FA7E
340
11
340
0
340
0
340
16
340
16
340
11
 94
        0
  0
ACAD_PROXY_OBJECT
  5
F5
102
{ACAD_REACTORS
330
EF
102
}
330
EF
100
AcDbProxyObject
 90
      499
 91
      506
 93
      444
310
42CC9915DA5C99599C985B59504902404333333333333E33F0000000000000F90107901411070040501600405405064090741402480A0340
1001
ACAD
1000
AcDbSavedByObjectVersion
1070
     0
  0
ACAD_PROXY_OBJECT
  5
F4
102
{ACAD_REACTORS
330
EF
102
}
330
EF
100
AcDbProxyObject
 90
      499
 91
      506
 93
      388
310
4150985CDA58D07406404333333333333E33F0000000000000F90107A41107004050150841D405064090741402480A0350
1001
ACAD
1000
AcDbSavedByObjectVersion
1070
     0
  0
ACAD_PROXY_OBJECT
  5
FB
102
{ACAD_REACTORS
330
EF
102
}
330
EF
100
AcDbProxyObject
 90
      499
 91
      506
 93
      436
310
42109C9A59DA1D195B90C40902404333333333333E33F0000000000000F9010790141107004050150841D405064090741402480A029950
1001
ACAD
1000
AcDbSavedByObjectVersion
1070
     0
  0
ACAD_PROXY_OBJECT
  5
FF
102
{ACAD_REACTORS
330
EF
102
}
330
EF
100
AcDbProxyObject
 90
      499
 91
      506
 93
      452
310
42D0DBDB1BDC90DA185B99D95104090240C333333333333E33F0000000000000F90108901411070040501508421405064090741402480A0350
1001
ACAD
1000
AcDbSavedByObjectVersion
1070
     0
  0
ACAD_PROXY_OBJECT
  5
F8
102
{ACAD_REACTORS
330
EF
102
}
330
EF
100
AcDbProxyObject
 90
      499
 91
      506
 93
      508
310
4290DBDB98D95C1D1D585B10940D02404333333333333E33F0000000000000F90107902409070040501000000000000111010841D405064090740C02480A0340
1001
ACAD
1000
AcDbSavedByObjectVersion
1070
     0
  0
ACAD_PROXY_OBJECT
  5
FA
102
{ACAD_REACTORS
330
EF
102
}
330
EF
100
AcDbProxyObject
 90
      499
 91
      506
 93
      420
310
40D11A5B50B40902404333333333333E33F0000000000000F9010790141107004050150841D405064090741402480A02677FFFFFD0
1001
ACAD
1000
AcDbSavedByObjectVersion
1070
     0
  0
ACAD_PROXY_OBJECT
  5
1E6
102
{ACAD_REACTORS
330
EF
102
}
330
EF
100
AcDbProxyObject
 90
      499
 91
      506
 93
      452
310
43115919D950DBDB1BDC93D999916409028333333333333E33F0000000000000F9010790141107004050150841D405064090741402480A0350
1001
ACAD
1000
AcDbSavedByObjectVersion
1070
     0
  0
ACAD_PROXY_OBJECT
  5
FE
102
{ACAD_REACTORS
330
EF
102
}
330
EF
100
AcDbProxyObject
 90
      499
 91
      506
 93
      452
310
42D19858D95C185D1D195C9B90F40902404333333333333E33F0000000000000F9010790141107004050150841D405064090741402480A0350
1001
ACAD
1000
AcDbSavedByObjectVersion
1070
     0
  0
ACAD_PROXY_OBJECT
  5
F0
102
{ACAD_REACTORS
330
EF
102
}
330
EF
100
AcDbProxyObject
 90
      499
 91
      506
 93
      380
310
41119B185D240901404333333333333E33F0000000000000F9010740A907004050150841D405064090741402480A1B50
1001
ACAD
1000
AcDbSavedByObjectVersion
1070
     0
  0
ACAD_PROXY_OBJECT
  5
F1
102
{ACAD_REACTORS
330
EF
102
}
330
EF
100
AcDbProxyObject
 90
      499
 91
      506
 93
      468
310
43519B185D15DA5D1A115919D95CD0140901404333333333333E33F0000000000000F90107409019070040501600405405064090741402480A1B50
1001
ACAD
1000
AcDbSavedByObjectVersion
1070
     0
  0
ACAD_PROXY_OBJECT
  5
F2
102
{ACAD_REACTORS
330
EF
102
}
330
EF
100
AcDbProxyObject
 90
      499
 91
      506
 93
      404
310
41D1DBDD5C985D5910240902404333333333333E33F0000000000000F9010740A9070040501641D405064090741402480A1B50
1001
ACAD
1000
AcDbSavedByObjectVersion
1070
     0
  0
ACAD_PROXY_OBJECT
  5
F3
102
{ACAD_REACTORS
330
EF
102
}
330
EF
100
AcDbProxyObject
 90
      499
 91
      506
 93
      492
310
4411DBDD5C985D5915DA5D1A115919D95CD0340902404333333333333E33F0000000000000F90107409019070040501600405405064090741402480A1B50
1001
ACAD
1000
AcDbSavedByObjectVersion
1070
     0
  0
ACAD_PROXY_OBJECT
  5
F7
102
{ACAD_REACTORS
330
EF
102
}
330
EF
100
AcDbProxyObject
 90
      499
 91
      506
 93
      476
310
41921A5919195B90640502408333333333333E33F0000000000000F901079024090700405020000000000001110200405405064090740C02480A0340
1001
ACAD
1000
AcDbSavedByObjectVersion
1070
     0
  0
ACAD_PROXY_OBJECT
  5
1E4
102
{ACAD_REACTORS
330
EF
102
}
330
EF
100
AcDbProxyObject
 90
      499
 91
      506
 93
      428
310
42529A5D1D195C93D999914409028333333333333E33F0000000000000F9010790141107004050150A41D405064090741402480A0350
1001
ACAD
1000
AcDbSavedByObjectVersion
1070
     0
  0
ACAD_PROXY_OBJECT
  5
FD
102
{ACAD_REACTORS
330
EF
102
}
330
EF
100
AcDbProxyObject
 90
      499
 91
      506
 93
      452
310
42D31A5B995C185D1D195C9B90E40902404333333333333E33F0000000000000F9010790141107004050750841D405064090741402483A0350
1001
ACAD
1000
AcDbSavedByObjectVersion
1070
     0
  0
ACAD_PROXY_OBJECT
  5
1E5
102
{ACAD_REACTORS
330
EF
102
}
330
EF
100
AcDbProxyObject
 90
      499
 91
      506
 93
      444
310
42D3DD995C9A185B99D3D999915409028333333333333E33F0000000000000F9010790141107004050150941D405064090741402480A0350
1001
ACAD
1000
AcDbSavedByObjectVersion
1070
     0
  0
ACAD_PROXY_OBJECT
  5
F9
102
{ACAD_REACTORS
330
EF
102
}
330
EF
100
AcDbProxyObject
 90
      499
 91
      506
 93
      428
310
425499585B1A5CDD1A58D08409038333333333333E33F0000000000000F9010740A907004050150800405405064090740C02480A1B40
1001
ACAD
1000
AcDbSavedByObjectVersion
1070
     0
  0
ACAD_PROXY_OBJECT
  5
1F3
102
{ACAD_REACTORS
330
EF
102
}
330
EF
100
AcDbProxyObject
 90
      499
 91
      506
 93
      420
310
4194DA1859195911B40902404333333333333E33F0000000000000F9010740A41107004050150800405405064090840C02480A0B40
1001
ACAD
1000
AcDbSavedByObjectVersion
1070
     0
  0
ACAD_PROXY_OBJECT
  5
1F2
102
{ACAD_REACTORS
330
EF
102
}
330
EF
100
AcDbProxyObject
 90
      499
 91
      506
 93
      516
310
4454DA18591959081DDA5D1A08195919D95CD1A40902404333333333333E33F0000000000000F901074090140907004050250800405405064090740C02480A0B40
1001
ACAD
1000
AcDbSavedByObjectVersion
1070
     0
  0
ACAD_PROXY_OBJECT
  5
1EF
102
{ACAD_REACTORS
330
EF
102
}
330
EF
100
AcDbProxyObject
 90
      499
 91
      506
 93
      532
310
4394DA1859195CC81BD98811DC985E5174090240C333333333333E33F0000000000000F901079024090741D01000000000000111010841D405064090740C02480A0340
1001
ACAD
1000
AcDbSavedByObjectVersion
1070
     0
  0
ACAD_PROXY_OBJECT
  5
1F0
102
{ACAD_REACTORS
330
EF
102
}
330
EF
100
AcDbProxyObject
 90
      499
 91
      506
 93
      476
310
41D4DAD95D18DA1E51840502408333333333333E33F0000000000000F901079024090741D01000000000000111010B41D405064090741802480A0340
1001
ACAD
1000
AcDbSavedByObjectVersion
1070
     0
  0
ACAD_PROXY_OBJECT
  5
FC
102
{ACAD_REACTORS
330
EF
102
}
330
EF
100
AcDbProxyObject
 90
      499
 91
      506
 93
      420
310
41D51A1A58DAD95B90D40902404333333333333E33F0000000000000F9010790141107004050150C41D405064090741402480A0350
1001
ACAD
1000
AcDbSavedByObjectVersion
1070
     0
  0
ACAD_PROXY_OBJECT
  5
F6
102
{ACAD_REACTORS
330
EF
102
}
330
EF
100
AcDbProxyObject
 90
      499
 91
      506
 93
      420
310
4255DA5C99599C985B595059028333333333333E33F0000000000000F90107901411070040501600405405064090740C02480A0340
1001
ACAD
1000
AcDbSavedByObjectVersion
1070
     0
  0
ACAD_PROXY_OBJECT
  5
1F1
102
{ACAD_REACTORS
330
EF
102
}
330
EF
100
AcDbProxyObject
 90
      499
 91
      506
 93
      404
310
41560B54985E51940902404000000000000E03F0000000000000F9010740501907004050150841D405064090740C02480A1B40
1001
ACAD
1000
AcDbSavedByObjectVersion
1070
     0
  0
XRECORD
  5
B7F
102
{ACAD_REACTORS
330
B75
102
}
330
B75
100
AcDbXrecord
340
0
  0
XRECORD
  5
B7E
102
{ACAD_REACTORS
330
B75
102
}
330
B75
100
AcDbXrecord
 90
        0
  0
XRECORD
  5
B98
102
{ACAD_REACTORS
330
B75
102
}
330
B75
100
AcDbXrecord
340
6B
  0
XRECORD
  5
B95
102
{ACAD_REACTORS
330
B75
102
}
330
B75
100
AcDbXrecord
1000
DSTYLE
1002
{
1070
   340
340
11
1002
}
  0
XRECORD
  5
B80
102
{ACAD_REACTORS
330
B75
102
}
330
B75
100
AcDbXrecord
  1
{98032859-CDE6-2B48-B5C5-C750E6016F1C}
  0
XRECORD
  5
B78
102
{ACAD_REACTORS
330
B75
102
}
330
B75
100
AcDbXrecord
  1

  0
XRECORD
  5
B7D
102
{ACAD_REACTORS
330
B75
102
}
330
B75
100
AcDbXrecord
 90
        4
  0
XRECORD
  5
B7A
102
{ACAD_REACTORS
330
B75
102
}
330
B75
100
AcDbXrecord
340
1A
  0
XRECORD
  5
B7C
102
{ACAD_REACTORS
330
B75
102
}
330
B75
100
AcDbXrecord
 90
    10781
  0
XRECORD
  5
B99
102
{ACAD_REACTORS
330
B75
102
}
330
B75
100
AcDbXrecord
340
6A
  0
XRECORD
  5
B7B
102
{ACAD_REACTORS
330
B75
102
}
330
B75
100
AcDbXrecord
340
19
  0
XRECORD
  5
B82
102
{ACAD_REACTORS
330
B75
102
}
330
B75
100
AcDbXrecord
 40
0.0
  0
XRECORD
  5
B85
102
{ACAD_REACTORS
330
B75
102
}
330
B75
100
AcDbXrecord
340
0
  0
XRECORD
  5
B8B
102
{ACAD_REACTORS
330
B75
102
}
330
B75
100
AcDbXrecord
 10
0.0
 20
0.0
 30
0.0
  0
XRECORD
  5
B87
102
{ACAD_REACTORS
330
B75
102
}
330
B75
100
AcDbXrecord
 10
0.0
 20
0.0
 30
0.0
  0
XRECORD
  5
B8A
102
{ACAD_REACTORS
330
B75
102
}
330
B75
100
AcDbXrecord
 10
0.0
 20
0.0
 30
0.0
  0
XRECORD
  5
B88
102
{ACAD_REACTORS
330
B75
102
}
330
B75
100
AcDbXrecord
 10
0.0
 20
0.0
 30
0.0
  0
XRECORD
  5
B89
102
{ACAD_REACTORS
330
B75
102
}
330
B75
100
AcDbXrecord
 10
0.0
 20
0.0
 30
0.0
  0
XRECORD
  5
B86
102
{ACAD_REACTORS
330
B75
102
}
330
B75
100
AcDbXrecord
 10
0.0
 20
0.0
 30
0.0
  0
XRECORD
  5
B83
102
{ACAD_REACTORS
330
B75
102
}
330
B75
100
AcDbXrecord
340
0
  0
XRECORD
  5
B84
102
{ACAD_REACTORS
330
B75
102
}
330
B75
100
AcDbXrecord
 70
     0
  0
XRECORD
  5
B79
102
{ACAD_REACTORS
330
B75
102
}
330
B75
100
AcDbXrecord
  1

  0
XRECORD
  5
B76
102
{ACAD_REACTORS
330
B75
102
}
330
B75
100
AcDbXrecord
 90
        1
  0
XRECORD
  5
B77
102
{ACAD_REACTORS
330
B75
102
}
330
B75
100
AcDbXrecord
 90
       70
  0
XRECORD
  5
B8E
102
{ACAD_REACTORS
330
B75
102
}
330
B75
100
AcDbXrecord
340
0
  0
XRECORD
  5
B94
102
{ACAD_REACTORS
330
B75
102
}
330
B75
100
AcDbXrecord
 10
0.0
 20
0.0
 30
0.0
  0
XRECORD
  5
B90
102
{ACAD_REACTORS
330
B75
102
}
330
B75
100
AcDbXrecord
 10
0.0
 20
0.0
 30
0.0
  0
XRECORD
  5
B93
102
{ACAD_REACTORS
330
B75
102
}
330
B75
100
AcDbXrecord
 10
0.0
 20
0.0
 30
0.0
  0
XRECORD
  5
B91
102
{ACAD_REACTORS
330
B75
102
}
330
B75
100
AcDbXrecord
 10
0.0
 20
0.0
 30
0.0
  0
XRECORD
  5
B92
102
{ACAD_REACTORS
330
B75
102
}
330
B75
100
AcDbXrecord
 10
0.0
 20
0.0
 30
0.0
  0
XRECORD
  5
B8F
102
{ACAD_REACTORS
330
B75
102
}
330
B75
100
AcDbXrecord
 10
0.0
 20
0.0
 30
0.0
  0
XRECORD
  5
B8C
102
{ACAD_REACTORS
330
B75
102
}
330
B75
100
AcDbXrecord
340
0
  0
XRECORD
  5
B8D
102
{ACAD_REACTORS
330
B75
102
}
330
B75
100
AcDbXrecord
 70
     0
  0
XRECORD
  5
B81
102
{ACAD_REACTORS
330
B75
102
}
330
B75
100
AcDbXrecord
  1
{08B78F9F-5FC8-024A-B5DC-52797A03ACE9}
  0
DICTIONARYVAR
  5
146
102
{ACAD_REACTORS
330
5E
102
}
330
5E
100
DictionaryVariables
280
     0
  1
1:1
  0
DICTIONARYVAR
  5
259
102
{ACAD_REACTORS
330
5E
102
}
330
5E
100
DictionaryVariables
280
     0
  1
3.500000
  0
DICTIONARYVAR
  5
25A
102
{ACAD_REACTORS
330
5E
102
}
330
5E
100
DictionaryVariables
280
     0
  1
acadiso.lin
  0
DICTIONARYVAR
  5
145
102
{ACAD_REACTORS
330
5E
102
}
330
5E
100
DictionaryVariables
280
     0
  1
Standard
  0
DICTIONARYVAR
  5
84
102
{ACAD_REACTORS
330
5E
102
}
330
5E
100
DictionaryVariables
280
     0
  1
Standard
  0
DICTIONARYVAR
  5
227
102
{ACAD_REACTORS
330
5E
102
}
330
5E
100
DictionaryVariables
280
     0
  1
Metric50
  0
DICTIONARYVAR
  5
228
102
{ACAD_REACTORS
330
5E
102
}
330
5E
100
DictionaryVariables
280
     0
  1
Metric50
  0
DICTIONARYVAR
  5
5F
102
{ACAD_REACTORS
330
5E
102
}
330
5E
100
DictionaryVariables
280
     0
  1
2
  0
DICTIONARYVAR
  5
63
102
{ACAD_REACTORS
330
5E
102
}
330
5E
100
DictionaryVariables
280
     0
  1
1
  0
DICTIONARYVAR
  5
1AE
102
{ACAD_REACTORS
330
5E
102
}
330
5E
100
DictionaryVariables
280
     0
  1
0
  0
DICTIONARYVAR
  5
1AF
102
{ACAD_REACTORS
330
5E
102
}
330
5E
100
DictionaryVariables
280
     0
  1
0
  0
DICTIONARYVAR
  5
BB3
102
{ACAD_REACTORS
330
5E
102
}
330
5E
100
DictionaryVariables
280
     0
  1
1
  0
DICTIONARYVAR
  5
B97
102
{ACAD_REACTORS
330
5E
102
}
330
5E
100
DictionaryVariables
280
     0
  1
80.000000
  0
DICTIONARYVAR
  5
B96
102
{ACAD_REACTORS
330
5E
102
}
330
5E
100
DictionaryVariables
280
     0
  1
5.000000
  0
ACAD_PROXY_OBJECT
  5
44A
102
{ACAD_REACTORS
330
449
102
}
330
449
100
AcDbProxyObject
 90
      499
 91
      529
 93
       68
310
40A40AAAA47109FFC0
330
378
360
0
360
3E5
360
3FA
360
3FB
360
496
360
4F9
360
554
360
5C1
360
65E
360
665
 94
        0
1001
ACAD
1000
AcadProxyRoundTripData
1071
      524
1071
 11403297
1070
     0
  0
ACAD_PROXY_OBJECT
  5
AF0
102
{ACAD_REACTORS
330
AEF
102
}
330
AEF
100
AcDbProxyObject
 90
      499
 91
      529
 93
       62
310
40A41AAAA43D03F0
330
378
360
0
360
AE0
360
AED
360
AEE
 94
        0
1001
ACAD
1000
AcadProxyRoundTripData
1071
      524
1071
 11403297
1070
     0
  0
DICTIONARY
  5
1F9
330
ED
100
AcDbDictionary
280
     1
  3
ACAD_XREC_ROUNDTRIP
360
BB4
  3
FBXASSET
360
1FA
  0
DICTIONARY
  5
1F7
330
EC
100
AcDbDictionary
280
     1
  3
ACAD_XREC_ROUNDTRIP
360
BB5
  3
FBXASSET
360
1F8
  0
DICTIONARY
  5
173
330
EE
100
AcDbDictionary
280
     1
  3
ACAD_XREC_ROUNDTRIP
360
BB6
  3
FBXASSET
360
1FB
  0
ACAD_PROXY_OBJECT
  5
3E5
330
44A
100
AcDbProxyObject
 90
      499
 91
      529
 93
    26617
310
40A40944AA9021796C1F63A66F48802D38DA9D3F104A204D4C900240200014435852028690243881A1E409102068890444882A28405152048B10345C8123040D192088D10546C8227C40544204A29035188128E40D4820CA4907528842964094C206A690253881A9E40950212A890A54885AA642D54216AA90B558812AE40D
310
58218AC90256881AB64315C21AAE9015D8812EE40D78204BC9035E8822F64197C202C910264C81B2840995206CB10265C81B3043199204CD10366C863384359D20CCF1086B48135C40DAF204D81036C481364425B3214DA10171C8139040DC9204E510372C83398405CD204E710373C813A040DD120AE910174C813A840DD5
310
204EB10375C82BB0405D9204ED10376C813B840DDD20CEF10177C813C040DE1204F110378C833C8435E8210F49027A881BD6409EC206F69027B884BDE429F0208FD1017EC813F840DFD204FF1037FC8300002000042C010100002160100800010B00C04000080808020000408050100002060300800010201C040000818100
310
20000434090100002020500800010202C040000818180200004080D0100002060700800010D03C0400008282002000042C110100002160900800021A8321E88A28A52B6AE00C70242FFD8CE1B420045AFEF46CE4F258134349DF15F546168B0022D7F7A3672792C08280F7AEEC671A2C008B5FDE8D9C9E4B024390243D5501
310
800FFFFFFFF4350F4090E43402D104091155006013FFFFFFFD0D445024410D00B44A00AA69144050D00944915419174651B5295856406381217FEC670DA10022D7F7A367C391C09A1A4EF8AFAA30B4580116BFBD1B3E1C8E041407BD776338D160045AFEF46CF87238122C8122EAB00C007FFFFFFFA2A8BA048B22A0168C20
310
48CAA603009FFFFFFFE8AA32812308A805A3500508067460400007281348DA028A804A349F40155328881A8CA4292031A4EF8AFAA30B4580116BFBD1B3E1C8E050000000000001E17F0D277C57D5185A2C008B5FDE8D9F0E4702349DF15F546168B0022D7F7A3672792C09454094655806003FFFFFFFD44519025154400B51
310
D025215501804FFFFFFFF511484094751002D49405440094F94A409154340254B4114D53D515480612BD6860562AE870022D7F7A367F591C0A96800000000000059408182D4454FB2119408280F7AEEC671A2C008B5FDE8D9F0E47020A03DEBBB19C68B0022D7F7A3672792C094C4094D54C06003FFFFFFFD4B535025314B0
310
0B5390253D5401804FFFFFFFF52D4F4094E52C02D50405510180CFFFFFFFF52D514095052C02D524054B0090054D024614C00955102539100095550251D0E009559025151600955D035615957406023FFFFFFFD155610255D1500B5650255D1500B5690356D5C57406023FFFFFFFD0D56D025690D00B571025690D00B57502
310
55D5A009019976415785E97C66D9C018FB3B78B018FDA2C01C344EAFE192161028000000000000F0BF87D9DBC580C7ED160166F5E8CFCB3725811F676F16031FB45802C8DA6044CE649604BBA02BC00C007FFFFFFFAECBC204BBAEC016BCA04BD00402000003009FFFFFFFEBB2F4812F2BB005AF700400006C1F6D6BBA1F90
310
185E0894C0670814CBE202BB004AF6C920ACA32CCC332CF00C7D9DBC580C6AD1600A2199F9BE894B0814000000000000785FC3ECEDE2C063568B0004370B87BE9B92C08FB3B78B018D5A2C0010C17D7633024B0264D0165006003FFFFFFFD926510264D9200B655026580101000001804FFFFFFFF649964099564802D9740D
310
986659D01808FFFFFFFF649984099764802D994099764802D9A40D9B6719D01808FFFFFFFF5D99B4099A5D802D9C4099A5D802D9D4099766802405A679016480253E6B5046BDB16CDB4018566E4A2076CBA2C028C3821E055425302A5A00000000000016502060B51153EC8465023ECEDE2C063568B0004305F5D8CC092C08
310
FB3B78B018FDA2C01646D302267324B026B9026BC0101000001800FFFFFFFF6B5AF409AE6B402DB0409B100C04000006013FFFFFFFDAD6C5026C1AD00B6C9016CC06033FFFFFFFDAD6CD026C9AD00B6D1016B402401C740DC972DCC018E20BDA53CFE9A2C027A2E1FB31ADE47028000000000000F0BF87105ED29E7F4D1601
310
3D170FD98D6F23811C417B4A79FD3458053F534D96EF4C9604E4202E480C007FFFFFFFB8EE4A04E438E016E5202E580C027FFFFFFFB8EE5A04E538E016E6202E3804A7CE6A06E7BA2E900C6877C64B66FED160045AFEF46CE4F258134343BE325B37F68B0022D7F7A3672792C08D0EF8C96CDD5A2C008B5FDE8D9C9E4B0273
310
90173C06003FFFFFFFDCD73D02739CD00B7410174406013FFFFFFFDCD74502741CD00B749017340251274D03755D776006343BE325B37F68B0022D7F7A367C391C09A1A1DF192D9BFB4580116BFBD1B3E1C8E046877C64B66EAD160045AFEF46CF8723813A880BAA03001FFFFFFFEE9BAA813A8E9805BAC80BAE03009FFFFF
310
FFEE9BAE813ACE9805BB080BA6012893B281BB6EEBBC031A1DF192D9BFB4580400502FFB1482FA0530D0EF8C96CDFDA2C008B5FDE8D9C9E4B02343BE325B37F68B0022D7F7A367C391C09DA405DB01800FFFFFFFF765DB409DA76402DDC409DD7A006013FFFFFFFDD977502771D900B779017640253E77D03785E379006343
310
BE325B37568B0022D7F7A367C391C0A0000000000003C2FE1A1DF192D9BAB4580116BFBD1B3E1C8E046877C64B66EAD160045AFEF46CE4F25813C0813C2F400C007FFFFFFFBBEF0A04F03BE016F1202F180C027FFFFFFFBBEF1A04F13BE016F2202EF804A7CF4204EE3C001202000000000000785FD3D2823D6F6BDEF800C7
310
D9DBC580C65D160166F5E8CFCA9F298152D0000000000000B2810305A88A9F64232811F676F160313345802C8DA6044CE6496047D9DBC580C7ED1600B2369811339925813D4813D60880800000C007FFFFFFFBD2F5A04F53D2016F620AF6804020000018080000120200000900800000C027FFFFFFFBD2F6A04F63D2016F72
310
02F780C067FFFFFFFBD2F7A04F73D2016F8202F4804803F5004202DFA459E27222010185F5C600924F814CFDA06FEBFE0000800000C7D9DBC580C65D160163F9234F732125814000000000000785FC3ECEDE2C0632E8B00B1FC91A7B99092C08FB3B78B018CBA2C00AA189DE6CBC24B027F1017F406003FFFFFFFDFB7F5027
310
F1FB00B7F9017FC06013FFFFFFFDFB7FD027F9FB00B000040001017EC025FA004040001026B995009008040001027B17900900C040001026C1EC009010040001020180400000801000001800C9E76E583B61400EA5982DB826E4B02686877C64B66FED1600752CC16DC13725811A1DF192D9BAB45801D4B305B704DC960402
310
8080002040300800001202000003001FFFFFFFE0200800000C0200008100A0200000200800000580E0200008081002000003009FFFFFFFE020080000100200008100E020000020080000058120200008100A020000F600480CC050080002060600800001C0200000800800000C7D9DBC580C7ED1600B236981133992581343
310
ECEDE2C063F68B00591B4C0899CC92C08FB3B78B01899A2C01646D302267324B0202C040001030300400000F01000004804000006003FFFFFFFC0A0100000300400010202C0400000A01000000B034040001030380400000F01000004404000006013FFFFFFFC0A010000038040001020340400000A01000000B03C0400010
310
202C0400000D010000009010000000000003C2FE8100100004040A01000000944811010000409EA034040000024120100004080B0100007B0025184100630043006F006E00730074007200610069006E006500640042006F0075006E006400650064004C0069006E00650046904018C010C01BC01B801CC01D001C8018401A
310
401B801940190012401B401C001B001A4018C01A401D0014001BC01A401B801D001164100630050006F0069006E0074004300750072007600650043006F006E00730074007200610069006E00740045904018C010C01BC01B801CC01D001C8018401A401B8019401900110018401D001D401B4013001A401B8019401164100
310
630048006F00720069007A006F006E00740061006C0043006F006E00730074007200610069006E00740045104018C0158019401C801D001A4018C018401B0010C01BC01B801CC01D001C8018401A401B801D001174100630045007100750061006C004C0065006E0067007400680043006F006E00730074007200610069006
310
E00740044104018C010C01BC01B801CC01D001C8018401A401B801940190010401C8018C011741006300430065006E0074006500720050006F0069006E00740043006F006E00730074007200610069006E00740046904018C01480184019001A401D401CC011001A4018401B4019401D0019401C8010C01BC01B801CC01D00
310
1C8018401A401B801D0011C4100630050006F0069006E00740043006F0069006E0063006900640065006E006300650043006F006E00730074007200610069006E00740045104018C013401A40190014001BC01A401B801D0010C01BC01B801CC01D001C8018401A401B801D0011441006300440069007300740061006E0063
310
00650043006F006E00730074007200610069006E007400C21280
330
44A
360
0
360
0
360
3EA
360
54E
360
4FA
360
3E7
360
555
360
551
360
3F4
360
3EC
360
556
360
552
360
3EB
360
3EF
360
550
360
3F5
360
3E9
360
54F
360
4FB
360
3E6
360
49A
360
497
360
498
360
4FD
360
5C5
360
5C2
360
5C3
360
5E0
360
666
360
662
360
667
360
65F
360
660
360
669
330
3EA
330
0
330
0
330
0
330
3E7
330
0
330
0
330
0
330
0
330
3F4
330
0
330
0
330
3E9
330
0
330
0
330
0
340
3E6
340
3F5
330
0
330
0
340
3EC
340
3EF
330
3EB
330
0
330
0
330
0
330
49A
330
0
330
0
330
0
330
0
340
497
340
498
330
4FD
330
0
330
0
330
0
340
4FA
340
4FB
330
54E
330
0
330
0
330
54F
330
0
330
0
330
550
330
0
330
0
330
551
330
0
330
0
330
552
330
0
330
0
340
555
340
556
330
5C5
330
0
330
0
330
0
340
5C2
340
5C3
330
0
330
5E0
330
0
330
0
330
662
330
0
330
0
340
65F
340
660
330
669
330
0
330
0
340
666
340
667
 94
        0
1001
ACAD
1000
AcadProxyRoundTripData
1071
      518
1071
 11403297
1070
     0
  0
ACAD_PROXY_OBJECT
  5
3FA
102
{ACAD_REACTORS
330
3E6
102
}
330
44A
100
AcDbProxyObject
 90
      499
 91
      529
 93
      405
310
40A426AA90256964240D294E117CC8010331003000300043104018C01100188010C018401B0018C00E800C400B800C00240018
330
44A
360
0
 94
        0
1001
ACAD
1000
AcadProxyRoundTripData
1071
      523
1071
 11403297
1070
     0
  0
ACAD_PROXY_OBJECT
  5
3FB
102
{ACAD_REACTORS
330
3EC
102
}
330
44A
100
AcDbProxyObject
 90
      499
 91
      529
 93
      373
310
40A42AAA9025691924099000CC01023200350043104018C01100188010C018401B0018C00E800C400B800C0022001A
330
44A
360
0
 94
        0
1001
ACAD
1000
AcadProxyRoundTripData
1071
      523
1071
 11403297
1070
     0
  0
ACAD_PROXY_OBJECT
  5
496
102
{ACAD_REACTORS
330
497
102
}
330
44A
100
AcDbProxyObject
 90
      499
 91
      529
 93
      373
310
40A442AA9025691424099000C801023200300043104018C01100188010C018401B0018C00E800C400B800C0022001A
330
44A
360
0
 94
        0
1001
ACAD
1000
AcadProxyRoundTripData
1071
      523
1071
 11403297
1070
     0
  0
ACAD_PROXY_OBJECT
  5
4F9
102
{ACAD_REACTORS
330
4FA
102
}
330
44A
100
AcDbProxyObject
 90
      499
 91
      529
 93
      405
310
40A44EAA90256964240D294E117CC4010331003000300043104018C01100188010C018401B0018C00E800C400B800C00240018
330
44A
360
0
 94
        0
1001
ACAD
1000
AcadProxyRoundTripData
1071
      523
1071
 11403297
1070
     0
  0
ACAD_PROXY_OBJECT
  5
554
102
{ACAD_REACTORS
330
555
102
}
330
44A
100
AcDbProxyObject
 90
      499
 91
      529
 93
      373
310
40A45EAA9025691424099000C401023200300043104018C01100188010C018401B0018C00E800C400B800C0022001A
330
44A
360
0
 94
        0
1001
ACAD
1000
AcadProxyRoundTripData
1071
      523
1071
 11403297
1070
     0
  0
ACAD_PROXY_OBJECT
  5
5C1
102
{ACAD_REACTORS
330
5C2
102
}
330
44A
100
AcDbProxyObject
 90
      499
 91
      529
 93
      405
310
40A462AA90256964240D294E117CCC010331003000300043104018C01100188010C018401B0018C00E800C400B800C00240018
330
44A
360
0
 94
        0
1001
ACAD
1000
AcadProxyRoundTripData
1071
      523
1071
 11403297
1070
     0
  0
ACAD_PROXY_OBJECT
  5
65E
102
{ACAD_REACTORS
330
65F
102
}
330
44A
100
AcDbProxyObject
 90
      499
 91
      529
 93
      477
310
40A46EAA9024A05C8FC2F5285C284024099000D00105310032002E003100380043104018C01100188010C018401B0018C00E800C400B800C00250018
330
44A
360
0
 94
        0
1001
ACAD
1000
AcadProxyRoundTripData
1071
      523
1071
 11403297
1070
     0
  0
ACAD_PROXY_OBJECT
  5
665
102
{ACAD_REACTORS
330
666
102
}
330
44A
100
AcDbProxyObject
 90
      499
 91
      529
 93
      373
310
40A472AA9025693224099000D401023500300043104018C01100188010C018401B0018C00E800C400B800C0022001A
330
44A
360
0
 94
        0
1001
ACAD
1000
AcadProxyRoundTripData
1071
      523
1071
 11403297
1070
     0
  0
ACAD_PROXY_OBJECT
  5
AE0
330
AF0
100
AcDbProxyObject
 90
      499
 91
      529
 93
    11859
310
40A40925AA90254D4C8533F4429382028690243881A1E409102068890444882A28405152048B10345C8123040D192088D10546C8227C40544204A29035188128E40D4820CA4907528842AA42156204AB90356084AB24095A206AD909570852BA4116F202B81025C481AE440973206BA1055D480AEC40977206BC1025E481AF
310
44117B20CBE1015F4812FC40D7F204C01036048230441983210C21086148532041D914350643D114514A56D5C018B36D1980EDC56C401E02817FD8A417D026859B68CC076E2B6200F0140BFEC520BE8113931C22EDDD0DA803C8502FFB1482FA048720487AAA03001FFFFFFFE86A1E8121C86805A2080A2203009FFFFFFFE8
310
6A228122086805A250055348A20286804A248AA0C8BA328DA94AC2B203166DA3301DB8AD8801E42C13F98F431204D0B36D1980EDC56C400F21609FCC7A1890227263845DBBA1B5003C85827F31E862409164091755806003FFFFFFFD1545D024591500B4610146406013FFFFFFFD15465024611500B46A00A100CE8C080000
310
E502691B405150094693E802AA65110351948524062CDB46603B715B1003C85827F31E86240A0000000000003C2FE166DA3301DB8AD8801E42C13F98F43120459B68CC076E2B6200F0140BFEC520BE8128A8128CAB00C007FFFFFFFA88A3204A2A88016A3A04A42AA03009FFFFFFFEA22908128EA2005A9280A880129F2948
310
122A86804AAA8128E87004AAC8128A8B004AAE81AB0ACABA03011FFFFFFFE8AAB0812AE8A805AB2812AE8A805AB481AB6AE2BA03011FFFFFFFE86AB6812B486805AB8812B486805ABA812AEAD00480CCB7C010017DA30B36D614807079426328121CA04D2E081AE4BA2EA0300193CEDCB076C280080CBCEC68A42C204D000C
310
9E76E583B614004065E76345216102003279DB961ED9D00101979D8D14858409714097261006003FFFFFFFD705C9025C57000B5CD025D18501804FFFFFFFF5C174409735C002D75405700095BD76411785E97C64406003279DB960ED8500101979D8D1485840A0000000000003C2FE00193CEDCB076C280080CBCEC68A42C2
310
040064F3B72C1DB0A00A1D13617A3E8AA812EE81AF0C232003001FFFFFFFEBB2F0812EEBB005AF280AF403009FFFFFFFEBB2F4812F2BB005AF700400006C1F6D6BBA1F90185E0894C0670814CBE202BB004AF6BEA08BFB02C1B220300193CEDCB0F6CE80080CBCEC68A42C2050000000000001E17F000C9E76E587B6740040
310
65E76345216102003279DB961ED9D0050E89B0BD1F4554097E40D7F6159001800FFFFFFFF5F57F4097E5F402D804058101804FFFFFFFF5F581409805F402D828020031983335BFC2D00C06CE9A2AC863740A660D015F402582611025C577009615025CD7E009641025DD7E009010000000000003C2FE991409765F40251841
310
00630043006F006E00730074007200610069006E006500640042006F0075006E006400650064004C0069006E00650046904018C010C01BC01B801CC01D001C8018401A401B801940190012401B401C001B001A4018C01A401D0014001BC01A401B801D001164100630050006F0069006E00740043007500720076006500430
310
06F006E00730074007200610069006E00740045904018C010C01BC01B801CC01D001C8018401A401B8019401900110018401D001D401B4013001A401B8019401164100630048006F00720069007A006F006E00740061006C0043006F006E00730074007200610069006E00740045104018C0158019401C801D001A4018C018
310
401B0010C01BC01B801CC01D001C8018401A401B801D001174100630045007100750061006C004C0065006E0067007400680043006F006E00730074007200610069006E00740047104018C014001BC01A401B801D0010C01BC01A401B8018C01A40190019401B8018C0194010C01BC01B801CC01D001C8018401A401B801D0
310
0114410063004D006900640050006F0069006E00740043006F006E00730074007200610069006E00740045104018C011001A401CC01D0018401B8018C0194010C01BC01B801CC01D001C8018401A401B801D002503A3
330
AF0
360
0
360
0
360
AE8
360
AEC
360
AE9
360
AEA
360
AEB
360
AE1
360
AE5
360
AE6
360
AE3
360
AE7
330
AEB
330
0
330
0
330
0
330
AE8
330
0
330
0
330
0
330
0
330
AE9
330
0
330
0
330
0
330
0
340
AE5
340
AE3
330
0
330
AEA
330
0
330
0
330
AEC
330
0
330
0
330
0
330
AE7
330
0
330
0
330
0
340
AE6
340
AE1
 94
        0
1001
ACAD
1000
AcadProxyRoundTripData
1071
      518
1071
 11403297
1070
     0
  0
ACAD_PROXY_OBJECT
  5
AED
102
{ACAD_REACTORS
330
AE5
102
}
330
AF0
100
AcDbProxyObject
 90
      499
 91
      529
 93
      373
310
40A42AAA9025691924099000CC01023200350043104018C01100188010C018401B0018C00E800C400B800C0022001A
330
AF0
360
0
 94
        0
1001
ACAD
1000
AcadProxyRoundTripData
1071
      523
1071
 11403297
1070
     0
  0
ACAD_PROXY_OBJECT
  5
AEE
102
{ACAD_REACTORS
330
AE6
102
}
330
AF0
100
AcDbProxyObject
 90
      499
 91
      529
 93
      373
310
40A43EAA9025693224099000C401023500300043104018C01100188010C018401B0018C00E800C400B800C0022001A
330
AF0
360
0
 94
        0
1001
ACAD
1000
AcadProxyRoundTripData
1071
      523
1071
 11403297
1070
     0
  0
XRECORD
  5
BB4
102
{ACAD_REACTORS
330
1F9
102
}
330
1F9
100
AcDbXrecord
102
MATERIAL
148
0.0
149
0.0
149
0.0
 93
        0
 94
       63
282
     0
 72
     1
 77
     1
171
     1
175
     1
179
     1
273
     0
  0
XRECORD
  5
1FA
102
{ACAD_REACTORS
330
1F9
102
}
330
1F9
100
AcDbXrecord
 70
     1
 90
429727718
  1
D62C5603-E3A1-4AEA-B7FB-FE5D8D0755AF
310
504B03040A0000080000CC70623B3DEE336E79000000790000001B0000006175746F6465736B2D64657369676E2D7061636B6167652E786D6C3C3F786D6C2076657273696F6E3D22312E302220656E636F64696E673D227574662D3822203F3E3C666F726D6174733E3C666F726D61743E687474703A2F2F736368656D612E
310
6175746F6465736B2E636F6D2F64657369676E2D7061636B6167652F323030393C2F666F726D61743E3C2F666F726D6174733E504B0304140006080800CC70623BD486FD9CA0000000F4000000130000005B436F6E74656E745F54797065735D2E786D6C7D8EC10E82300C865F65E91D8A1E8C310C0EEA1BF002731658846E
310
D98AC1B77784ABF1D8FE5FBFBF75BBCE937A534CCEB38643598122B6FEE978D0B0485F9C41B54DDD7D022595594E1A469170414C76A4D9A4D207E29CF43ECE46F218070CC6BECC4078ACAA135ACF422C856C0E68EA1BF5669944DDD7BCDE7B1F8E415D77AECB980613C2E4AC91FC167A2B244592486606FC29C8FD7F045B9A
310
EF7053A7E60B504B0304140006080800CC70623B853B8169EB0000007C01000008000000636F72652E786D6C8D90416EC3201045AF62CDB6C206821CC7C244919D9CA01740401C94182C03558F5F9C3852BBEB6A467FFE9B197D7EFC9E1EC5975982F5AE035262288C535E5B377690E21535501C055FBC8FBF6C503839990E
310
5619041F179FE64D52DE45E362569DD7661365082642A11EB9E920A89B99642953CC8E702F67A9EE7234257977194EC9EAE275C4EABCCF5EAD5940D4AC6F0E35A568B8F43562CD7046CD199FD07E60174276A7BE677B5EADB0E0D14EEFFB6A31321A0D82627C4084204C3F096B71DD52F6819B16635EADF63F509AF53FA164
310
5DDCD1EDDD17164090FCC8732078B56691CB33A85CD7DCC40F504B0304140006080800CC70623B55019EA25F0000007C00000007000000636E782E786D6C4DCB3B0E80201045D1AD90E915ED2CF8AC45050C11660C8261F98AB1B07AC9C97D42D718D865D3E909258CFD00CCE24AC6E326A164D74DC0B4128928FF32603847
310
2BA13128B1252AC747C6BAB984FC68F0B87FE8960A5C09FE86CFB69FBA01504B0304140006080800CC70623BDBABAAF470010000D40300000C0000006662782F636F72652E786D6CC553D16E823014FD95A6AF4B694182CC941A83FA05FB810A9511A125A5257EFE2E82712ECEB8A7F100CD39F7F69E734AF9FADC366850B6
310
AF8DCE7018308C942E4C59EB2AC3DE1D498AD15A706B8CFB56869196ADCAF00863C12B6B7C374385D14E6907A836A59A41D9F7CA615434B0C8705F7CAA5606D23BA8E84F41278B93AC54100640439DE0BDB320004D43C63716C7C399D30917DCFBBA9CD9BA8469F5B156168B24CED3F7248AC8769F27244EB73B92EED8862C
310
B7F13E0C179B3C8F979C8ECD82BBBABDAA2BAC924E9558448CBD9330242CFA08E3154B5651FCC6D215639C8EE5774DBE2B5F6CF2B5768B68963BB5F5588420E442FC700B1139D4CB01F450C1E918227C2E09DF070D8140C84E1E9AAB8F1340832A9CB13130A5F1376A908D57309505ECF2A0DF179C4E9D30F5B239B87E3823
310
7A79C6F31DE1A8A5AEC08474B03C7837EAE4938639B44E5932B833D2C6B6B279CDC613877FA26EE21F4A2A4C63EC7F29A2F301D1F9F7A0E37D145F504B0304140006080800CC70623B9C113CC27E0000009D0000000B0000006662782F636E782E786D6C4DCCDF0A83201C86E15B91DFB94BFB330DD428C8FB886521330DA7
310
6397BF1A1DECE883878F57749FCDA1B7892F1BBC047A23808C7F84D9FA55424E0BE6803A256208E9EF06C84F9B91703228B1C690F78B66B34CD9A5439DF5CF0BFBF65E35BCA1B8D6A5C6F540381E886698B5741C695F9503EBA150A2F8958E3DC3EA0B504B0304140006080800CC70623B7DF2F77C2A010000120200003100
310
00006662782F41393633353835312D344632462D344230382D423046372D3739314545314133324237412F636F72652E786D6C8D51DB8EC22014FC15C2939B0D2DB4B45643319AE817EC0F6041255A68B86CFCFC856D4D76DF7CE190393373060EDB3DC707F856CE6B6B7A480A0C81328395DA5C7B18C3057510EC3873D686
310
3F34088C18550F330C39BB3A1BA7051AAC09CA84841A2BD5020AEF55806078A44B0FFD7053A328440C89E1EFC52486BBB8AA8214A99D789CF9E05200300FC927E4FB4D5B375D43103D5527440FB843077C5AA3F5861C8F645F5787F59E95B390B318B55CE45AA638FAA2957BD7248B390B7A7CC51F9C124149C82B8C378810
310
84AB2F42B7B8DD56F413775B8C5999E9FF4471926F8AA236A1AE96B8B3CC434E5839373893369E1FAF30EA395917409EB7F26AF8801C171837A4A6AC9C89E9F9C9B1A58BA30FD6A5EF5DDDCF894B9AD9B6A59C957943A9FCAE2FD5BC4DFE03504B0304140006080800CC70623BAD7543B64E01000033030000300000006662
310
782F41393633353835312D344632462D344230382D423046372D3739314545314133324237412F636E782E786D6CD593CD6EC32010845F0571AD6CE3D48AD20813A9873E410FBD12D82434182C7EAAE6EDBB2424CD25871E7B41D6EC30B3FA84F9E67BB2E40B4234DE8DB46F1925E094D7C6ED479AD3AE5951B2113C789FEE
310
6C943839C1488B4C05DF079FE72A69D8C96C13AAD6B8631503449F83828872B949AC57D26200B826A308D316B4064D6E46FCDA41C05550DC9E483A00797BFD207EFB092A45DE9514C1BBD22178396BD39D891265658C238DEA00936C654E5E433CB65A26D9F6EDB5EBC14EBF49A45CB856E66048291F6939A9A81BB5C89177
310
38143CA680F4AA299D66A042CEB3354A2684DC9D8D178FE0D9B8B41CAAD720F880EE7EF93C0C18769E099ECC04D5A102C8049A8A05632F4DDF376CF1DE0F6BB65C2F8627B65A33C6BB62177CEBBDAD973006829F89F22E814B54F4BC2BE347F8AA8F681390B50FA73F804400B5F542E796F19FF974E7F78DB802FE05E20750
310
4B0304140006080800CC70623BE75B7789680500003C100000340000006662782F41393633353835312D344632462D344230382D423046372D3739314545314133324237412F6F626A656374732E786D6CAD575B8F9B3818FD2B887D06C22499CB8AA1CA655245D5B455A356FB305264C061D8018C6C3393D95FBFC7600890
310
A4CD5EF210B0B1BFEBF98E3F7B1FF6596ABC522E1296DF9BAE3D320D9A872C4AF2F8DE2CE5CEBA358D0FBEC719939D65A691938CDE9B6ADAF4BD98B3B2D05311DD91329583D9D5FC0F438434A7A611A644887B5384CF34233629258BA878B12322891DEFF6B66BD70BFB62634E8AE781D082709A4B588AF91C528CDA28B73F
310
1C998EEF39EABBEFA97FBD6A7C7E9553F9D3D79FE442923C3C523610337627CB87ABE99D359D4CC6D6E4FACAB5E6ABF9D2726FC6A3C5F56271377BB88362213924694B38DD99FE47C48627A1E7D49F5A8BB5E1A74C0A599ED3B0F21F1E56366B89112D681E218F0915D0D6F17AD41FBA2A369DCF6335D62ABBD39779D5DDD1
310
11D4D8DE3CBB96B2E04FB8202E41051754A1AA8E8F76B4C6DFE810B580B1547F4B84911149794252234D024EF8BBE963A95AE27B3D310A9D5C215C7960FAEE415ED75694C6AFB17BCACA5D99A60A9AA65F217B0BFC53292ACB92BF283FAD0D3621576592CB5BED907C2FA8E9DF794E35E97BEA31BED21FEB401ABB94C44839
310
DCACBF0E1C5DA8DA5B2F4DFFD32AD86F543D9E565E7056502E157C00AD2671CD534549AB752FCA9CDA00677A313F04E51B22FF19E57B300579E3C97EB29F682D92935CEC18CF901B7B54FD8C51F362B56FC72FE0B3C1EAE335EDCCBF5AEC39ADB17DC238973F804BA5E6F6BFE7AF1FB32E523BE9F3BD571418E3631DCA4D48
310
5250CF639223210A9446CA30052EDF057BD35F8329C1ECD84552BF0DC8D18BE7BCE23BFE6BD960AB4A7DE79923A103BEBD80F911CBAA2C60DB19B01CF164A5583B772EE6D3FFA56666CBCDA74DC97724A48F9A58967497E489C4D979006FD7A05E227A1EBDD0F737C623387A9C844D3709995625106D157315F8B8392CD4E0
310
A0B9A720C4BE9829CEF37EA1E13111214D53925356365ADA634861B52519DD27A00AEB808EAF0628E6F435519D446F45CF2C9CF5214F0A15B2F6D06B79DA3EE3CBF7F56780D2F4E7EF73A0F5E5B02A38D07DC852C6B7C1FBB6664213E0C39E3EBA7FF4E1AD23EA2829407C85E586727488B751B2DB9502BC7B228A3FD68B6E
310
A65A22397E690AA8D158D7E404EC8CDA235CC3B7D1898680131CEC2CDF2638C65196279577750F15884AEE19F94199155B92B13297978469D4F8D358DF0AEF7631E28DC8F0D9F437D5D39A83B2231A1D52D543813A824EF8D44BCFF2FA6A31BD1E8DAD87F1CCB526B3879935BF59CDADD5C37479BB1CDD4CA7B3556B516589
310
EF352754B706114D9C885EC9131DE6EFEB43D99AFE2391C2F958179413D7CFEF6B1B6DB1E7600F00DE6E5C67454A339A4BA2E0FBA85ED26F045D454F463DBFCE484C2F90F2E5E3666003662ED8F755951A7D1BECD5B30B550B2785C8E7320B7292A4838DDA71BBC863ED7613CAF659337A3354231D4FF4A182A54904C2898C
310
98B28C4AD0CE056CCF332A80986E571EE9DBC305BB5FEB7E509220A58D25CF042D712A806AC0AD0C657FDEF80D2D9CEAA2EE4D1C76F60BFE74219A06527D6F82DF6412526107381E55E353090704D085B52408A8913C4ED159D79BDA71BB4BC506F4831350EB6F975CD22D69BF7AC49B91A2C0A9DDA3D5CA36AD20FC478E37
310
E61844E2352865EBCB61A275A65283CAAA9DD27703B4102F5AF51EF5F573B75CBB5AD38BC845F7A49F82A0966A49C2E3EA5EA0ECD326CD965F1DB402C6FA8B51A4658C5C5E2EC9E214602E55810345408596591009A82E7E7FFACA19EEA299B14A0081A705CB3296EBC14CDF658DCD336EA6D1136881AAEB87B81AB9EE53D5
310
F5EB8BC8362082DA24122F98680A4E7930C01A0079749CEA14382A0783E5EBA5A10F8C098456A03D6A4AEB6BB881E2513747552A5DB22C7EDAF83BD5528081A365F7FF06504B0304140006080000CC70623B000000000000000000000000350000006662782F41393633353835312D344632462D344230382D423046372D37
310
39314545314133324237412F76657274696365732E62696E504B0304140006080800CC70623BF270F1330600000004000000360000006662782F41393633353835312D344632462D344230382D423046372D3739314545314133324237412F747269616E676C65732E62696E636660600000504B0304140006080000CC7062
310
3B000000000000000000000000370000006662782F41393633353835312D344632462D344230382D423046372D3739314545314133324237412F617474726962757465732E62696E504B0304140006080800CC70623B08DA0BD19000000041010000360000006662782F41393633353835312D344632462D344230382D4230
310
46372D3739314545314133324237412F6469726563746F72792E786D6C858F410AC3201045AF22B36F53E9A60B35CBEEBAE80D244E44489C6234F4F835464A48035D0DF398FF9F8AF63D0E6CC63039F212F8F9020C7D47C6792B21C5FE7403D62A1188E2E60C98D7234A5830286103A55745067B9D86B8A3CF9C7F90C11DE6
310
07FB144396D7B6A82D282E9A152AD114D5EF2CB866EEE831B8EEA07A7BB5A8D7D61A2BAAEB7FD5F70921FF497D00504B0304140006080800CC70623BEDD1DC58FD000000A00100003B0000006662782F41393633353835312D344632462D344230382D423046372D3739314545314133324237412F7265736F75726365732F
310
636F72652E786D6C8D504B6E833010BD0A9A6D65B00922041947112427E8052C33A156828DFCA97AFC9A40A576D7CDCCE87D344F8F9FBFE667F689CE6B6B3A6039850C8DB2A336530731DC4903D95970676DF82583CCC8193B5861107C72362E3BA4AC096842428D1D7107A5F7182053CF7474E0D507CE32973124857FE48B
310
540F3961CEF244279DE03EB81420DB9EAC1384436FA353E879B1B182C7A8C75DA3C7F453DF353A1075D537A7BA6464B8F535A99AE14A9A2BBD90E350DD183B5CFABE3AF262350B1EF4FC9351399401471025A527C218A1E53BAB5A5AB765F5469B96525EACF23FA6B88CFF34456DC2A1DCE36E360F82A5202F42F062ED2BAD
310
579969AFDD8A6F504B010214000A0000080000CC70623B3DEE336E79000000790000001B00000000000000000000000000000000006175746F6465736B2D64657369676E2D7061636B6167652E786D6C504B01021400140006080800CC70623BD486FD9CA0000000F40000001300000000000000000000000000B20000005B
310
436F6E74656E745F54797065735D2E786D6C504B01021400140006080800CC70623B853B8169EB0000007C010000080000000000000000000000000083010000636F72652E786D6C504B01021400140006080800CC70623B55019EA25F0000007C000000070000000000000000000000000094020000636E782E786D6C504B
310
01021400140006080800CC70623BDBABAAF470010000D40300000C00000000000000000000000000180300006662782F636F72652E786D6C504B01021400140006080800CC70623B9C113CC27E0000009D0000000B00000000000000000000000000B20400006662782F636E782E786D6C504B01021400140006080800CC70
310
623B7DF2F77C2A010000120200003100000000000000000000000000590500006662782F41393633353835312D344632462D344230382D423046372D3739314545314133324237412F636F72652E786D6C504B01021400140006080800CC70623BAD7543B64E010000330300003000000000000000000000000000D2060000
310
6662782F41393633353835312D344632462D344230382D423046372D3739314545314133324237412F636E782E786D6C504B01021400140006080800CC70623BE75B7789680500003C10000034000000000000000000000000006E0800006662782F41393633353835312D344632462D344230382D423046372D3739314545
310
314133324237412F6F626A656374732E786D6C504B01021400140006080000CC70623B0000000000000000000000003500000000000000000000000000280E00006662782F41393633353835312D344632462D344230382D423046372D3739314545314133324237412F76657274696365732E62696E504B01021400140006
310
080800CC70623BF270F133060000000400000036000000000000000000000000007B0E00006662782F41393633353835312D344632462D344230382D423046372D3739314545314133324237412F747269616E676C65732E62696E504B01021400140006080000CC70623B0000000000000000000000003700000000000000
310
000000000000D50E00006662782F41393633353835312D344632462D344230382D423046372D3739314545314133324237412F617474726962757465732E62696E504B01021400140006080800CC70623B08DA0BD1900000004101000036000000000000000000000000002A0F00006662782F41393633353835312D344632
310
462D344230382D423046372D3739314545314133324237412F6469726563746F72792E786D6C504B01021400140006080800CC70623BEDD1DC58FD000000A00100003B000000000000000000000000000E1000006662782F41393633353835312D344632462D344230382D423046372D3739314545314133324237412F7265
310
736F75726365732F636F72652E786D6C504B0506000000000E000E0080040000641100000000
  0
XRECORD
  5
BB5
102
{ACAD_REACTORS
330
1F7
102
}
330
1F7
100
AcDbXrecord
102
MATERIAL
148
0.0
149
0.0
149
0.0
 93
        0
 94
       63
282
     0
 72
     1
 77
     1
171
     1
175
     1
179
     1
273
     0
  0
XRECORD
  5
1F8
102
{ACAD_REACTORS
330
1F7
102
}
330
1F7
100
AcDbXrecord
 70
     1
 90
429727718
  1
30362254-06B7-45E0-A893-8CFA70E3D6BC
310
504B03040A0000080000CC70623B3DEE336E79000000790000001B0000006175746F6465736B2D64657369676E2D7061636B6167652E786D6C3C3F786D6C2076657273696F6E3D22312E302220656E636F64696E673D227574662D3822203F3E3C666F726D6174733E3C666F726D61743E687474703A2F2F736368656D612E
310
6175746F6465736B2E636F6D2F64657369676E2D7061636B6167652F323030393C2F666F726D61743E3C2F666F726D6174733E504B0304140006080800CC70623BD486FD9CA0000000F4000000130000005B436F6E74656E745F54797065735D2E786D6C7D8EC10E82300C865F65E91D8A1E8C310C0EEA1BF002731658846E
310
D98AC1B77784ABF1D8FE5FBFBF75BBCE937A534CCEB38643598122B6FEE978D0B0485F9C41B54DDD7D022595594E1A469170414C76A4D9A4D207E29CF43ECE46F218070CC6BECC4078ACAA135ACF422C856C0E68EA1BF5669944DDD7BCDE7B1F8E415D77AECB980613C2E4AC91FC167A2B244592486606FC29C8FD7F045B9A
310
EF7053A7E60B504B0304140006080800CC70623B1EC5D7A3EB0000007C01000008000000636F72652E786D6C8D90416EC3201045AF82665B6103C6756C6122AB4D4ED00B204C5C94182C03558F5F9C3852BBEB6A467FFE9B197D71FC9E6FE8CBACC17AD7032D0820E3B41FAD9B7A48F1820F808E52ACDEC75F36404ECDA687
310
4D0629A6D5A76597B477D1B89855E747B38B2A041301E95B6E7A08FAD3CCAA50296647B8168BD2573599823EBB0CA76447F43862C7BCCF5EAC59410E4DDD9C7973C2755553CCCFA4C603E3040F1565ED3B1FDE4E432BCA0D9622DAF9795FAF464533826484B498524CD807E51D79ED187F21878E10516EF63F505AC67F42C9
310
BA58B1FDDD071640D2FCC87D2045B96591CB3DA85CB7DCE40F504B0304140006080800CC70623B55019EA25F0000007C00000007000000636E782E786D6C4DCB3B0E80201045D1AD90E915ED2CF8AC45050C11660C8261F98AB1B07AC9C97D42D718D865D3E909258CFD00CCE24AC6E326A164D74DC0B4128928FF32603847
310
2BA13128B1252AC747C6BAB984FC68F0B87FE8960A5C09FE86CFB69FBA01504B0304140006080800CC70623B8C9102E971010000D40300000C0000006662782F636F72652E786D6CC5535B6E833010BC8AE5DF0A6C08340F1947A84D4ED00B38C6A128602363A31CBFCB234A53A551FA553EC09AD9F5CE8C31DB9E9B1AF5CA
310
7695D1198E428A91D2D214952E33ECDD315861B4E5CC1AE3BE9561A445A3323CC098B3D21ADFCE9034DA29ED00D5A6503328BA4E398C640D8B0C77F253352214DE4145770A5B214FA2546114020D759C75CE8200340D19DE981F0F6746269C33EFAB6266AB02A655C74A59CCF365BADC27CB5D902ED22848F6340DF238A141
310
BE88E2F57B92BFEDF23523433367AE6A2EEAA455C2A902F398D2751045018D3FA264435F3771F242571B4A1919CA6F9A7C5B3CD9E42BED16F12C776AEB308F40C848FC700B1139D4891EF410CEC810227CC6846F8386402064270EF5C5C709A05E49676C024C61FC95EA45ED154CA5211D1FF4FB8291A913A68E9B83EBBB33
310
E2A7673CDE118E5AE8124C0807CB8377834E366998436B950D7A7746DAD846D4CFD978E0F04FD455FC5D49D2D4C6FE9722321F10997F0F32DC47FE05504B0304140006080800CC70623BFFEA85907E0000009D0000000B0000006662782F636E782E786D6C4DCCD10A83201886E15B91FFDC95D95A811AB6F23E625948A6C3
310
E9D8E5AF46073BFAE0E1E365ED67B3E8ADC3CB78C7815C7240DA3DFC64DCC221C519D7805AC182F7F1EF06C88D9BE6703008B6049F9E274D7A1E938DBB5AE3D6131B2589BA0D3D965551E0B2EA732C9B9A624AAEB41E3A557677029960D9AFB4EF11165F504B0304140006080800CC70623B4FEEA4082C0100001202000031
310
0000006662782F39464131463745442D413632322D343644302D413938332D3331353338454246344243312F636F72652E786D6C8D515B6EC32010BC0AE2AB55850DD871ED0813254D72825EC00192A2C460F1A872FC42ED48ED5F7E00CDCECCCEB26C731F6FE05B39AFADE921293004CA082BB5B9F43086336A21D870E6AC
310
0D7F68109861543DCC30E4ECE26C9C164858139409093556AA051CBC570102714B8F1E7AF1A5C6A11862480C7F2DA6415C878B2A4891CA89C7990F2E050073937C42DE1DB7E4F87ED8A36D4329AA9B3D46DBAEAD504556557BD81DEBDD0761E52CE42C462D17B996298E3E6BE59E35C962CE821E1FF18553435012728A7187
310
0841987E927A8D9B35ADDF70BBC6989599FE4F1427F9A4286A132ABAC49D651EF234CD5CE04CDA78BA3DC2A8FB645D00B9DF8B57E215725C60BCA2A463E54C4CE327C7A65E1C7DB02E7DEFCBF594B864C5CA6CDBD49C957943E9FA5D5FBAF336F90F504B0304140006080800CC70623BAD7543B64E01000033030000300000
310
006662782F39464131463745442D413632322D343644302D413938332D3331353338454246344243312F636E782E786D6CD593CD6EC32010845F0571AD6CE3D48AD20813A9873E410FBD12D82434182C7EAAE6EDBB2424CD25871E7B41D6EC30B3FA84F9E67BB2E40B4234DE8DB46F1925E094D7C6ED479AD3AE5951B2113C
310
789FEE6C943839C1488B4C05DF079FE72A69D8C96C13AAD6B8631503449F83828872B949AC57D26200B826A308D316B4064D6E46FCDA41C05550DC9E483A00797BFD207EFB092A45DE9514C1BBD22178396BD39D891265658C238DEA00936C654E5E433CB65A26D9F6EDB5EBC14EBF49A45CB856E66048291F6939A9A81BB5
310
C8917738143CA680F4AA299D66A042CEB3354A2684DC9D8D178FE0D9B8B41CAAD720F880EE7EF93C0C18769E099ECC04D5A102C8049A8A05632F4DDF376CF1DE0F6BB65C2F8627B65A33C6BB62177CEBBDAD973006829F89F22E814B54F4BC2BE347F8AA8F681390B50FA73F804400B5F542E796F19FF974E7F78DB802FE05
310
E207504B0304140006080800CC70623B16AB87BA640500003C100000340000006662782F39464131463745442D413632322D343644302D413938332D3331353338454246344243312F6F626A656374732E786D6CAD575B6FA33818FD2B887DE6924B3BED8A326A92B68A663B534DD4D13E548A0C38942D60649B369D5FBFC7
310
600890A493BDE42160637FD7F31D7FF63E6FB3D478A55C242CBF3247B66B1A340F5994E4F19559CA8D75611A9F7D8F33263BCB4C232719BD32D5B4E97B316765A1A722BA21652A07B3B7B33F0D11D29C9A46981221AE4C113ED38CD8A4942CA2E2C58E882476BCD9DA23BB5ED8171B73523C0F841684D35CC252CCE79062D4
310
468DFA43D7747CCF51DF7D4FFDEB5593E3AB9CCA9FBEFE241792E4E19EB28198C968BAB8199F5D5A67D3E9C49A9E8F47D6EC76B6B0469F26EEFC7C3EBFBCBEB98462213924694B38DD98FE1D62C393D073EA4FADC5DAF04326852CCF6958F90F0F2B9BB5C48816348F90C7840A68EB78EDF68723159BCEE7891A6B95DDE9D3
310
BCEAEEE8086A6C6F9E5D4B59F0175C10A7A0820BAA5055C7473B5AE3CFDD452D602CD5DF12616444529E90D448938013FE6EFA58AA96F85E4F8C42275708571E98FE6827AF6B2B4AE3D7D83D64E5A64C53054DD3AF90BD06FEA9149565C94FCA0F6B834DC85599E4F2423B24DF0B6AFA979E534DFA9E7A4CC6FA631D486393
310
921829879BF5D781A373557BCB85E97FB90DB62B558F8795179C15944B051F40AB495CF35451D26A4727654E6D8033BD98EF82F21D91FF8AF2DD9982BCF1643BDD4EB516C9492E368C67C88DED563FC36D5EACF66DFF057C3658BDBFA69DF9578B3DA735B64F18C7F20770A9D45CFCF7FCF563D6456A277DBEF78A02637CA2
310
43B90A490AEAB94F72244481D24819A6C0E59B606BFA4B3025981DBB48EAB701D97BF19C577CC77F2D1B6C55A9EF3C732474C0B727303F625995056C3B02963D9EAC146BE78EC5FCEC7FA999EBC5EACBAAE41B12D27B4D2C0BBA49F244E2ECDC81B76B502F113D8F5EE8FB1BE3111CDD4FC2AA9B844CAB1288B68AB90A7CDC
310
1C166AB0D3DC5310625FCC14E779BFD0709F8890A629C9292B1B2DED31A4B0DA928CEE135085754027E3018A397D4D5427D15BD1330B677DC8934285AC3DF45A9EB68FF8F2B8FC0A509AFEECFD0FF2DE25CC6047F7214B195F07EFEB9A094D800F7BFAE8FED187B78EA8A3A400F115961BCAD1215E47C966530AF0EE8128FE
310
58CEBB996A8964FFA529A046635D9353B0336A8F700DDF46271A024E70B0B37C9DE01847591E54DED53D54202AB947E4076556AC49C6CA5C9E1226B7F1A7B1BE15DEED62C41B91E1B3E9AFAAA735036547343A925075041DF0A9979E893B391F8FCFA6967B3EFB644DCF6E5CEBFAE272625DCC6FAF3FB93793C5F90CE1EF57
310
407342756B10D1C489E8953CD1617E5CEECAD6F4EF8914CE5D5D504E5C3F1F9736DA62CFC11E00BCDDB8CC8A9466349744C1F75EBDA4DF09BA8A9E8C7A7E9991989E20E5DBDD6A6003664ED8F7A04A8DBE0DF6EAD9B9AA858342E47399053949D2C146EDB85DE4B176BB0965FBAC19BD19AA918E27FA50C1D22402E144464C
310
59462568E704B6E71915404CB72B8FF4EDE184DDAF753F284990D2C6926782963815403548A70C657FDEF80D2D9CEAA2AE4C1C76F60BFE74219A06527D6582DF6412526107381E55E353090704D085B52408D0933C4ED159D79BDA71BB4BC506F4831350EB6F979CD22D69BF7AC49B91A2C0A9DDA3D5CA36AD20FC478E37E6
310
1844E2352865EBCB6EA275A652E3836BE04EFB400BF1A2556F515F1FBB35B2AB35BD889C744FFA1004B5544B121E57F70215746DD2F5E2C1412B602CBF19455AC6C8E5E9922C4E01E65215385004546899059180EAFCF7A707CE7017CD8CDB0410789AB32C63B91E5CEBBBACB17AC6CD347A022D5075FD106377347AAABA7E
310
7D11590744509B44E205134DC1290F06580320F78E537D3D73540E06CB970B431F185308AD40BBD794D6D77003C5A36E8EAA54BA64597CD8F83BD552A080A365F7FF06504B0304140006080000CC70623B000000000000000000000000350000006662782F39464131463745442D413632322D343644302D413938332D3331
310
353338454246344243312F76657274696365732E62696E504B0304140006080800CC70623BF270F1330600000004000000360000006662782F39464131463745442D413632322D343644302D413938332D3331353338454246344243312F747269616E676C65732E62696E636660600000504B0304140006080000CC70623B
310
000000000000000000000000370000006662782F39464131463745442D413632322D343644302D413938332D3331353338454246344243312F617474726962757465732E62696E504B0304140006080800CC70623B08DA0BD19000000041010000360000006662782F39464131463745442D413632322D343644302D413938
310
332D3331353338454246344243312F6469726563746F72792E786D6C858F410AC3201045AF22B36F53E9A60B35CBEEBAE80D244E44489C6234F4F835464A48035D0DF398FF9F8AF63D0E6CC63039F212F8F9020C7D47C6792B21C5FE7403D62A1188E2E60C98D7234A5830286103A55745067B9D86B8A3CF9C7F90C11DE607
310
FB144396D7B6A82D282E9A152AD114D5EF2CB866EEE831B8EEA07A7BB5A8D7D61A2BAAEB7FD5F70921FF497D00504B0304140006080800CC70623B0D6EF93BFE000000A00100003B0000006662782F39464131463745442D413632322D343644302D413938332D3331353338454246344243312F7265736F75726365732F63
310
6F72652E786D6C8D50596E833010BD0A9ADFCA60B334011947A8694ED00B586642AC041B79A97AFC9A40A5F6AF3F33A3B7689E1E3F7DCD8FEC139DD7D6F4C0720A191A65476DA61E62B892236427C19DB5E1970C322367EC618541F0C9D9B8EC90B226A009093576C41D94DE63804C3DD2D18357379C652E63480A7FCF17A9
310
EE72C29CE5894E3AC17D702940B63D59270887DE46A7D0F36263058F518FBB468FE9A7BE6A7420864373B8D4873369AA8691FA421B3294352543C5CAF65C0F6FEF43CB8BD52C78D0F34F46E550061C419494B6843142CB0F5677F4B52BEB177AEC28E5C52AFF638ACBF84F53D42654E51E77B379102C05791282176B5F693D
310
CB4C7BED567C03504B010214000A0000080000CC70623B3DEE336E79000000790000001B00000000000000000000000000000000006175746F6465736B2D64657369676E2D7061636B6167652E786D6C504B01021400140006080800CC70623BD486FD9CA0000000F40000001300000000000000000000000000B20000005B
310
436F6E74656E745F54797065735D2E786D6C504B01021400140006080800CC70623B1EC5D7A3EB0000007C010000080000000000000000000000000083010000636F72652E786D6C504B01021400140006080800CC70623B55019EA25F0000007C000000070000000000000000000000000094020000636E782E786D6C504B
310
01021400140006080800CC70623B8C9102E971010000D40300000C00000000000000000000000000180300006662782F636F72652E786D6C504B01021400140006080800CC70623BFFEA85907E0000009D0000000B00000000000000000000000000B30400006662782F636E782E786D6C504B01021400140006080800CC70
310
623B4FEEA4082C0100001202000031000000000000000000000000005A0500006662782F39464131463745442D413632322D343644302D413938332D3331353338454246344243312F636F72652E786D6C504B01021400140006080800CC70623BAD7543B64E010000330300003000000000000000000000000000D5060000
310
6662782F39464131463745442D413632322D343644302D413938332D3331353338454246344243312F636E782E786D6C504B01021400140006080800CC70623B16AB87BA640500003C1000003400000000000000000000000000710800006662782F39464131463745442D413632322D343644302D413938332D3331353338
310
454246344243312F6F626A656374732E786D6C504B01021400140006080000CC70623B0000000000000000000000003500000000000000000000000000270E00006662782F39464131463745442D413632322D343644302D413938332D3331353338454246344243312F76657274696365732E62696E504B01021400140006
310
080800CC70623BF270F133060000000400000036000000000000000000000000007A0E00006662782F39464131463745442D413632322D343644302D413938332D3331353338454246344243312F747269616E676C65732E62696E504B01021400140006080000CC70623B0000000000000000000000003700000000000000
310
000000000000D40E00006662782F39464131463745442D413632322D343644302D413938332D3331353338454246344243312F617474726962757465732E62696E504B01021400140006080800CC70623B08DA0BD190000000410100003600000000000000000000000000290F00006662782F39464131463745442D413632
310
322D343644302D413938332D3331353338454246344243312F6469726563746F72792E786D6C504B01021400140006080800CC70623B0D6EF93BFE000000A00100003B000000000000000000000000000D1000006662782F39464131463745442D413632322D343644302D413938332D3331353338454246344243312F7265
310
736F75726365732F636F72652E786D6C504B0506000000000E000E0080040000641100000000
  0
XRECORD
  5
BB6
102
{ACAD_REACTORS
330
173
102
}
330
173
100
AcDbXrecord
102
MATERIAL
148
0.0
149
0.0
149
0.0
 93
        0
 94
       63
282
     0
 72
     1
 77
     1
171
     1
175
     1
179
     1
273
     0
  0
XRECORD
  5
1FB
102
{ACAD_REACTORS
330
173
102
}
330
173
100
AcDbXrecord
 70
     0
 90
1673772943
  1
ECE7A1D2-D628-4531-984C-D00F80459256
310
504B03040A0000080000CC70623B3DEE336E79000000790000001B0000006175746F6465736B2D64657369676E2D7061636B6167652E786D6C3C3F786D6C2076657273696F6E3D22312E302220656E636F64696E673D227574662D3822203F3E3C666F726D6174733E3C666F726D61743E687474703A2F2F736368656D612E
310
6175746F6465736B2E636F6D2F64657369676E2D7061636B6167652F323030393C2F666F726D61743E3C2F666F726D6174733E504B0304140006080800CC70623BD486FD9CA0000000F4000000130000005B436F6E74656E745F54797065735D2E786D6C7D8EC10E82300C865F65E91D8A1E8C310C0EEA1BF002731658846E
310
D98AC1B77784ABF1D8FE5FBFBF75BBCE937A534CCEB38643598122B6FEE978D0B0485F9C41B54DDD7D022595594E1A469170414C76A4D9A4D207E29CF43ECE46F218070CC6BECC4078ACAA135ACF422C856C0E68EA1BF5669944DDD7BCDE7B1F8E415D77AECB980613C2E4AC91FC167A2B244592486606FC29C8FD7F045B9A
310
EF7053A7E60B504B0304140006080800CC70623BD9DDAED0EC0000007C01000008000000636F72652E786D6C8D90416EC3201045AF82665B61836D9CD8C2444DD39CA01740405C94182C03558F5F9C3852BBEB6A467FFE9B197D7EF89E6EE8CB2CC17A37002D0820E394D7D68D03A478C17B4007C117EFE32F1B20272733C0
310
2A83E0E3E2D3BC49CABB685CCCAAF3DA6CA20CC14440EA969B0182FA34932C648AD911AEC52CD5558EA6A0CF2EC329598D1E47ACCEFBECC59A050463A7EA5833865FEBDD0E37353BE3EE8DBDE3F6786A48D375FBF6CC78B9C282473B3DEFABC5C86834888A900E538A49F5419B9EB47DD5BC907D4F082F57FB1F28CDFA9F50
310
B22ED6D5F6EE030B20687EE43E10BC5CB3C8E51E54AE6B6EE207504B0304140006080800CC70623B55019EA25F0000007C00000007000000636E782E786D6C4DCB3B0E80201045D1AD90E915ED2CF8AC45050C11660C8261F98AB1B07AC9C97D42D718D865D3E909258CFD00CCE24AC6E326A164D74DC0B4128928FF326038
310
472BA13128B1252AC747C6BAB984FC68F0B87FE8960A5C09FE86CFB69FBA01504B0304140006080800CC70623BA24EB22D72010000D40300000C0000006662782F636F72652E786D6CC5535B6E833010BC8AE5DF0A6C5E49888CA3A6694ED00B38E05014B091B1518EDFE511A5A9D228FD2A1F60CDEC7A67C6986DCE4D8D7A
310
69BA4AAB0C073EC548AA5C17952A33ECECD15B61B4E1CC686DBF9561A44423333CC098B3D268D7CE50AE9595CA02AA74216750749DB418E5352C32DCE59FB211BE70162ABA93DF8AFC244AE9073ED050C759670D0840D390E18DF9F1706664C23973AE2A66B62A605A75ACA4C13C4976E1364A12EF355A2EBD384AF65EFA96
310
BC7B8BED2EA6719AAE16FB8491A199335B351775B991C2CA02F390D2D40B028F861F41BCA68B7518BFD0D59A524686F29B26D7164F36B94AD9289CE54E6D1DE6010819891F6E21228B3AD1831EC219194284CF98F06DD01008846CC5A1BEF83801D4CBDC6A1303536877A57A513B0953A94FC707FDBE6064EA84A9E3E6E0FA
310
EE8CF0E9198F7784A316AA0413C2C2F2E0ECA0934D1AE6D05A69BCDE9E91D2A611F573361E38FC1375157F5752AE6B6DFE4B11990F88CCBF0719EE23FF02504B0304140006080800CC70623B408A7D3B7C0000009D0000000B0000006662782F636E782E786D6C4DCCD10A83201886E15B91FFDC552A92A0064DBC8F581632
310
D3703A76F9ABD1C18E3E78F878E5F0D9027ABBFCF2292AE86E2D20171F69F6715550CB827B40839639A5F2770314A7CD293819B45C73AAFB45B35BA61ACAA1C1C7E7855C58C15BC331339661262CC762340413D68D77DA5B42298546CBE6573AF60CEB2F504B0304140006080800CC70623B449FB9BD290100001202000031
310
0000006662782F36394639363044362D344446342D343946362D394244322D3234314243333846323333332F636F72652E786D6C8D515B6EC32010BC0AE22B55850D98B871848994463E412FE002495162B07854397EA176A4F62F3F2C9A9D991D587EB84F37F0AD7D30CEF6905418026DA553C65E7A98E219ED203808EE9D
310
8B7F6810D871D23D2C3014FCE25D9A57483A1BB58D19B54EE9151C43D0110279CB971E06F9A5A7B11A53CC8C70ADE6515EC78BAE4895DB992778883E0700CB907242D17643D7E2538BD869608875438BBAE38922CAC8F1BDD90DB4691A5E2F42C153326A951B95E398B3D1FE599322163C9AE9115F7A3D46ADA0A018778810
310
84E907617BDCEE297BC5BB3DC6BC2EF47FA234AB2745C9D8D8D035EE220B50105E2F0DC1954B9FB747187D9F9D8FA0CCDB042D5FA0C015C65B42DF78BD10F3F3B363CB56C7109DCFDFBBB97E662ED92EB62D13BC2E1BCAE5777DB9966D8A1F504B0304140006080800CC70623BAD7543B64E01000033030000300000006662
310
782F36394639363044362D344446342D343946362D394244322D3234314243333846323333332F636E782E786D6CD593CD6EC32010845F0571AD6CE3D48AD20813A9873E410FBD12D82434182C7EAAE6EDBB2424CD25871E7B41D6EC30B3FA84F9E67BB2E40B4234DE8DB46F1925E094D7C6ED479AD3AE5951B2113C789FEE
310
6C943839C1488B4C05DF079FE72A69D8C96C13AAD6B8631503449F83828872B949AC57D26200B826A308D316B4064D6E46FCDA41C05550DC9E483A00797BFD207EFB092A45DE9514C1BBD22178396BD39D891265658C238DEA00936C654E5E433CB65A26D9F6EDB5EBC14EBF49A45CB856E66048291F6939A9A81BB5C89177
310
38143CA680F4AA299D66A042CEB3354A2684DC9D8D178FE0D9B8B41CAAD720F880EE7EF93C0C18769E099ECC04D5A102C8049A8A05632F4DDF376CF1DE0F6BB65C2F8627B65A33C6BB62177CEBBDAD973006829F89F22E814B54F4BC2BE347F8AA8F681390B50FA73F804400B5F542E796F19FF974E7F78DB802FE05E20750
310
4B0304140006080800CC70623B8D05915C650500003B100000340000006662782F36394639363044362D344446342D343946362D394244322D3234314243333846323333332F6F626A656374732E786D6CAD575B6FA33814FE2B887D06429276DA1565D4266D158D3A339A6846FB502932E050B66023DB74D2FDF5FB190C01
310
9276B2973C046C8ECFF53B17071F77456EBD502133CEAE6CDF9DD81665314F32965ED995DA3A17B6F5310C04E7AA47665B8C14F4CAD6DB7618A48257A5D94AE89654B91AEDDEDDFC61C998326A5B714EA4BCB265FC440BE2924AF184CA6737218AB8E976E7FA6E4338649B0A523E8D98964450A6A029F619B8588D52FE7039
310
B1BD30F0F4F730D0FF866AF6369557DB33949F31A9088B0F848DD8CCFCF9F2767A76E99CCDE733677E3EF59D9BBB9BA5E37F984D16E78BC5E5F5ED25044B25C0C96822E8D60EEFE11B91C581D77CEA34368A1F5329E68CD1B8B61F16D63A1B8E092D294B10C78C4A48EB593D192E7DED9BDEE7995E1B91FDEDD3ACEA9FE831
310
6A756F9F7D4D79F4274C90A7A04248AA51D5F8C718DAE06FB2F75AC4796EBE65D22A88A22223B995679120E2D50E41AA49C260C046A35368846B0BECD0DFF3EBEB8AD4F835768F69B9ADF25C43D30E6B646F807FAA64AD59F61715C7A54127C4AACA98BA3006A9D792DAE165E0D59B61A01FB3A9F9D838D2DAE62445C86166
310
F37564E842E7DE6A69879FEEA2DD5AE7E371E1A5E025154AC307D06A03D73EB5978C58FFA4C8E9033066E0F3BD53BEC1F39F91BE7B55103791EDE6BBB991A2046172CB4581D8B893FA674DDA17A77B3B7C413D1B511FD2743BFF8A38F03A658705E3ADF8015C3A3417FF3D7E439FF591DA0B5F18BC20C1B8981957AE6392A3
310
F43C640C01D1A0B4728E2DD4F26DB4B3C3152A252A3B4E913CEC1C72F012782FF88EFF8637AA552DBEF76408E8A8DE9E50F9E1CB3A2DA0DB1B6039A893B56063DC5B3E3FFB5F72E67AB9FEB4AEC496C4F4C1149625DD662C53E89D7BF0F6151A046260D1337DFDC94502430F83B0EE07A130A224BCAD7DAE1D9FB6CD422FF6
310
920702629C4BB9AE79C12F243C6432A6794E18E5552BA56B431AAB5D91317302B2B071E86C3A42B1A02F999E24061403B5D0EB639195DA655DD3EBEAB4FB862DDF579F014AD0E73C22F99E28DA57FB98E75C6CA2D74D53086D600F4786E0FE3144B771A8A7B900F03594DB8A633CBC49B2EDB69228BB479CF863B5E807AAAB
310
23872F6DFEB4129B949CA33823F58830E86D65621E10047D9DB34D862E8EAC3C2ABC2F7B2C40D67CDFE01F5545B92105AF983AC54D93D69E56FB8E797F88913F898A9FEC705D3F9D1B54EC8426FB500D40A03BD0119B06E1B95DDC7EB8F6975367793EBD70E66733DFB9BC982F9CE564727731999F5D4ECFCE3B8D6A4DC2A0
310
6D50FD148437D110834A64C6CDDF57FBACB5C307A2A477DFE4939736CFEF2B175371E0E10CF0DD1D5C15654E0BCA14D1E87DD02FF93782A162C0A3D95F1524A52770F972BF1EE9809D13CE7DD599467F8ECE9ADD85CE85A34CD45355448C64F9E8A031DC2D596ACC6E5DD93D9B82DE2EF5CAF81363A8E47996A0DE24564A79
310
4115AACE09C55E14540231FDA13C319787134EBF34E3A022514E5B4D9E0826E25C02D5805B15ABE1BEF51B26383D445DD9E875EE33FE4C22DA16427D65A3BCA92CA6D28DD01DF5DC53330704308475351050232CCD31583787BA75774AFB06E5070DD0C8EF484E19968C5D83BA5B90B244D31E54D55A372320FE4786B7EA58
310
44E135AA5467CB7EA333A61683CC6A8C3257034C10CF46F40EF9F5BE59BE5BD30C3C72D235E95D10345C1D45445A5F0BB47E46A5EBE5570F9380B5FA629579952296A773720405982B9DE04011506178964401AA8BDF1FBF0A8EAB6861DD6580C0E38217056766716DAEB2D6FA0917D3E4116581EADB879C4E7CFFB11EFACD
310
3D641311495D92C8676CB409A72D18610D803CE8A626049E8EC1887CB5B44CC39883690DDA8399B4B9855B481E7D71D4A9D22F96E5BB73BF5793020C02137BF837504B0304140006080000CC70623B000000000000000000000000350000006662782F36394639363044362D344446342D343946362D394244322D32343142
310
43333846323333332F76657274696365732E62696E504B0304140006080800CC70623BF270F1330600000004000000360000006662782F36394639363044362D344446342D343946362D394244322D3234314243333846323333332F747269616E676C65732E62696E636660600000504B0304140006080000CC70623B0000
310
00000000000000000000370000006662782F36394639363044362D344446342D343946362D394244322D3234314243333846323333332F617474726962757465732E62696E504B0304140006080800CC70623B08DA0BD19000000041010000360000006662782F36394639363044362D344446342D343946362D394244322D
310
3234314243333846323333332F6469726563746F72792E786D6C858F410AC3201045AF22B36F53E9A60B35CBEEBAE80D244E44489C6234F4F835464A48035D0DF398FF9F8AF63D0E6CC63039F212F8F9020C7D47C6792B21C5FE7403D62A1188E2E60C98D7234A5830286103A55745067B9D86B8A3CF9C7F90C11DE607FB14
310
4396D7B6A82D282E9A152AD114D5EF2CB866EEE831B8EEA07A7BB5A8D7D61A2BAAEB7FD5F70921FF497D00504B0304140006080800CC70623BCA768048FE000000A00100003B0000006662782F36394639363044362D344446342D343946362D394244322D3234314243333846323333332F7265736F75726365732F636F72
310
652E786D6C8D50596E833010BD0A9ADFCA60D600328E9AA639412F609909B1126CE4A5EAF16B0295DABFFECC8CDEA2797AECF8353F924FB44E193D409E5248504B332A3D0D10FC95B4901C39B3C6F85F3248B49871801506CE266BC2B243D2688FDA47549B11775038871E12F988C7004EDE7016A9083E2ADC3D5D84BC8B09
310
D33C8D74D471E6BC8D0192EDC93A815B742658898E651BCB59086ADC356A8C3FD555A1055ED7E7E254D615792D0F075295F585746FF53B694EE78A565DD736979A65AB9933AFE69F8CD2A2F038022F28ED489E135A7CE4554F9BBEA85E68DB53CAB255FEC71496F19FA6A0B42F8B3DEE6673C0F318E4497096AD7DC5F52C33
310
EEB55BFE0D504B010214000A0000080000CC70623B3DEE336E79000000790000001B00000000000000000000000000000000006175746F6465736B2D64657369676E2D7061636B6167652E786D6C504B01021400140006080800CC70623BD486FD9CA0000000F40000001300000000000000000000000000B20000005B436F
310
6E74656E745F54797065735D2E786D6C504B01021400140006080800CC70623BD9DDAED0EC0000007C010000080000000000000000000000000083010000636F72652E786D6C504B01021400140006080800CC70623B55019EA25F0000007C000000070000000000000000000000000095020000636E782E786D6C504B0102
310
1400140006080800CC70623BA24EB22D72010000D40300000C00000000000000000000000000190300006662782F636F72652E786D6C504B01021400140006080800CC70623B408A7D3B7C0000009D0000000B00000000000000000000000000B50400006662782F636E782E786D6C504B01021400140006080800CC70623B
310
449FB9BD290100001202000031000000000000000000000000005A0500006662782F36394639363044362D344446342D343946362D394244322D3234314243333846323333332F636F72652E786D6C504B01021400140006080800CC70623BAD7543B64E010000330300003000000000000000000000000000D20600006662
310
782F36394639363044362D344446342D343946362D394244322D3234314243333846323333332F636E782E786D6C504B01021400140006080800CC70623B8D05915C650500003B10000034000000000000000000000000006E0800006662782F36394639363044362D344446342D343946362D394244322D32343142433338
310
46323333332F6F626A656374732E786D6C504B01021400140006080000CC70623B0000000000000000000000003500000000000000000000000000250E00006662782F36394639363044362D344446342D343946362D394244322D3234314243333846323333332F76657274696365732E62696E504B010214001400060808
310
00CC70623BF270F13306000000040000003600000000000000000000000000780E00006662782F36394639363044362D344446342D343946362D394244322D3234314243333846323333332F747269616E676C65732E62696E504B01021400140006080000CC70623B00000000000000000000000037000000000000000000
310
00000000D20E00006662782F36394639363044362D344446342D343946362D394244322D3234314243333846323333332F617474726962757465732E62696E504B01021400140006080800CC70623B08DA0BD190000000410100003600000000000000000000000000270F00006662782F36394639363044362D344446342D
310
343946362D394244322D3234314243333846323333332F6469726563746F72792E786D6C504B01021400140006080800CC70623BCA768048FE000000A00100003B000000000000000000000000000B1000006662782F36394639363044362D344446342D343946362D394244322D3234314243333846323333332F7265736F
310
75726365732F636F72652E786D6C504B0506000000000E000E0080040000621100000000
  0
ACAD_PROXY_OBJECT
  5
3EA
330
3E5
100
AcDbProxyObject
 90
      499
 91
      529
 93
       77
310
40AF3C363FFFC83D2020
330
3D7
330
0
330
0
360
0
 94
        0
1001
ACAD
1000
AcadProxyRoundTripData
1071
      520
1071
 11403297
1070
     0
  0
ACAD_PROXY_OBJECT
  5
54E
330
3E5
100
AcDbProxyObject
 90
      499
 91
      529
 93
       77
310
40AF3C363FFFC98D2020
330
392
330
0
330
0
360
0
 94
        0
1001
ACAD
1000
AcadProxyRoundTripData
1071
      520
1071
 11403297
1070
     0
  0
ACAD_PROXY_OBJECT
  5
4FA
330
3E5
100
AcDbProxyObject
 90
      499
 91
      529
 93
       70
310
40AB894CAD2C901004
330
4F9
330
0
330
0
360
0
 94
        0
1001
ACAD
1000
AcadProxyRoundTripData
1071
      519
1071
 11403297
1070
     0
  0
ACAD_PROXY_OBJECT
  5
3E7
330
3E5
100
AcDbProxyObject
 90
      499
 91
      529
 93
       77
310
40AF3C363FFFC8452020
330
3D8
330
0
330
0
360
0
 94
        0
1001
ACAD
1000
AcadProxyRoundTripData
1071
      520
1071
 11403297
1070
     0
  0
ACAD_PROXY_OBJECT
  5
555
330
3E5
100
AcDbProxyObject
 90
      499
 91
      529
 93
       70
310
40AB89B4AD22901004
330
554
330
0
330
0
360
0
 94
        0
1001
ACAD
1000
AcadProxyRoundTripData
1071
      519
1071
 11403297
1070
     0
  0
ACAD_PROXY_OBJECT
  5
551
330
3E5
100
AcDbProxyObject
 90
      499
 91
      529
 93
       77
310
40AF3C363FFFC9A52020
330
39B
330
0
330
0
360
0
 94
        0
1001
ACAD
1000
AcadProxyRoundTripData
1071
      520
1071
 11403297
1070
     0
  0
ACAD_PROXY_OBJECT
  5
3F4
330
3E5
100
AcDbProxyObject
 90
      499
 91
      529
 93
       77
310
40AF3C363FFFC89D2020
330
397
330
0
330
0
360
0
 94
        0
1001
ACAD
1000
AcadProxyRoundTripData
1071
      520
1071
 11403297
1070
     0
  0
ACAD_PROXY_OBJECT
  5
3EC
330
3E5
100
AcDbProxyObject
 90
      499
 91
      529
 93
       70
310
40AB88BCAD23301005
330
3FB
330
0
330
0
360
0
 94
        0
1001
ACAD
1000
AcadProxyRoundTripData
1071
      519
1071
 11403297
1070
     0
  0
ACAD_PROXY_OBJECT
  5
556
330
3E5
100
AcDbProxyObject
 90
      499
 91
      529
 93
       30
310
40A789B8
330
553
330
0
330
0
360
557
 94
        0
1001
ACAD
1000
AcadProxyRoundTripData
1071
      521
1071
 11403297
1070
     0
  0
ACAD_PROXY_OBJECT
  5
552
330
3E5
100
AcDbProxyObject
 90
      499
 91
      529
 93
       77
310
40AF3C363FFFC9AD2020
330
39D
330
0
330
0
360
0
 94
        0
1001
ACAD
1000
AcadProxyRoundTripData
1071
      520
1071
 11403297
1070
     0
  0
ACAD_PROXY_OBJECT
  5
3EB
330
3E5
100
AcDbProxyObject
 90
      499
 91
      529
 93
       77
310
40AF3C363FFFC8DD2020
330
3DE
330
0
330
0
360
0
 94
        0
1001
ACAD
1000
AcadProxyRoundTripData
1071
      520
1071
 11403297
1070
     0
  0
ACAD_PROXY_OBJECT
  5
3EF
330
3E5
100
AcDbProxyObject
 90
      499
 91
      529
 93
       30
310
40A788C0
330
3DB
330
0
330
0
360
3F0
 94
        0
1001
ACAD
1000
AcadProxyRoundTripData
1071
      521
1071
 11403297
1070
     0
  0
ACAD_PROXY_OBJECT
  5
550
330
3E5
100
AcDbProxyObject
 90
      499
 91
      529
 93
       77
310
40AF3C363FFFC99D2020
330
39C
330
0
330
0
360
0
 94
        0
1001
ACAD
1000
AcadProxyRoundTripData
1071
      520
1071
 11403297
1070
     0
  0
ACAD_PROXY_OBJECT
  5
3F5
330
3E5
100
AcDbProxyObject
 90
      499
 91
      529
 93
       30
310
40A788B0
330
3DA
330
0
330
0
360
3F6
 94
        0
1001
ACAD
1000
AcadProxyRoundTripData
1071
      521
1071
 11403297
1070
     0
  0
ACAD_PROXY_OBJECT
  5
3E9
330
3E5
100
AcDbProxyObject
 90
      499
 91
      529
 93
       77
310
40AF3C363FFFC8A52020
330
398
330
0
330
0
360
0
 94
        0
1001
ACAD
1000
AcadProxyRoundTripData
1071
      520
1071
 11403297
1070
     0
  0
ACAD_PROXY_OBJECT
  5
54F
330
3E5
100
AcDbProxyObject
 90
      499
 91
      529
 93
       77
310
40AF3C363FFFC9952020
330
3D6
330
0
330
0
360
0
 94
        0
1001
ACAD
1000
AcadProxyRoundTripData
1071
      520
1071
 11403297
1070
     0
  0
ACAD_PROXY_OBJECT
  5
4FB
330
3E5
100
AcDbProxyObject
 90
      499
 91
      529
 93
       30
310
40A78950
330
4F8
330
0
330
0
360
4FC
 94
        0
1001
ACAD
1000
AcadProxyRoundTripData
1071
      521
1071
 11403297
1070
     0
  0
ACAD_PROXY_OBJECT
  5
3E6
330
3E5
100
AcDbProxyObject
 90
      499
 91
      529
 93
       70
310
40AB88ACAD2C901005
330
3FA
330
0
330
0
360
0
 94
        0
1001
ACAD
1000
AcadProxyRoundTripData
1071
      519
1071
 11403297
1070
     0
  0
ACAD_PROXY_OBJECT
  5
49A
330
3E5
100
AcDbProxyObject
 90
      499
 91
      529
 93
       77
310
40AF3C363FFFC9152020
330
491
330
0
330
0
360
0
 94
        0
1001
ACAD
1000
AcadProxyRoundTripData
1071
      520
1071
 11403297
1070
     0
  0
ACAD_PROXY_OBJECT
  5
497
330
3E5
100
AcDbProxyObject
 90
      499
 91
      529
 93
       70
310
40AB891CAD22901004
330
496
330
0
330
0
360
0
 94
        0
1001
ACAD
1000
AcadProxyRoundTripData
1071
      519
1071
 11403297
1070
     0
  0
ACAD_PROXY_OBJECT
  5
498
330
3E5
100
AcDbProxyObject
 90
      499
 91
      529
 93
       30
310
40A78920
330
492
330
0
330
0
360
499
 94
        0
1001
ACAD
1000
AcadProxyRoundTripData
1071
      521
1071
 11403297
1070
     0
  0
ACAD_PROXY_OBJECT
  5
4FD
330
3E5
100
AcDbProxyObject
 90
      499
 91
      529
 93
       77
310
40AF3C363FFFC9452020
330
4F7
330
0
330
0
360
0
 94
        0
1001
ACAD
1000
AcadProxyRoundTripData
1071
      520
1071
 11403297
1070
     0
  0
ACAD_PROXY_OBJECT
  5
5C5
330
3E5
100
AcDbProxyObject
 90
      499
 91
      529
 93
       77
310
40AF3C363FFFC9C52020
330
5BF
330
0
330
0
360
0
 94
        0
1001
ACAD
1000
AcadProxyRoundTripData
1071
      520
1071
 11403297
1070
     0
  0
ACAD_PROXY_OBJECT
  5
5C2
330
3E5
100
AcDbProxyObject
 90
      499
 91
      529
 93
       70
310
40AB89CCAD2C901005
330
5C1
330
0
330
0
360
0
 94
        0
1001
ACAD
1000
AcadProxyRoundTripData
1071
      519
1071
 11403297
1070
     0
  0
ACAD_PROXY_OBJECT
  5
5C3
330
3E5
100
AcDbProxyObject
 90
      499
 91
      529
 93
       30
310
40A789D0
330
5C0
330
0
330
0
360
5C4
 94
        0
1001
ACAD
1000
AcadProxyRoundTripData
1071
      521
1071
 11403297
1070
     0
  0
ACAD_PROXY_OBJECT
  5
5E0
330
3E5
100
AcDbProxyObject
 90
      499
 91
      529
 93
       77
310
40AF3C363FFFC9F52020
330
5DC
330
0
330
0
360
0
 94
        0
1001
ACAD
1000
AcadProxyRoundTripData
1071
      520
1071
 11403297
1070
     0
  0
ACAD_PROXY_OBJECT
  5
666
330
3E5
100
AcDbProxyObject
 90
      499
 91
      529
 93
       70
310
40AB8A1CAD26501005
330
665
330
0
330
0
360
0
 94
        0
1001
ACAD
1000
AcadProxyRoundTripData
1071
      519
1071
 11403297
1070
     0
  0
ACAD_PROXY_OBJECT
  5
662
330
3E5
100
AcDbProxyObject
 90
      499
 91
      529
 93
       77
310
40AF3C363FFFC9FD2020
330
4F6
330
0
330
0
360
0
 94
        0
1001
ACAD
1000
AcadProxyRoundTripData
1071
      520
1071
 11403297
1070
     0
  0
ACAD_PROXY_OBJECT
  5
667
330
3E5
100
AcDbProxyObject
 90
      499
 91
      529
 93
       30
310
40A78A20
330
664
330
0
330
0
360
668
 94
        0
1001
ACAD
1000
AcadProxyRoundTripData
1071
      521
1071
 11403297
1070
     0
  0
ACAD_PROXY_OBJECT
  5
65F
330
3E5
100
AcDbProxyObject
 90
      499
 91
      529
 93
      126
310
40AB8A04940B91F85EA50B8508101004
330
65E
330
0
330
0
360
0
 94
        0
1001
ACAD
1000
AcadProxyRoundTripData
1071
      519
1071
 11403297
1070
     0
  0
ACAD_PROXY_OBJECT
  5
660
330
3E5
100
AcDbProxyObject
 90
      499
 91
      529
 93
       30
310
40A78A08
330
65D
330
0
330
0
360
661
 94
        0
1001
ACAD
1000
AcadProxyRoundTripData
1071
      521
1071
 11403297
1070
     0
  0
ACAD_PROXY_OBJECT
  5
669
330
3E5
100
AcDbProxyObject
 90
      499
 91
      529
 93
       77
310
40AF3C363FFFCA152020
330
663
330
0
330
0
360
0
 94
        0
1001
ACAD
1000
AcadProxyRoundTripData
1071
      520
1071
 11403297
1070
     0
  0
ACAD_PROXY_OBJECT
  5
AE8
330
AE0
100
AcDbProxyObject
 90
      499
 91
      529
 93
       77
310
40AF3C363FFFC8452020
330
AAD
330
0
330
0
360
0
 94
        0
1001
ACAD
1000
AcadProxyRoundTripData
1071
      520
1071
 11403297
1070
     0
  0
ACAD_PROXY_OBJECT
  5
AEC
330
AE0
100
AcDbProxyObject
 90
      499
 91
      529
 93
       77
310
40AF3C363FFFC8DD2020
330
AB2
330
0
330
0
360
0
 94
        0
1001
ACAD
1000
AcadProxyRoundTripData
1071
      520
1071
 11403297
1070
     0
  0
ACAD_PROXY_OBJECT
  5
AE9
330
AE0
100
AcDbProxyObject
 90
      499
 91
      529
 93
       77
310
40AF3C363FFFC89D2020
330
AA2
330
0
330
0
360
0
 94
        0
1001
ACAD
1000
AcadProxyRoundTripData
1071
      520
1071
 11403297
1070
     0
  0
ACAD_PROXY_OBJECT
  5
AEA
330
AE0
100
AcDbProxyObject
 90
      499
 91
      529
 93
       77
310
40AF3C363FFFC8D52020
330
AB1
330
0
330
0
360
0
 94
        0
1001
ACAD
1000
AcadProxyRoundTripData
1071
      520
1071
 11403297
1070
     0
  0
ACAD_PROXY_OBJECT
  5
AEB
330
AE0
100
AcDbProxyObject
 90
      499
 91
      529
 93
       77
310
40AF3C363FFFC83D2020
330
AAC
330
0
330
0
360
0
 94
        0
1001
ACAD
1000
AcadProxyRoundTripData
1071
      520
1071
 11403297
1070
     0
  0
ACAD_PROXY_OBJECT
  5
AE1
330
AE0
100
AcDbProxyObject
 90
      499
 91
      529
 93
       30
310
40A78908
330
AB4
330
0
330
0
360
AE2
 94
        0
1001
ACAD
1000
AcadProxyRoundTripData
1071
      521
1071
 11403297
1070
     0
  0
ACAD_PROXY_OBJECT
  5
AE5
330
AE0
100
AcDbProxyObject
 90
      499
 91
      529
 93
       70
310
40AB88BCAD23301005
330
AED
330
0
330
0
360
0
 94
        0
1001
ACAD
1000
AcadProxyRoundTripData
1071
      519
1071
 11403297
1070
     0
  0
ACAD_PROXY_OBJECT
  5
AE6
330
AE0
100
AcDbProxyObject
 90
      499
 91
      529
 93
       70
310
40AB8904AD26501005
330
AEE
330
0
330
0
360
0
 94
        0
1001
ACAD
1000
AcadProxyRoundTripData
1071
      519
1071
 11403297
1070
     0
  0
ACAD_PROXY_OBJECT
  5
AE3
330
AE0
100
AcDbProxyObject
 90
      499
 91
      529
 93
       30
310
40A788C0
330
AAF
330
0
330
0
360
AE4
 94
        0
1001
ACAD
1000
AcadProxyRoundTripData
1071
      521
1071
 11403297
1070
     0
  0
ACAD_PROXY_OBJECT
  5
AE7
330
AE0
100
AcDbProxyObject
 90
      499
 91
      529
 93
       77
310
40AF3C363FFFC8E52020
330
AB3
330
0
330
0
360
0
 94
        0
1001
ACAD
1000
AcadProxyRoundTripData
1071
      520
1071
 11403297
1070
     0
  0
ACAD_PROXY_OBJECT
  5
557
330
556
100
AcDbProxyObject
 90
      499
 91
      529
 93
      137
310
4050140505640031003D00320030005A00AE
1001
ACAD
1000
AcadProxyRoundTripData
1071
      522
1071
 11403297
1070
     0
  0
ACAD_PROXY_OBJECT
  5
3F0
330
3EF
100
AcDbProxyObject
 90
      499
 91
      529
 93
      137
310
4050140505640033003D00320035005A00AE
1001
ACAD
1000
AcadProxyRoundTripData
1071
      522
1071
 11403297
1070
     0
  0
ACAD_PROXY_OBJECT
  5
3F6
330
3F5
100
AcDbProxyObject
 90
      499
 91
      529
 93
      169
310
40501405074A53845F32003D003100300030007A00F0
1001
ACAD
1000
AcadProxyRoundTripData
1071
      522
1071
 11403297
1070
     0
  0
ACAD_PROXY_OBJECT
  5
4FC
330
4FB
100
AcDbProxyObject
 90
      499
 91
      529
 93
      169
310
40501405074A53845F31003D003100300030007A0080
1001
ACAD
1000
AcadProxyRoundTripData
1071
      522
1071
 11403297
1070
     0
  0
ACAD_PROXY_OBJECT
  5
499
330
498
100
AcDbProxyObject
 90
      499
 91
      529
 93
      137
310
4050140505640032003D00320030005A0080
1001
ACAD
1000
AcadProxyRoundTripData
1071
      522
1071
 11403297
1070
     0
  0
ACAD_PROXY_OBJECT
  5
5C4
330
5C3
100
AcDbProxyObject
 90
      499
 91
      529
 93
      169
310
40501405074A53845F33003D003100300030007A0080
1001
ACAD
1000
AcadProxyRoundTripData
1071
      522
1071
 11403297
1070
     0
  0
ACAD_PROXY_OBJECT
  5
668
330
667
100
AcDbProxyObject
 90
      499
 91
      529
 93
      137
310
4050140505640035003D00350030005A00B1
1001
ACAD
1000
AcadProxyRoundTripData
1071
      522
1071
 11403297
1070
     0
  0
ACAD_PROXY_OBJECT
  5
661
330
660
100
AcDbProxyObject
 90
      499
 91
      529
 93
      185
310
4050140508640034003D00310032002E00310038008A00BF
1001
ACAD
1000
AcadProxyRoundTripData
1071
      522
1071
 11403297
1070
     0
  0
ACAD_PROXY_OBJECT
  5
AE2
330
AE1
100
AcDbProxyObject
 90
      499
 91
      529
 93
       89
310
4050140502350030002A00EA
1001
ACAD
1000
AcadProxyRoundTripData
1071
      522
1071
 11403297
1070
     0
  0
ACAD_PROXY_OBJECT
  5
AE4
330
AE3
100
AcDbProxyObject
 90
      499
 91
      529
 93
       89
310
4050140502320035002A00EA
1001
ACAD
1000
AcadProxyRoundTripData
1071
      522
1071
 11403297
1070
     0
  0
ENDSEC
  0
EOF
